osu file format v14

[General]
AudioFilename: audio.ogg
AudioLeadIn: 0
PreviewTime: 33662
Countdown: 0
SampleSet: Soft
StackLeniency: 0.5
Mode: 0
LetterboxInBreaks: 0
WidescreenStoryboard: 1

[Editor]
DistanceSpacing: 1
BeatDivisor: 4
GridSize: 32
TimelineZoom: 1.5

[Metadata]
Title:Sawakaze (TV Size)
TitleUnicode:爽風 (TV Size)
Artist:Tomofumi Tanizawa
ArtistUnicode:タニザワトモフミ
Creator:Stompy_
Version:Stompy & Sowisty's Easy
Source:君に届け 2ND SEASON
Tags:animestyle sowisty centrak_ anime pop japanese j-pop jpop kimi ni todoke from me to you opening op second season soufuu male vocals vocalist season 2 two
BeatmapID:4164883
BeatmapSetID:2001782

[Difficulty]
HPDrainRate:2.5
CircleSize:3
OverallDifficulty:2
ApproachRate:3
SliderMultiplier:1.00000000596046
SliderTickRate:1

[Events]
//Background and Video events
0,0,"bg.jpg",0,0
Video,-160,"video.mp4"
//Break Periods
//Storyboard Layer 0 (Background)
//Storyboard Layer 1 (Fail)
//Storyboard Layer 2 (Pass)
//Storyboard Layer 3 (Foreground)
//Storyboard Layer 4 (Overlay)
//Storyboard Sound Samples

[TimingPoints]
811,422.535211267606,4,2,1,25,1,0
1656,422.535211267606,4,2,1,35,1,0
1656,-111.111111111111,4,2,1,35,0,0
12641,-111.111111111111,4,2,1,30,0,0
14120,-111.111111111111,4,2,1,55,0,0
14332,422.535211267606,4,2,1,70,1,0
32923,-100,4,2,1,65,0,0
33768,-100,4,2,1,50,0,0
34613,-100,4,2,1,75,0,0
54895,-100,4,2,1,70,0,0
55740,-100,4,2,1,65,0,0
56585,-100,4,2,1,60,0,0
57430,-100,4,2,1,55,0,0

[Colours]
Combo1 : 255,255,174
Combo2 : 255,111,111
Combo3 : 176,211,255
Combo4 : 219,183,255
Combo5 : 255,176,255
Combo6 : 155,255,181

[HitObjects]
35,147,1656,6,0,B|87:155|134:121|82:102|146:66|199:82,1,179.999995579719,0|0,3:2|3:2,0:0:0:0:
346,39,3346,2,0,P|388:22|441:42,1,89.9999977898594,2|2,0:2|0:2,0:0:0:0:
490,99,4191,1,2,0:2:0:0:
358,221,5036,6,0,P|278:211|244:291,1,179.999995579719,0|0,3:2|3:2,0:0:0:0:
27,351,6937,2,0,P|24:309|19:250,2,89.9999977898594,2|2|2,0:2|0:2|0:2,0:0:0:0:
138,274,8416,2,0,P|171:235|167:182,1,89.9999977898594,0|2,3:2|0:2,0:0:0:0:
141,113,9261,1,0,3:2:0:0:
354,41,10317,6,0,P|415:26|474:82,1,134.999996684789,2|2,0:2|0:2,0:0:0:0:
464,157,11374,1,2,0:2:0:0:
374,160,11796,2,0,B|310:141|271:114|271:114|234:141|235:184,1,179.999995579719,2|0,3:2|3:2,0:0:0:0:
366,352,14332,6,0,P|421:360|463:338,1,100.000000596046,6|2,3:2|1:2,0:0:0:0:
511,267,15177,1,2,0:3:0:0:
448,202,15599,1,0,1:2:0:0:
499,128,16022,2,0,P|506:72|513:21,2,100.000000596046,2|2|0,0:3|1:2|0:0,0:0:0:0:
331,193,17712,6,0,P|242:162|186:236,1,200.000001192092,6|2,3:2|0:3,0:0:0:0:
175,325,18979,1,0,1:2:0:0:
258,358,19402,2,0,P|301:354|371:349,2,100.000000596046,2|2|0,0:3|1:3|0:0,0:0:0:0:
78,352,21092,6,0,P|26:357|-6:319,1,100.000000596046,4|2,3:2|1:2,0:0:0:0:
37,244,21937,2,0,P|77:212|76:162,1,100.000000596046,2|2,0:3|1:2,0:0:0:0:
33,88,22782,1,2,0:3:0:0:
96,23,23205,1,2,1:2:0:0:
361,69,24472,6,0,B|418:49|459:24|459:24|474:80|495:121,1,200.000001192092,6|2,3:2|0:2,0:0:0:0:
512,198,25740,1,2,1:2:0:0:
429,234,26162,2,0,B|380:260|313:222|364:195|294:171|241:204,1,200.000001192092,2|2,0:2|0:2,0:0:0:0:
164,234,27430,1,2,1:2:0:0:
115,158,27853,6,0,P|122:118|136:38,2,100.000000596046,6|0|8,3:2|1:2|0:2,0:0:0:0:
164,234,29120,2,0,P|205:210|269:231,1,100.000000596046,0|8,1:2|0:2,0:0:0:0:
316,284,29965,1,2,1:2:0:0:
479,144,31233,6,0,P|485:88|492:28,2,100.000000596046,6|2|10,3:2|1:2|0:2,0:0:0:0:
413,206,32501,2,0,P|417:248|424:321,1,100.000000596046,0|12,1:2|1:1,0:0:0:0:
350,359,33346,1,8,1:1:0:0:
350,359,34613,6,0,P|273:366|229:257,1,200.000001192092,4|4,3:2|0:3,0:0:0:0:
269,189,35881,1,8,1:1:0:0:
315,111,36303,2,0,P|318:32|207:23,1,200.000001192092,4|4,0:3|0:3,0:0:0:0:
102,153,37993,6,0,B|155:144|211:193|153:198|200:259|255:254,1,200.000001192092,4|4,0:3|0:3,0:0:0:0:
328,203,39261,1,8,1:1:0:0:
397,145,39684,2,0,P|475:147|487:258,1,200.000001192092,4|4,0:3|0:3,0:0:0:0:
333,334,41374,6,0,B|266:346|199:362|199:362|175:326|189:293,1,200.000001192092,4|4,3:2|0:3,0:0:0:0:
211,216,42641,1,8,1:1:0:0:
267,145,43064,2,0,P|264:112|256:33,1,100.000000596046,4|8,0:3|1:1,0:0:0:0:
168,32,43909,2,0,P|110:37|56:42,1,100.000000596046,4|8,0:3|1:1,0:0:0:0:
25,120,44754,6,0,B|17:172|-3:230|-3:230|41:226|92:233,1,200.000001192092,4|4,0:3|0:3,0:0:0:0:
168,202,46022,1,8,1:1:0:0:
250,238,46444,2,0,P|302:303|223:378,1,200.000001192092,4|4,0:3|0:3,0:0:0:0:
55,371,48134,6,0,B|7:264|79:271|29:169,1,200.000001192092,4|4,3:2|0:3,0:0:0:0:
54,89,49402,1,8,1:1:0:0:
129,40,49824,2,0,P|223:23|263:113,1,200.000001192092,4|4,0:3|0:3,0:0:0:0:
146,240,51515,6,0,P|140:327|239:353,1,200.000001192092,4|4,0:3|0:3,0:0:0:0:
321,338,52782,1,8,1:1:0:0:
410,347,53205,2,0,B|458:240|386:247|436:145,1,200.000001192092,4|4,0:3|0:3,0:0:0:0:
477,75,54472,1,8,1:1:0:0:
401,29,54895,6,0,P|347:36|282:46,1,100.000000596046,4|8,2:3|1:0,0:0:0:0:
227,93,55740,2,0,P|177:85|125:76,1,100.000000596046,4|8,0:3|1:0,0:0:0:0:
53,126,56585,2,0,L|73:245,1,100.000000596046,4|8,0:3|1:0,0:0:0:0:
132,289,57430,1,4,0:3:0:0:
218,313,57853,1,12,1:1:0:0:
