osu file format v14

[General]
AudioFilename: audio.ogg
AudioLeadIn: 0
PreviewTime: 33662
Countdown: 0
SampleSet: Soft
StackLeniency: 0.5
Mode: 0
LetterboxInBreaks: 0
WidescreenStoryboard: 1

[Editor]
DistanceSpacing: 0.9
BeatDivisor: 4
GridSize: 32
TimelineZoom: 1.5

[Metadata]
Title:Sawakaze (TV Size)
TitleUnicode:爽風 (TV Size)
Artist:Tomofumi Tanizawa
ArtistUnicode:タニザワトモフミ
Creator:Stompy_
Version:Normal
Source:君に届け 2ND SEASON
Tags:animestyle sowisty centrak_ anime pop japanese j-pop jpop kimi ni todoke from me to you opening op second season soufuu male vocals vocalist season 2 two
BeatmapID:4164867
BeatmapSetID:2001782

[Difficulty]
HPDrainRate:3.5
CircleSize:3.3
OverallDifficulty:4
ApproachRate:5
SliderMultiplier:1.20000000596046
SliderTickRate:1

[Events]
//Background and Video events
0,0,"bg.jpg",0,0
Video,-160,"video.mp4"
//Break Periods
//Storyboard Layer 0 (Background)
//Storyboard Layer 1 (Fail)
//Storyboard Layer 2 (Pass)
//Storyboard Layer 3 (Foreground)
//Storyboard Layer 4 (Overlay)
//Storyboard Sound Samples

[TimingPoints]
811,422.535211267606,4,2,1,25,1,0
1656,422.535211267606,4,2,1,35,1,0
1656,-111.111111111111,4,2,1,35,0,0
12641,-111.111111111111,4,2,1,30,0,0
14120,-111.111111111111,4,2,1,55,0,0
14332,422.535211267606,4,2,1,70,1,0
32923,-100,4,2,1,65,0,0
33768,-100,4,2,1,50,0,0
34613,-90.9090909090909,4,2,1,75,0,0
54895,-90.9090909090909,4,2,1,70,0,0
55740,-90.9090909090909,4,2,1,65,0,0
56585,-90.9090909090909,4,2,1,60,0,0
57430,-90.9090909090909,4,2,1,55,0,0

[Colours]
Combo1 : 255,255,174
Combo2 : 255,111,111
Combo3 : 176,211,255
Combo4 : 219,183,255
Combo5 : 255,176,255
Combo6 : 155,255,181

[HitObjects]
130,98,1656,6,0,B|65:92|99:57|23:58,2,107.999997240543,0|0|0,3:2|0:2|3:2,0:0:0:0:
318,51,3346,2,0,P|364:24|418:43,1,107.999997240543,2|2,0:2|0:2,0:0:0:0:
454,74,3979,1,2,0:2:0:0:
454,74,4191,2,0,P|447:108|444:138,1,53.9999986202715,2|2,0:2|0:2,0:0:0:0:
415,270,5036,6,0,B|480:264|446:229|522:230,2,107.999997240543,0|0|0,3:2|0:2|3:2,0:0:0:0:
184,347,6937,2,0,P|149:356|124:358,1,53.9999986202715,2|2,0:2|0:2,0:0:0:0:
82,354,7360,2,0,P|107:302|80:263,1,107.999997240543,2|2,0:2|0:2,0:0:0:0:
17,191,8205,2,0,P|6:131|5:68,1,107.999997240543,2|2,0:2|0:2,0:0:0:0:
16,36,8839,2,0,P|57:41|82:40,1,53.9999986202715,2|2,0:2|0:2,0:0:0:0:
118,43,9261,1,0,3:2:0:0:
300,27,10317,6,0,P|295:58|292:83,1,53.9999986202715,2|0,0:2|0:2,0:0:0:0:
307,131,10740,1,2,0:2:0:0:
307,131,10951,2,0,B|371:134|338:97|423:105,2,107.999997240543,2|2|2,0:2|0:2|3:2,0:0:0:0:
161,125,12430,1,2,0:2:0:0:
161,125,14332,6,0,P|106:98|56:124,1,120.000000596046,6|2,3:2|1:2,0:0:0:0:
25,167,14965,1,2,0:3:0:0:
25,167,15177,2,0,P|31:197|36:234,1,60.000000298023,2|4,0:3|3:2,0:0:0:0:
49,278,15599,1,0,1:2:0:0:
137,337,16022,2,0,B|211:337|168:299|257:300,1,120.000000596046,2|2,0:3|1:2,0:0:0:0:
293,327,16655,2,0,P|336:359|398:339,1,120.000000596046,2|2,0:2|3:2,0:0:0:0:
433,303,17289,1,0,1:2:0:0:
497,215,17712,6,0,P|478:153|470:81,1,120.000000596046,6|0,3:2|1:2,0:0:0:0:
451,53,18346,1,2,0:3:0:0:
451,53,18557,2,0,P|421:59|391:63,1,60.000000298023,2|4,0:3|3:2,0:0:0:0:
338,70,18979,1,0,1:2:0:0:
237,30,19402,2,0,P|248:86|251:157,1,120.000000596046,2|2,0:3|1:3,0:0:0:0:
166,286,20458,2,0,P|158:319|153:349,2,60.000000298023,2|2|2,3:2|1:2|0:2,0:0:0:0:
134,242,21092,6,0,P|86:280|21:253,1,120.000000596046,4|2,3:2|1:2,0:0:0:0:
18,214,21726,1,2,0:2:0:0:
18,214,21937,2,0,P|36:149|41:87,1,120.000000596046,2|2,0:3|1:2,0:0:0:0:
130,36,22782,2,0,B|206:32|165:74|261:68,1,120.000000596046,2|2,0:3|1:2,0:0:0:0:
293,53,23416,2,0,P|347:20|403:42,1,120.000000596046,2|2,0:2|3:2,0:0:0:0:
440,69,24050,1,0,1:2:0:0:
499,159,24472,6,0,P|491:195|487:227,1,60.000000298023,6|2,3:2|0:2,0:0:0:0:
443,249,24895,2,0,P|451:285|455:317,1,60.000000298023,2|0,1:2|0:0,0:0:0:0:
432,357,25317,1,2,0:2:0:0:
325,376,25740,1,2,1:2:0:0:
250,298,26162,2,0,P|266:237|271:175,1,120.000000596046,2|2,0:2|1:3,0:0:0:0:
216,86,27008,1,2,0:2:0:0:
118,40,27430,1,2,1:2:0:0:
34,108,27853,6,0,B|18:152|2:173|2:173|-2:207|25:222,1,120.000000596046,6|0,3:2|1:2,0:0:0:0:
63,241,28486,1,8,0:1:0:0:
63,241,28698,2,0,P|97:235|126:233,1,60.000000298023,8|4,0:2|3:2,0:0:0:0:
176,229,29120,1,0,1:2:0:0:
259,160,29543,1,8,0:2:0:0:
348,219,29965,2,0,P|341:258|338:290,1,60.000000298023,2|10,1:2|0:2,0:0:0:0:
333,332,30388,1,10,0:0:0:0:
437,359,30810,2,0,P|475:363|505:360,1,60.000000298023,2|2,1:2|0:2,0:0:0:0:
502,307,31233,5,6,3:2:0:0:
451,205,31655,1,2,1:2:0:0:
505,111,32078,2,0,P|512:79|512:48,1,60.000000298023,10|4,0:2|3:2,0:0:0:0:
471,15,32501,1,0,1:2:0:0:
382,76,32923,1,12,1:1:0:0:
284,28,33346,1,8,1:1:0:0:
284,28,34613,6,0,B|206:47|236:0|142:24,1,132.000004683971,4|8,3:2|1:1,0:0:0:0:
102,43,35247,1,2,0:3:0:0:
102,43,35458,2,0,P|136:88|96:158,1,132.000004683971,4|8,0:3|1:1,0:0:0:0:
61,188,36092,1,6,0:3:0:0:
61,188,36303,2,0,P|77:252|84:324,1,132.000004683971,4|8,0:3|1:1,0:0:0:0:
194,360,37148,2,0,P|231:367|263:358,1,66.0000023419855,4|4,0:3|3:2,0:0:0:0:
314,340,37571,2,0,P|304:303|300:272,1,66.0000023419855,8|4,1:1|3:2,0:0:0:0:
325,221,37993,6,0,P|338:151|337:82,1,132.000004683971,4|8,0:3|1:1,0:0:0:0:
369,41,38627,1,2,0:3:0:0:
369,41,38839,2,0,P|429:21|482:72,1,132.000004683971,4|8,0:3|1:1,0:0:0:0:
494,117,39472,1,6,0:3:0:0:
494,117,39684,1,4,0:3:0:0:
478,234,40106,1,8,1:1:0:0:
366,192,40529,6,0,P|372:154|371:125,2,66.0000023419855,4|8|8,0:3|1:1|1:1,0:0:0:0:
332,241,41162,1,2,2:3:0:0:
332,241,41374,2,0,P|273:230|228:288,1,132.000004683971,4|8,3:2|1:1,0:0:0:0:
112,301,42219,6,0,P|112:333|106:366,2,66.0000023419855,4|10|8,0:3|0:3|1:1,0:0:0:0:
70,266,42853,1,6,0:3:0:0:
70,266,43064,2,0,P|15:233|15:170,1,132.000004683971,4|8,0:3|1:1,0:0:0:0:
97,85,43909,6,0,P|103:52|103:19,2,66.0000023419855,4|4|8,0:3|3:2|1:1,0:0:0:0:
132,132,44543,1,4,3:2:0:0:
132,132,44754,2,0,B|206:129|166:85|264:87,1,132.000004683971,4|8,0:3|1:1,0:0:0:0:
314,100,45388,1,2,0:3:0:0:
314,100,45599,2,0,P|305:163|299:237,1,132.000004683971,4|8,0:3|1:1,0:0:0:0:
351,337,46444,1,4,0:3:0:0:
468,353,46867,1,8,1:1:0:0:
481,235,47289,2,0,P|470:199|465:165,1,66.0000023419855,4|8,0:3|1:1,0:0:0:0:
471,111,47712,2,0,P|482:75|487:41,1,66.0000023419855,8|2,1:1|2:3,0:0:0:0:
433,19,48134,6,0,P|374:2|331:51,1,132.000004683971,4|8,3:2|1:1,0:0:0:0:
298,100,48768,1,2,0:3:0:0:
298,100,48979,2,0,P|312:169|320:241,1,132.000004683971,4|8,0:3|1:1,0:0:0:0:
305,288,49613,1,6,0:3:0:0:
305,288,49824,2,0,B|222:297|276:337|186:355,1,132.000004683971,4|8,0:3|1:1,0:0:0:0:
77,357,50670,2,0,P|86:319|88:289,1,66.0000023419855,4|4,0:3|3:2,0:0:0:0:
84,232,51092,1,8,1:1:0:0:
27,127,51515,6,0,B|18:80|8:45|8:45|28:24|60:26,1,132.000004683971,4|8,0:3|1:1,0:0:0:0:
113,25,52148,1,2,0:3:0:0:
113,25,52360,2,0,P|177:34|250:54,1,132.000004683971,4|8,0:3|1:1,0:0:0:0:
301,75,52993,1,6,0:3:0:0:
301,75,53205,1,4,0:3:0:0:
406,19,53627,1,8,1:1:0:0:
495,97,54050,2,0,P|486:137|483:165,1,66.0000023419855,4|8,0:3|1:1,0:0:0:0:
476,220,54472,1,8,1:1:0:0:
360,189,54895,6,0,P|305:163|244:200,1,132.000004683971,4|8,2:3|1:0,0:0:0:0:
207,239,55529,1,2,0:3:0:0:
207,239,55740,2,0,P|221:312|230:377,1,132.000004683971,4|8,0:3|1:0,0:0:0:0:
292,368,56374,1,6,0:3:0:0:
292,368,56585,2,0,P|355:355|431:350,1,132.000004683971,4|8,0:3|1:0,0:0:0:0:
495,256,57430,1,4,0:3:0:0:
409,172,57853,1,12,1:1:0:0:
