osu file format v14

[General]
AudioFilename: audio.mp3
AudioLeadIn: 0
PreviewTime: 28634
Countdown: 0
SampleSet: Soft
StackLeniency: 0.4
Mode: 0
LetterboxInBreaks: 0
WidescreenStoryboard: 1

[Editor]
DistanceSpacing: 1
BeatDivisor: 4
GridSize: 32
TimelineZoom: 1

[Metadata]
Title:Kimi ni Todoke (TV Size)
TitleUnicode:きみにとどけ (TV Size)
Artist:Tomofumi Tanizawa
ArtistUnicode:タニザワトモフミ
Creator:Xahlt
Version:Normal
Source:君に届け
Tags:male vocals japanese anime op opening jpop j-pop 谷澤智文 from me to Reaching You gweon sua kuon-
BeatmapID:4203872
BeatmapSetID:2017886

[Difficulty]
HPDrainRate:3
CircleSize:3.3
OverallDifficulty:4
ApproachRate:5
SliderMultiplier:1.3
SliderTickRate:1

[Events]
//Background and Video events
0,0,"kimi ni todoke.jpg",0,0
Video,10,"KimiNiTodoke-OP01-NCOLD (1).mp4"
//Break Periods
//Storyboard Layer 0 (Background)
//Storyboard Layer 1 (Fail)
//Storyboard Layer 2 (Pass)
//Storyboard Layer 3 (Foreground)
//Storyboard Layer 4 (Overlay)
//Storyboard Sound Samples

[TimingPoints]
827,474.308300395257,4,2,1,35,1,0
3672,451.127819548872,4,2,1,35,1,0
4621,476.190476190476,4,2,1,40,1,0
4621,-125,4,2,1,40,0,0
19859,478.087649402391,4,2,1,55,1,0
19859,-125,4,2,1,55,0,0
23683,482.214328195072,4,2,1,55,1,0
23683,-125,4,2,1,55,0,0
25611,474.210834136857,4,2,1,35,1,0
25611,-125,4,2,1,70,0,0
28693,-111.111111111111,4,2,1,70,0,0
29413,476.092234935648,4,2,1,80,1,0
29413,-111.111111111111,4,2,1,80,0,0
53217,454.545454545455,4,2,1,80,1,0
53671,476.092234935648,4,2,1,80,1,0
53671,-111.111111111111,4,2,1,80,0,0
54147,476.092234935648,4,2,1,80,1,0
54147,-111.111111111111,4,2,1,80,0,0

[Colours]
Combo1 : 184,91,253
Combo2 : 163,254,210

[HitObjects]
30,40,4621,6,0,P|81:28|124:57,1,104,6|2,3:2|1:2,0:0:0:0:
225,29,5573,1,2,0:0:0:0:
225,29,5811,2,0,P|213:71|192:151,1,104,2|0,1:2|3:2,0:0:0:0:
222,174,6525,1,2,3:2:0:0:
141,239,7001,1,2,1:2:0:0:
220,305,7478,1,2,0:0:0:0:
220,305,7716,2,0,P|217:330|214:374,2,52,2|2|2,1:2|0:0|3:2,0:0:0:0:
265,280,8430,6,0,B|327:288|312:303|381:308,2,104,2|0|0,3:2|1:2|0:0,0:0:0:0:
242,233,9620,1,0,1:2:0:0:
322,166,10097,1,0,3:2:0:0:
322,166,10335,2,0,P|345:113|317:60,1,104,0|0,3:2|1:2,0:0:0:0:
247,8,11287,1,2,0:0:0:0:
207,104,11763,1,2,0:0:0:0:
117,50,12240,6,0,P|60:66|-5:75,1,104,2|2,3:2|1:2,0:0:0:0:
36,179,13192,1,2,0:0:0:0:
36,179,13430,2,0,P|93:163|158:154,1,104,2|0,1:2|3:2,0:0:0:0:
169,115,14144,1,2,3:2:0:0:
258,167,14620,1,0,1:2:0:0:
357,135,15097,2,0,P|384:143|419:151,1,52,2|2,0:0|1:2,0:0:0:0:
458,157,15573,2,0,P|449:184|442:219,1,52,2|2,0:0|3:2,0:0:0:0:
447,258,16049,6,0,P|401:245|356:287,1,104,0|0,3:2|1:2,0:0:0:0:
267,320,17001,1,0,0:0:0:0:
267,320,17240,2,0,P|276:351|283:380,2,52,0|2|0,1:2|0:0|3:2,0:0:0:0:
221,294,17954,2,0,P|185:249|211:190,1,104,0|0,3:2|1:2,0:0:0:0:
279,159,18906,2,0,P|270:132|261:99,1,52,2|0,0:0|3:2,0:0:0:0:
304,65,19382,1,2,1:2:0:0:
206,29,19859,6,0,P|155:19|81:6,1,104,6|2,3:2|0:0,0:0:0:0:
63,41,20576,1,2,3:2:0:0:
63,41,20815,2,0,P|56:72|51:105,1,52,2|2,0:0|0:0,0:0:0:0:
23,132,21293,1,2,1:2:0:0:
111,186,21771,6,0,P|170:196|228:207,1,104,2|2,3:2|0:0,0:0:0:0:
269,213,22488,1,2,3:2:0:0:
269,213,22727,2,0,P|276:182|281:149,1,52,2|2,0:0|0:0,0:0:0:0:
316,125,23205,1,2,1:2:0:0:
407,173,23683,6,0,P|399:232|393:298,1,104,2|2,3:2|1:2,0:0:0:0:
366,321,24406,1,2,0:0:0:0:
366,321,24647,2,0,P|326:313|295:309,1,52,10|8,3:2|3:2,0:0:0:0:
276,345,25129,1,10,3:2:0:0:
276,345,25370,1,2,3:2:0:0:
194,297,25848,6,0,P|203:266|211:230,1,52,10|10,3:2|3:2,0:0:0:0:
250,224,26322,1,8,3:2:0:0:
250,224,26559,2,0,P|241:193|234:156,1,52,8|8,3:2|3:2,0:0:0:0:
202,151,27033,1,8,3:2:0:0:
202,151,27270,1,8,3:2:0:0:
249,70,27744,6,0,P|280:61|316:46,2,52,8|4|8,2:3|2:3|0:0,0:0:0:0:
161,21,28693,1,8,0:0:0:0:
161,21,28930,2,0,P|129:32|97:41,1,58.4999982147217,8|8,0:0|2:3,0:0:0:0:
55,61,29413,6,0,P|16:111|59:162,1,116.999996429443,6|10,3:2|0:0,0:0:0:0:
86,183,30127,1,2,0:0:0:0:
86,183,30365,1,2,3:2:0:0:
177,127,30841,1,10,0:0:0:0:
177,127,31079,2,0,P|248:153|309:171,1,116.999996429443,2|2,0:0|0:0,0:0:0:0:
337,147,31793,2,0,P|343:110|350:77,2,58.4999982147217,10|2|2,0:0|0:0|3:2,0:0:0:0:
373,185,32507,1,2,3:2:0:0:
456,257,32983,5,2,0:0:0:0:
456,257,33221,2,0,P|447:293|441:325,1,58.4999982147217,6|2,3:2|0:0,0:0:0:0:
432,365,33697,2,0,P|395:356|357:347,1,58.4999982147217,10|2,0:0|0:0,0:0:0:0:
338,313,34173,2,0,P|301:306|264:298,1,58.4999982147217,6|2,3:2|3:2,0:0:0:0:
234,327,34650,2,0,P|197:318|162:311,1,58.4999982147217,10|2,0:0|0:0,0:0:0:0:
133,340,35126,1,6,3:2:0:0:
133,340,35364,1,2,0:0:0:0:
43,284,35840,1,2,0:0:0:0:
71,182,36316,1,2,3:2:0:0:
180,181,36792,5,2,0:0:0:0:
180,181,37030,2,0,P|255:170|313:155,1,116.999996429443,6|10,3:2|0:0,0:0:0:0:
345,174,37744,1,2,0:0:0:0:
428,109,38220,2,0,P|434:71|411:36,1,58.4999982147217,2|10,3:2|0:0,0:0:0:0:
394,19,38696,1,2,0:0:0:0:
394,19,38934,1,2,3:2:0:0:
299,65,39410,2,0,B|228:79|248:94|168:105,2,116.999996429443,10|2|10,0:0|3:2|0:0,0:0:0:0:
394,19,40839,6,0,P|438:69|424:120,1,116.999996429443,6|8,3:2|0:0,0:0:0:0:
350,183,41791,1,0,3:2:0:0:
350,183,42029,2,0,P|359:219|367:254,2,58.4999982147217,2|10|2,3:2|0:0|0:0,0:0:0:0:
303,157,42743,2,0,P|250:146|194:192,1,116.999996429443,2|10,3:2|0:0,0:0:0:0:
177,227,43457,1,6,3:2:0:0:
194,335,43933,1,2,3:2:0:0:
194,335,44171,2,0,P|230:343|268:357,1,58.4999982147217,10|8,0:0|2:3,0:0:0:0:
302,340,44647,6,0,P|356:360|417:318,1,116.999996429443,6|10,3:2|0:0,0:0:0:0:
449,302,45362,1,2,0:0:0:0:
449,302,45600,2,0,P|439:267|431:228,1,58.4999982147217,2|0,3:2|3:2,0:0:0:0:
399,205,46076,1,10,0:0:0:0:
485,145,46552,6,0,P|505:100|459:36,1,116.999996429443,2|8,3:2|0:0,0:0:0:0:
429,17,47266,1,2,0:0:0:0:
384,44,47504,1,2,3:2:0:0:
374,95,47742,2,0,P|303:82|238:76,1,116.999996429443,2|2,3:2|0:0,0:0:0:0:
218,42,48456,6,0,P|143:33|75:20,1,116.999996429443,6|10,3:2|0:0,0:0:0:0:
29,102,49408,2,0,P|24:135|14:176,1,58.4999982147217,6|2,3:2|3:2,0:0:0:0:
40,207,49884,2,0,P|77:214|117:225,1,58.4999982147217,10|2,0:0|0:0,0:0:0:0:
142,191,50361,2,0,P|200:172|252:207,1,116.999996429443,2|10,3:2|0:0,0:0:0:0:
281,236,51075,2,0,P|317:227|356:222,2,58.4999982147217,2|2|0,0:0|3:2|3:2,0:0:0:0:
262,285,51789,1,8,0:0:0:0:
175,343,52265,5,6,3:2:0:0:
175,343,52503,2,0,P|130:353|95:363,1,58.4999982147217,2|8,0:0|0:0,0:0:0:0:
68,373,52979,1,2,3:2:0:0:
20,283,53444,1,2,0:0:0:0:
20,283,53671,2,0,P|94:267|151:253,1,116.999996429443,10|4,0:0|3:2,0:0:0:0:
160,213,54385,1,8,0:0:0:0:
160,213,54623,2,0,P|153:177|140:142,1,58.4999982147217,8|8,0:0|1:2,0:0:0:0:
164,109,55099,1,10,0:0:0:0:
164,109,55337,2,0,P|200:102|232:91,2,58.4999982147217,8|8|4,2:3|2:3|2:3,0:0:0:0:
126,72,56051,5,4,3:2:0:0:
