osu file format v14

[General]
AudioFilename: audio.mp3
AudioLeadIn: 0
PreviewTime: 28634
Countdown: 0
SampleSet: Soft
StackLeniency: 0.7
Mode: 0
LetterboxInBreaks: 0
WidescreenStoryboard: 1

[Editor]
DistanceSpacing: 1.3
BeatDivisor: 4
GridSize: 32
TimelineZoom: 1

[Metadata]
Title:Kimi ni Todoke (TV Size)
TitleUnicode:きみにとどけ (TV Size)
Artist:Tomofumi Tanizawa
ArtistUnicode:タニザワトモフミ
Creator:Xahlt
Version:Hard
Source:君に届け
Tags:male vocals japanese anime op opening jpop j-pop 谷澤智文 from me to Reaching You gweon sua kuon-
BeatmapID:4203906
BeatmapSetID:2017886

[Difficulty]
HPDrainRate:5
CircleSize:3.8
OverallDifficulty:6
ApproachRate:7
SliderMultiplier:1.6
SliderTickRate:1

[Events]
//Background and Video events
0,0,"kimi ni todoke.jpg",0,0
Video,10,"KimiNiTodoke-OP01-NCOLD (1).mp4"
//Break Periods
//Storyboard Layer 0 (Background)
//Storyboard Layer 1 (Fail)
//Storyboard Layer 2 (Pass)
//Storyboard Layer 3 (Foreground)
//Storyboard Layer 4 (Overlay)
//Storyboard Sound Samples

[TimingPoints]
827,474.308300395257,4,2,1,35,1,0
3672,451.127819548872,4,2,1,35,1,0
4621,476.190476190476,4,2,1,40,1,0
4621,-125,4,2,1,40,0,0
19859,478.087649402391,4,2,1,55,1,0
19859,-111.111111111111,4,2,1,55,0,0
23683,482.214328195072,4,2,1,55,1,0
23683,-111.111111111111,4,2,1,55,0,0
25611,474.210834136857,4,2,1,35,1,0
25611,-111.111111111111,4,2,1,70,0,0
29413,476.092234935648,4,2,1,80,1,0
29413,-100,4,2,1,80,0,0
53217,454.545454545455,4,2,1,80,1,0
53671,476.092234935648,4,2,1,80,1,0
54147,476.092234935648,4,2,1,80,1,0

[Colours]
Combo1 : 184,91,253
Combo2 : 163,254,210

[HitObjects]
28,181,4621,6,0,P|-3:128|24:73,1,128,6|2,3:2|1:2,0:0:0:0:
92,15,5335,1,2,0:0:0:0:
164,76,5573,1,2,0:0:0:0:
164,76,5811,2,0,B|231:87|213:110|287:115,1,128,2|0,1:2|3:2,0:0:0:0:
360,68,6525,6,0,P|393:60|426:50,1,64,2|2,3:2|0:0,0:0:0:0:
501,104,7001,1,2,1:2:0:0:
501,104,7240,1,2,0:0:0:0:
444,173,7478,2,0,P|453:203|459:234,1,64,2|2,0:0|1:2,0:0:0:0:
404,304,7954,1,2,0:0:0:0:
325,261,8192,1,2,3:2:0:0:
257,319,8430,6,0,P|197:330|122:348,2,128,2|0|0,3:2|1:2|0:0,0:0:0:0:
325,261,9620,1,0,1:2:0:0:
266,192,9859,2,0,P|258:162|248:128,1,64,0|0,0:0|3:2,0:0:0:0:
292,54,10335,5,0,3:2:0:0:
292,54,10573,1,0,0:0:0:0:
215,7,10811,1,0,1:2:0:0:
164,80,11049,1,0,0:0:0:0:
75,66,11287,2,0,P|43:78|9:92,1,64,2|0,0:0|1:2,0:0:0:0:
47,173,11763,2,0,P|78:160|113:147,1,64,2|0,0:0|3:2,0:0:0:0:
164,80,12240,6,0,P|225:98|302:115,1,128,2|2,3:2|1:2,0:0:0:0:
365,67,12954,1,2,0:0:0:0:
429,128,13192,1,2,0:0:0:0:
429,128,13430,2,0,P|450:188|403:235,1,128,2|0,1:2|3:2,0:0:0:0:
322,238,14144,6,0,P|326:270|330:311,1,64,2|2,3:2|0:0,0:0:0:0:
240,312,14620,2,0,P|236:280|232:239,1,64,0|2,1:2|0:0,0:0:0:0:
175,185,15097,1,2,0:0:0:0:
175,185,15335,1,2,1:2:0:0:
228,113,15573,1,2,0:0:0:0:
166,48,15811,6,0,B|102:50|113:85|34:84,1,128,2|2,3:2|0:0,0:0:0:0:
6,166,16525,1,0,1:2:0:0:
6,166,16763,2,0,P|30:175|138:210,1,128,2|0,0:0|1:2,0:0:0:0:
197,262,17478,1,2,0:0:0:0:
269,208,17716,1,0,3:2:0:0:
339,271,17954,5,0,3:2:0:0:
339,271,18192,1,0,0:0:0:0:
409,215,18430,1,0,1:2:0:0:
474,276,18668,1,0,3:2:0:0:
444,360,18906,2,0,P|413:367|375:380,1,64,2|0,0:0|3:2,0:0:0:0:
297,347,19382,2,0,P|266:340|228:327,1,64,2|0,1:2|0:0,0:0:0:0:
142,344,19859,6,0,P|74:357|-7:379,1,143.999995605469,6|2,3:2|0:0,0:0:0:0:
15,286,20576,1,2,3:2:0:0:
15,286,20815,2,0,P|52:278|100:262,1,71.9999978027344,2|2,0:0|0:0,0:0:0:0:
144,196,21293,1,2,1:2:0:0:
65,145,21532,5,2,0:0:0:0:
60,134,21651,1,2,0:0:0:0:
55,123,21771,1,2,3:2:0:0:
200,5,22249,1,2,0:0:0:0:
157,88,22488,1,2,3:2:0:0:
224,152,22727,1,2,0:0:0:0:
224,152,22966,1,2,0:0:0:0:
172,230,23205,2,0,P|184:265|194:300,1,71.9999978027344,2|0,1:2|0:0,0:0:0:0:
277,378,23683,6,0,P|288:315|303:236,1,143.999995605469,2|2,3:2|1:2,0:0:0:0:
380,184,24406,1,2,0:0:0:0:
311,127,24647,1,10,3:2:0:0:
311,127,24888,1,8,3:2:0:0:
377,61,25129,1,10,3:2:0:0:
304,1,25370,1,2,3:2:0:0:
128,115,25848,5,10,3:2:0:0:
202,188,26085,1,10,3:2:0:0:
157,282,26322,1,8,3:2:0:0:
54,266,26559,1,8,3:2:0:0:
35,163,26796,1,8,3:2:0:0:
128,115,27033,1,8,3:2:0:0:
202,188,27270,1,8,3:2:0:0:
360,323,27743,5,8,2:3:0:0:
371,317,27863,1,4,2:3:0:0:
382,311,27982,2,0,P|400:302|417:295,2,35.9999989013672,4|8|8,2:3|0:0|0:0,0:0:0:0:
304,240,28456,1,4,2:3:0:0:
376,165,28693,1,8,0:0:0:0:
386,169,28812,1,8,0:0:0:0:
397,172,28931,2,0,P|415:181|434:189,2,35.9999989013672,8|8|8,0:0|0:0|2:3,0:0:0:0:
326,95,29413,6,0,P|270:75|191:143,1,160,6|10,3:2|0:0,0:0:0:0:
115,197,30127,1,2,0:0:0:0:
22,149,30365,2,0,B|10:114|10:114|24:61,1,80,2|0,3:2|3:2,0:0:0:0:
99,3,30841,1,10,0:0:0:0:
191,49,31079,6,0,B|275:67|252:84|349:102,1,160,2|2,0:0|0:0,0:0:0:0:
424,38,31793,1,10,0:0:0:0:
485,122,32031,1,2,0:0:0:0:
483,133,32150,1,2,0:0:0:0:
481,145,32269,1,2,3:2:0:0:
512,267,32507,2,0,P|459:219|373:240,1,160,2|2,3:2|0:0,0:0:0:0:
279,203,33221,6,0,P|243:191|204:176,1,80,6|2,3:2|0:0,0:0:0:0:
169,273,33697,2,0,P|205:285|244:300,1,80,10|2,0:0|0:0,0:0:0:0:
320,371,34173,1,6,3:2:0:0:
320,371,34411,1,2,3:2:0:0:
413,325,34650,2,0,P|421:287|434:238,1,80,10|2,0:0|0:0,0:0:0:0:
503,172,35126,5,6,3:2:0:0:
437,91,35364,2,0,B|343:82|382:52|285:43,2,160,2|2|2,0:0|0:0|3:2,0:0:0:0:
503,172,36554,1,8,0:0:0:0:
431,247,36792,1,2,0:0:0:0:
489,332,37030,6,0,P|450:292|355:321,1,160,6|10,3:2|0:0,0:0:0:0:
268,370,37744,1,2,0:0:0:0:
180,314,37982,2,0,B|166:279|166:279|187:228,1,80,0|2,3:2|3:2,0:0:0:0:
276,193,38458,1,10,0:0:0:0:
276,193,38696,1,2,0:0:0:0:
218,106,38934,6,0,P|208:68|194:22,1,80,2|0,3:2|0:0,0:0:0:0:
93,13,39410,2,0,P|117:91|140:168,2,160,10|2|10,0:0|3:2|0:0,0:0:0:0:
10,220,40839,6,0,B|110:225|60:257|165:261,1,160,6|8,3:2|0:0,0:0:0:0:
247,202,41553,1,0,0:0:0:0:
330,264,41791,2,0,P|343:301|330:338,1,80,0|2,3:2|3:2,0:0:0:0:
233,374,42267,2,0,P|197:359|157:346,1,80,10|2,0:0|0:0,0:0:0:0:
58,361,42743,5,2,3:2:0:0:
58,361,42981,1,2,0:0:0:0:
5,271,43219,1,10,0:0:0:0:
68,188,43457,2,0,B|168:183|118:151|217:141,1,160,6|2,3:2|3:2,0:0:0:0:
279,57,44171,1,10,0:0:0:0:
295,62,44290,1,8,0:0:0:0:
311,67,44409,1,8,2:3:0:0:
363,156,44647,6,0,P|404:172|486:93,1,160,6|10,3:2|0:0,0:0:0:0:
482,1,45362,1,2,0:0:0:0:
385,38,45600,2,0,P|343:53|296:73,1,80,2|0,3:2|3:2,0:0:0:0:
222,11,46076,1,10,0:0:0:0:
164,97,46314,6,0,B|208:173|166:170|203:249,1,160,2|0,0:0|0:0,0:0:0:0:
292,302,47028,1,8,0:0:0:0:
219,376,47266,1,2,0:0:0:0:
204,373,47385,1,2,0:0:0:0:
191,370,47504,1,2,3:2:0:0:
87,377,47742,2,0,P|97:340|107:295,1,80,2|8,3:2|0:0,0:0:0:0:
25,233,48218,1,2,0:0:0:0:
56,133,48456,6,0,B|146:133|111:169|212:170,1,160,6|10,3:2|0:0,0:0:0:0:
282,244,49170,1,2,0:0:0:0:
366,182,49408,1,6,3:2:0:0:
366,182,49646,1,2,3:2:0:0:
441,253,49884,1,10,0:0:0:0:
510,175,50123,6,0,P|537:123|489:30,1,160,2|2,0:0|0:0,0:0:0:0:
398,8,50837,2,0,P|361:23|311:40,1,80,10|2,0:0|0:0,0:0:0:0:
312,47,51194,1,2,0:0:0:0:
302,57,51313,1,2,3:2:0:0:
212,7,51551,1,0,3:2:0:0:
143,85,51789,2,0,P|106:70|56:53,1,80,8|2,0:0|0:0,0:0:0:0:
57,44,52146,1,2,0:0:0:0:
47,35,52265,5,6,3:2:0:0:
15,134,52503,2,0,P|28:172|42:217,1,80,2|8,0:0|0:0,0:0:0:0:
143,214,52979,2,0,P|130:252|116:297,1,80,2|0,3:2|0:0,0:0:0:0:
192,363,53444,1,2,0:0:0:0:
206,362,53557,1,2,0:0:0:0:
218,360,53671,2,0,P|254:353|312:344,1,80,10|2,0:0|0:0,0:0:0:0:
395,378,54147,5,4,3:2:0:0:
454,293,54385,1,8,0:0:0:0:
376,224,54623,1,8,0:0:0:0:
439,141,54861,2,0,P|445:124|454:101,1,40,8|8,1:2|1:2,0:0:0:0:
465,90,55099,5,10,0:0:0:0:
376,34,55337,1,8,2:3:0:0:
294,98,55575,1,8,2:3:0:0:
204,45,55813,1,4,2:3:0:0:
134,122,56051,1,4,3:2:0:0:
