osu file format v14

[General]
AudioFilename: audio.mp3
AudioLeadIn: 0
PreviewTime: 27744
Countdown: 0
SampleSet: Soft
StackLeniency: 0.5
Mode: 0
LetterboxInBreaks: 0
WidescreenStoryboard: 1

[Editor]
DistanceSpacing: 1
BeatDivisor: 4
GridSize: 16
TimelineZoom: 1.2

[Metadata]
Title:Kimi ni Todoke (TV Size)
TitleUnicode:きみにとどけ (TV Size)
Artist:Tomofumi Tanizawa
ArtistUnicode:タニザワトモフミ
Creator:Keke Tang
Version:Normal
Source:君に届け
Tags:male vocals japanese anime op opening jpop j-pop 谷澤智文 from me to Reaching You shuzei pancakespk
BeatmapID:4080316
BeatmapSetID:1967031

[Difficulty]
HPDrainRate:3
CircleSize:3
OverallDifficulty:4
ApproachRate:5
SliderMultiplier:1.2
SliderTickRate:1

[Events]
//Background and Video events
0,0,"kiminitodokegbn.jpg",0,0
//Break Periods
//Storyboard Layer 0 (Background)
//Storyboard Layer 1 (Fail)
//Storyboard Layer 2 (Pass)
//Storyboard Layer 3 (Foreground)
//Storyboard Layer 4 (Overlay)
//Storyboard Sound Samples

[TimingPoints]
827,474.308300395257,4,2,1,35,1,0
1064,-100,4,2,1,40,0,0
3198,-100,4,2,1,20,0,0
3435,-100,4,2,1,40,0,0
3672,451.127819548872,4,2,1,35,1,0
3672,-100,4,2,1,35,0,0
4621,476.190476190476,4,2,1,40,1,0
4621,-111.111111111111,4,2,1,40,0,0
6049,-111.111111111111,4,2,1,40,0,0
6525,-111.111111111111,4,2,1,40,0,0
9382,-111.111111111111,4,2,1,40,0,0
9620,-111.111111111111,4,2,1,40,0,0
9859,-111.111111111111,4,2,1,40,0,0
10335,-111.111111111111,4,2,1,40,0,0
11049,-111.111111111111,4,2,1,40,0,0
11287,-111.111111111111,4,2,1,40,0,0
13668,-111.111111111111,4,2,1,40,0,0
14144,-111.111111111111,4,2,1,40,0,0
18668,-111.111111111111,4,2,1,40,0,0
18906,-111.111111111111,4,2,1,40,0,0
19859,478.087649402391,4,2,1,55,1,0
19859,-111.111111111111,4,2,1,55,0,0
20098,-111.111111111111,4,2,1,40,0,0
20337,-111.111111111111,4,2,1,55,0,0
22010,-111.111111111111,4,2,1,40,0,0
22249,-111.111111111111,4,2,1,55,0,0
23444,-111.111111111111,4,2,1,40,0,0
23683,482.214328195072,4,2,1,55,1,0
23683,-111.111111111111,4,2,1,55,0,0
24647,-100,4,2,1,57,0,0
24888,-100,4,2,1,59,0,0
25129,-100,4,2,1,61,0,0
25370,-100,4,2,1,71,0,0
25611,474.210834136857,4,2,1,35,1,0
25848,-100,4,2,1,63,0,0
26085,-100,4,2,1,65,0,0
26322,-100,4,2,1,67,0,0
26559,-100,4,2,1,69,0,0
26796,-100,4,2,1,71,0,0
27033,-100,4,2,1,73,0,0
27270,-100,4,2,1,75,0,0
29286,-100,4,2,1,75,0,0
29413,476.092234935648,4,2,25,80,1,0
29651,-100,4,2,1,80,0,0
29889,-100,4,2,1,80,0,0
31317,-100,4,2,26,80,0,0
31555,-100,4,2,1,80,0,0
31793,-100,4,2,1,80,0,0
32031,-100,4,2,2,80,0,0
32507,-100,4,2,1,80,0,0
32626,-100,4,2,3,80,0,0
32745,-100,4,2,1,80,0,0
32983,-100,4,2,4,80,0,0
33221,-100,4,2,5,80,0,0
33459,-100,4,2,1,80,0,0
34173,-100,4,2,27,80,0,0
34411,-100,4,2,1,80,0,0
34650,-100,4,2,6,80,0,0
34888,-100,4,2,1,80,0,0
35126,-100,4,2,7,80,0,0
35364,-100,4,2,1,80,0,0
35602,-100,4,2,1,80,0,0
36435,-100,4,2,1,80,0,0
36554,-100,4,2,1,80,0,0
37030,-100,4,2,28,80,0,0
37268,-100,4,2,28,80,0,0
37506,-100,4,2,1,80,0,0
37744,-100,4,2,11,80,0,0
37982,-100,4,2,1,80,0,0
38458,-100,4,2,12,80,0,0
38696,-100,4,2,1,80,0,0
38934,-100,4,2,13,80,0,0
39172,-100,4,2,13,80,0,0
39410,-100,4,2,1,80,0,0
39648,-100,4,2,10,80,0,0
39887,-100,4,2,1,80,0,0
40363,-100,4,2,14,80,0,0
40601,-100,4,2,14,80,0,0
40839,-100,4,2,29,80,0,0
41077,-100,4,2,29,80,0,0
41315,-100,4,2,10,80,0,0
41553,-100,4,2,16,80,0,0
41791,-100,4,2,1,80,0,0
42029,-100,4,2,17,80,0,0
42267,-100,4,2,11,80,0,0
42505,-100,4,2,15,80,0,0
42743,-100,4,2,18,80,0,0
42981,-100,4,2,19,80,0,0
43100,-100,4,2,1,80,0,0
43219,-100,4,2,20,80,0,0
43457,-100,4,2,30,80,0,0
43695,-100,4,2,30,80,0,0
43933,-100,4,2,21,80,0,0
44171,-100,4,2,22,80,0,0
44290,-100,4,2,1,80,0,0
44409,-100,4,2,2,80,0,0
44528,-100,4,2,2,80,0,0
44647,-100,4,2,23,80,0,0
44885,-100,4,2,1,80,0,0
45123,-100,4,2,1,80,0,0
46314,-100,4,2,1,80,0,0
46433,-100,4,2,1,80,0,0
46552,-100,4,2,26,80,0,0
46790,-100,4,2,1,80,0,0
47028,-100,4,2,1,80,0,0
47266,-100,4,2,2,80,0,0
47742,-100,4,2,1,80,0,0
47861,-100,4,2,3,80,0,0
47980,-100,4,2,1,80,0,0
48218,-100,4,2,4,80,0,0
48456,-100,4,2,32,80,0,0
48694,-100,4,2,1,80,0,0
48932,-100,4,2,1,80,0,0
49408,-100,4,2,33,80,0,0
49646,-100,4,2,1,80,0,0
49884,-100,4,2,8,80,0,0
50123,-100,4,2,1,80,0,0
50361,-100,4,2,34,80,0,0
50599,-100,4,2,1,80,0,0
50718,-100,4,2,1,80,0,0
50837,-100,4,2,1,80,0,0
51075,-100,4,2,1,80,0,0
51194,-100,4,2,1,80,0,0
51670,-100,4,2,1,80,0,0
51789,-100,4,2,1,80,0,0
52027,-100,4,2,1,80,0,0
52265,-100,4,2,35,80,0,0
52503,-100,4,2,1,80,0,0
52979,-100,4,2,36,80,0,0
53217,454.545454545455,4,2,1,80,1,0
53444,-100,4,2,37,80,0,0
53671,476.092234935648,4,2,1,80,1,0
53671,-100,4,2,1,80,0,0
54147,476.092234935648,4,2,1,80,1,0
54385,-100,4,2,38,80,0,0
54861,-100,4,2,1,80,0,0
56051,-100,4,2,39,80,0,0
59503,-100,4,2,1,5,0,0

[Colours]
Combo1 : 252,237,150
Combo2 : 174,255,255

[HitObjects]
195,70,4621,6,0,P|139:54|85:87,2,107.999996704102,2|2|2,3:2|1:2|2:0,0:0:0:0:
224,116,5811,2,0,L|232:179,1,53.9999983520508,2|0,1:2|0:0,0:0:0:0:
327,119,6525,2,0,L|345:-8,2,107.999996704102,2|2|2,3:2|1:2|2:0,0:0:0:0:
376,152,7716,1,2,1:2:0:0:
376,152,7954,1,2,2:0:0:0:
480,125,8430,6,0,P|459:173|475:224,1,107.999996704102,2|0,3:2|1:2,0:0:0:0:
505,269,9144,2,0,P|521:319|500:368,1,107.999996704102,0|0,0:0|1:2,0:0:0:0:
447,374,9859,1,0,0:0:0:0:
340,353,10335,2,0,L|213:371,1,107.999996704102,0|0,3:2|1:2,0:0:0:0:
192,342,11049,1,0,0:0:0:0:
192,342,11287,2,0,B|164:305|164:305|201:230,1,107.999996704102,2|2,2:0|2:0,0:0:0:0:
218,144,12240,6,0,L|91:161,2,107.999996704102,2|2|2,3:2|1:2|2:0,0:0:0:0:
247,100,13430,2,0,B|258:66|253:34,1,53.9999983520508,2|0,1:2|0:0,0:0:0:0:
360,27,14144,2,0,P|416:11|470:44,2,107.999996704102,2|2|2,3:2|1:2|2:0,0:0:0:0:
336,75,15335,2,0,L|344:138,1,53.9999983520508,2|2,1:2|2:0,0:0:0:0:
353,181,15811,6,0,L|479:198,1,107.999996704102,2|2,3:2|2:0,0:0:0:0:
401,288,16763,2,0,L|290:272,1,107.999996704102,2|0,2:0|1:2,0:0:0:0:
242,258,17478,1,2,2:0:0:0:
144,213,17954,2,0,P|128:269|161:323,1,107.999996704102,0|0,3:2|1:2,0:0:0:0:
188,356,18668,1,0,0:0:0:0:
188,356,18906,2,0,B|240:381|240:381|286:359,1,107.999996704102,2|10,2:0|2:0,0:0:0:0:
393,370,19859,6,0,L|503:354,1,107.999996704102,6|2,3:2|2:0,0:0:0:0:
512,305,20576,1,0,3:2:0:0:
512,305,20815,2,0,B|501:272|501:272|505:248,1,53.9999983520508,2|2,2:0|2:0,0:0:0:0:
509,199,21293,1,10,2:0:0:0:
408,160,21771,2,0,L|425:33,1,107.999996704102,2|2,3:2|2:0,0:0:0:0:
387,21,22488,1,2,3:2:0:0:
387,21,22727,2,0,B|335:-4|335:-4|291:34,1,107.999996704102,2|10,2:0|2:0,0:0:0:0:
214,96,23683,6,0,L|103:80,1,107.999996704102,2|10,3:2|2:0,0:0:0:0:
56,88,24406,1,2,2:0:0:0:
56,88,24647,2,0,L|44:167,1,60,10|10,0:0|3:2,0:0:0:0:
93,185,25129,2,0,L|104:264,1,60,10|2,3:2|3:2,0:0:0:0:
171,345,25848,1,2,3:2:0:0:
171,345,26085,2,0,L|234:353,1,60,2|0,3:2|3:2,0:0:0:0:
279,317,26559,1,8,3:2:0:0:
279,317,26796,2,0,L|338:308,1,60,8|8,3:2|3:2,0:0:0:0:
375,261,27270,1,8,3:2:0:0:
485,308,27744,6,0,P|501:251|468:197,1,120,8|8,3:3|3:2,0:0:0:0:
418,174,28456,1,4,3:0:0:0:
418,174,28693,2,0,L|429:94,1,60,10|10,2:0|2:0,0:0:0:0:
400,60,29167,1,10,3:0:0:0:
400,60,29413,6,0,B|348:34|348:34|289:75,1,120,6|10,3:2|2:0,0:0:0:0:
258,116,30127,1,2,2:0:0:0:
258,116,30365,1,2,3:2:0:0:
164,41,30841,2,0,L|100:32,1,60,10|2,2:0|2:0,0:0:0:0:
44,27,31317,6,0,P|28:84|61:138,1,120,2|10,3:2|2:0,0:0:0:0:
92,182,32031,2,0,L|83:245,1,60,2|2,2:0|3:2,0:0:0:0:
100,304,32507,1,2,3:2:0:0:
100,304,32745,1,8,2:0:0:0:
211,350,33221,6,0,B|244:361|244:361|268:357,1,60,6|2,3:2|2:0,0:0:0:0:
324,334,33697,2,0,B|327:309|327:309|315:276,1,60,10|2,2:0|2:0,0:0:0:0:
278,229,34173,2,0,L|290:149,1,60,2|2,3:2|3:2,0:0:0:0:
260,117,34650,1,10,2:0:0:0:
256,0,35126,6,0,P|307:28|363:12,1,120,2|8,3:2|2:0,0:0:0:0:
415,43,35840,2,0,L|474:51,1,60,2|0,2:0|3:2,0:0:0:0:
512,103,36316,1,2,3:2:0:0:
512,103,36554,1,8,2:0:0:0:
409,165,37030,6,0,P|413:203|438:238,1,60,2|0,3:2|0:0,0:0:0:0:
466,271,37506,1,10,2:0:0:0:
466,271,37744,2,0,L|454:350,1,60,2|0,2:0|3:2,0:0:0:0:
429,384,38220,1,2,3:2:0:0:
429,384,38458,1,10,2:0:0:0:
316,339,38934,6,0,B|249:361|249:361|190:321,1,120,2|10,3:2|2:0,0:0:0:0:
163,301,39648,1,2,2:0:0:0:
163,301,39887,2,0,L|21:280,1,120,2|10,3:2|2:0,0:0:0:0:
4,174,40839,6,0,P|-11:118|17:67,1,120,6|10,3:2|2:0,0:0:0:0:
81,72,41553,1,2,2:0:0:0:
81,72,41791,2,0,L|145:80,1,60,0|2,3:2|3:2,0:0:0:0:
174,129,42267,1,10,2:0:0:0:
288,92,42743,6,0,L|276:13,1,60,6|2,3:2|2:0,0:0:0:0:
321,0,43219,1,10,2:0:0:0:
321,0,43457,1,6,3:2:0:0:
443,21,43933,1,2,3:2:0:0:
443,21,44171,2,0,P|439:59|414:94,1,60,10|10,2:0|3:0,0:0:0:0:
387,121,44647,6,0,L|412:248,1,120,6|10,3:2|2:0,0:0:0:0:
425,302,45362,1,2,2:0:0:0:
425,302,45600,1,2,3:2:0:0:
310,338,46076,2,0,L|250:346,1,60,10|0,2:0|0:0,0:0:0:0:
191,355,46552,6,0,P|175:298|208:244,1,120,2|10,3:2|2:0,0:0:0:0:
254,215,47266,1,2,2:0:0:0:
325,118,47742,2,0,L|265:110,1,60,2|8,3:2|2:0,0:0:0:0:
225,65,48218,1,2,2:0:0:0:
225,65,48456,6,0,L|99:48,1,120,6|10,3:2|2:0,0:0:0:0:
65,93,49170,1,2,2:0:0:0:
65,93,49408,2,0,L|77:172,1,60,2|2,3:2|3:2,0:0:0:0:
99,206,49884,1,10,2:0:0:0:
128,322,50361,6,0,B|195:344|195:344|254:304,1,120,2|10,3:2|2:0,0:0:0:0:
294,295,51075,1,0,0:0:0:0:
294,295,51313,2,0,L|283:215,1,60,0|0,3:2|3:2,0:0:0:0:
275,176,51789,1,8,2:0:0:0:
214,74,52265,5,6,3:2:0:0:
214,74,52503,2,0,P|242:61|271:60,1,60,2|8,2:0|2:0,0:0:0:0:
330,55,52979,2,0,L|455:68,1,117,6|2,3:2|3:2,0:0:0:0:
503,81,53671,1,8,2:0:0:0:
407,161,54147,6,0,L|396:240,1,60,0|10,3:2|2:0,0:0:0:0:
449,252,54623,2,0,L|438:331,1,60,10|8,2:0|3:0,0:0:0:0:
388,337,55099,1,10,3:0:0:0:
388,337,55337,2,0,P|331:353|277:320,1,120,10|2,3:0|3:2,0:0:0:0:
241,279,56051,1,6,3:2:0:0:
256,192,56170,12,0,59503,0:0:0:0:
