osu file format v14

[General]
AudioFilename: audio.mp3
AudioLeadIn: 0
PreviewTime: 28602
Countdown: 0
SampleSet: Soft
StackLeniency: 1
Mode: 0
LetterboxInBreaks: 0
WidescreenStoryboard: 0

[Editor]
Bookmarks: 745,4554,29316,55983,71221,94078,120744,135983,151221,166430,181688,195021,201449
DistanceSpacing: 0.3
BeatDivisor: 4
GridSize: 32
TimelineZoom: 1.2

[Metadata]
Title:Kimi ni Todoke
TitleUnicode:きみにとどけ
Artist:Tomofumi Tanizawa
ArtistUnicode:タニザワトモフミ
Creator:SeaRasp
Version:Innocence
Source:君に届け
Tags:anime op opening jpop j-pop japanese full version 谷澤智文 from me to Reaching You
BeatmapID:3333763
BeatmapSetID:1633264

[Difficulty]
HPDrainRate:6
CircleSize:4.2
OverallDifficulty:7.7
ApproachRate:8
SliderMultiplier:1.8
SliderTickRate:1

[Events]
//Background and Video events
0,0,"kimi ni todoke BG.jpg",0,0
//Break Periods
2,56459,69316
//Storyboard Layer 0 (Background)
//Storyboard Layer 1 (Fail)
//Storyboard Layer 2 (Pass)
//Storyboard Layer 3 (Foreground)
//Storyboard Layer 4 (Overlay)
//Storyboard Sound Samples

[TimingPoints]
745,476.190476190476,4,2,1,30,1,0
745,-200,4,2,1,40,0,0
4554,-133.333333333333,4,2,1,40,0,0
19435,-133.333333333333,4,2,1,5,0,0
19554,-133.333333333333,4,2,1,40,0,0
19673,-133.333333333333,4,2,1,5,0,0
19792,-133.333333333333,4,2,1,40,0,0
24911,-133.333333333333,4,2,1,5,0,0
25030,-133.333333333333,4,2,1,40,0,0
25149,-133.333333333333,4,2,1,5,0,0
25268,-66.6666666666667,4,2,1,60,0,0
25387,-66.6666666666667,4,2,1,5,0,0
25744,-83.3333333333333,4,2,1,50,0,0
25864,-83.3333333333333,4,2,1,5,0,0
25983,-83.3333333333333,4,2,1,50,0,0
26102,-83.3333333333333,4,2,1,5,0,0
26221,-83.3333333333333,4,2,1,50,0,0
26340,-83.3333333333333,4,2,1,5,0,0
26459,-66.6666666666667,4,2,1,65,0,0
26578,-66.6666666666667,4,2,1,5,0,0
26697,-66.6666666666667,4,2,1,65,0,0
26816,-66.6666666666667,4,2,1,5,0,0
26935,-66.6666666666667,4,2,1,65,0,0
27054,-66.6666666666667,4,2,1,5,0,0
27173,-66.6666666666667,4,2,1,65,0,0
27292,-66.6666666666667,4,2,1,5,0,0
27649,-66.6666666666667,4,2,1,55,0,0
28840,-83.3333333333333,4,2,1,60,0,0
29316,-100,4,2,1,70,0,1
29673,-100,4,2,1,5,0,1
29792,-100,4,2,1,70,0,1
37292,-100,4,2,1,5,0,1
37411,-100,4,2,1,70,0,1
43840,-83.3333333333333,4,2,1,70,0,1
44554,-100,4,2,1,70,0,1
44911,-100,4,2,1,5,0,1
45030,-100,4,2,1,70,0,1
48244,-100,4,2,1,5,0,1
48364,-100,4,2,1,70,0,1
55983,-100,4,2,1,70,0,0
71221,-133.333333333333,4,2,1,45,0,0
85864,-133.333333333333,4,2,1,5,0,0
85983,-133.333333333333,4,2,1,45,0,0
91578,-133.333333333333,4,2,1,5,0,0
91697,-133.333333333333,4,2,1,45,0,0
91816,-133.333333333333,4,2,1,5,0,0
91935,-133.333333333333,4,2,1,60,0,0
92411,-66.6666666666667,4,2,1,65,0,0
92530,-66.6666666666667,4,2,1,5,0,0
92649,-66.6666666666667,4,2,1,65,0,0
92768,-66.6666666666667,4,2,1,5,0,0
92887,-66.6666666666667,4,2,1,65,0,0
93006,-66.6666666666667,4,2,1,5,0,0
93125,-66.6666666666667,4,2,1,65,0,0
93244,-66.6666666666667,4,2,1,5,0,0
93364,-66.6666666666667,4,2,1,65,0,0
93840,-83.3333333333333,4,2,1,65,0,0
94078,-100,4,2,1,70,0,1
94435,-100,4,2,1,5,0,1
94554,-100,4,2,1,70,0,1
102054,-100,4,2,1,5,0,1
102173,-100,4,2,1,70,0,1
104911,-100,4,2,1,5,0,1
105030,-100,4,2,1,70,0,1
105864,-100,4,2,1,5,0,1
105983,-100,4,2,1,70,0,1
107292,-100,4,2,1,5,0,1
107411,-83.3333333333333,4,2,1,70,0,1
107530,-83.3333333333333,4,2,1,5,0,1
107649,-83.3333333333333,4,2,1,70,0,1
107768,-83.3333333333333,4,2,1,5,0,1
107887,-83.3333333333333,4,2,1,70,0,1
108006,-83.3333333333333,4,2,1,5,0,1
108125,-100,4,2,1,70,0,1
108483,-100,4,2,1,5,0,1
108602,-83.3333333333333,4,2,1,70,0,1
109316,-100,4,2,1,70,0,1
109673,-100,4,2,1,5,0,1
109792,-100,4,2,1,70,0,1
115983,-100,4,2,0,70,0,1
116459,-100,4,2,1,70,0,1
118006,-100,4,2,1,5,0,1
118125,-100,4,2,1,70,0,1
118244,-100,4,2,1,5,0,1
118364,-100,4,2,1,70,0,1
120744,-133.333333333333,4,2,1,55,0,0
123364,-166.666666666667,4,2,1,55,0,0
124554,-133.333333333333,4,2,1,55,0,0
126459,-166.666666666667,4,2,1,55,0,0
127887,-133.333333333333,4,2,1,55,0,0
128244,-133.333333333333,4,2,1,5,0,0
128364,-133.333333333333,4,2,1,55,0,0
130983,-166.666666666667,4,2,1,55,0,0
132173,-133.333333333333,4,2,1,55,0,0
135983,-111.111111111111,4,2,1,55,0,0
136340,-111.111111111111,4,2,1,5,0,0
136459,-111.111111111111,4,2,1,55,0,0
140149,-111.111111111111,4,2,1,5,0,0
140268,-111.111111111111,4,2,1,55,0,0
149316,-200,4,2,1,55,0,0
151221,-200,4,2,1,35,0,0
162621,476.190476190476,4,2,1,60,1,0
162621,-100,4,2,1,60,0,0
164525,-66.6666666666667,4,2,1,65,0,0
164645,-66.6666666666667,4,2,1,5,0,0
164764,-66.6666666666667,4,2,1,65,0,0
164883,-66.6666666666667,4,2,1,5,0,0
165002,-66.6666666666667,4,2,1,65,0,0
165121,-66.6666666666667,4,2,1,5,0,0
165240,-133.333333333333,4,2,1,65,0,0
165955,-83.3333333333333,4,2,1,65,0,0
166430,-100,4,2,1,70,0,1
166787,-100,4,2,1,5,0,1
166906,-100,4,2,1,70,0,1
173335,-83.3333333333333,4,2,1,70,0,1
174049,-100,4,2,1,70,0,1
177859,-83.3333333333333,4,2,1,70,0,1
177978,-83.3333333333333,4,2,1,5,0,1
178097,-83.3333333333333,4,2,1,70,0,1
178216,-83.3333333333333,4,2,1,5,0,1
178335,-83.3333333333333,4,2,1,70,0,1
178454,-83.3333333333333,4,2,1,5,0,1
178573,-100,4,2,1,70,0,1
178930,-100,4,2,1,5,0,1
179049,-100,4,2,1,70,0,1
179882,-100,4,2,1,5,0,1
180001,-100,4,2,1,70,0,1
181688,476.190476190476,4,2,1,60,1,0
181688,-111.111111111111,4,2,1,60,0,0
183949,-111.111111111111,4,2,1,5,0,0
184068,-111.111111111111,4,2,1,60,0,0
185141,-111.111111111111,4,2,1,5,0,0
185260,-111.111111111111,4,2,1,60,0,0
185379,-111.111111111111,4,2,1,5,0,0
185498,-111.111111111111,4,2,1,60,0,0
198830,-111.111111111111,4,2,1,50,0,0
199307,-111.111111111111,4,2,1,40,0,0
199783,-111.111111111111,4,2,1,30,0,0
200259,-111.111111111111,4,2,1,20,0,0
200735,-111.111111111111,4,2,1,10,0,0
201449,-111.111111111111,4,2,1,5,0,0

[Colours]
Combo1 : 215,112,237
Combo2 : 0,206,206
Combo3 : 252,177,232
Combo4 : 16,142,218

[HitObjects]
78,84,745,6,0,L|92:140,1,45,2|0,0:3|0:0,0:0:0:0:
159,165,1221,2,0,L|145:221,1,45,2|0,0:0|0:0,0:0:0:0:
94,267,1697,2,0,P|67:273|40:272,2,45,2|0|2,0:3|0:0|0:0,0:0:0:0:
144,331,2411,1,0,0:0:0:0:
209,287,2649,6,0,L|263:299,1,45,2|0,0:3|0:0,0:0:0:0:
310,348,3125,2,0,L|364:336,1,45,2|0,0:0|0:0,0:0:0:0:
412,270,3602,2,0,P|392:219|404:177,1,90,2|2,0:3|0:0,0:0:0:0:
404,178,4554,6,0,L|284:214,1,101.250003862381,2|2,3:0|0:0,0:0:0:0:
226,162,5030,2,0,P|216:205|218:236,1,67.5000025749208,10|2,0:0|0:0,0:0:0:0:
280,301,5506,1,2,0:0:0:0:
218,374,5745,2,0,P|179:378|139:387,1,67.5000025749208,2|8,3:2|0:0,0:0:0:0:
41,330,6221,1,0,3:0:0:0:
86,255,6459,6,0,L|61:106,1,135.000005149842,2|10,3:0|0:0,0:0:0:0:
223,58,7173,1,2,0:0:0:0:
223,58,7411,1,2,0:0:0:0:
145,14,7649,2,0,P|141:47|134:97,1,67.5000025749208,2|8,3:2|0:0,0:0:0:0:
226,197,8125,1,2,3:2:0:0:
283,127,8364,6,0,L|425:98,1,135.000005149842,2|8,3:0|0:0,0:0:0:0:
482,161,9078,1,2,0:3:0:0:
402,209,9316,2,0,P|391:247|403:297,1,67.5000025749208,0|0,0:0|3:0,0:0:0:0:
481,319,9792,2,0,P|492:281|480:231,1,67.5000025749208,8|0,0:0|3:0,0:0:0:0:
344,353,10268,6,0,B|270:363|292:382|209:385,2,135.000005149842,2|8|2,3:0|0:0|0:0,0:0:0:0:
161,274,11459,2,0,P|199:280|236:287,1,67.5000025749208,4|8,3:0|0:0,0:0:0:0:
321,221,11935,1,0,3:0:0:0:
256,168,12173,6,0,P|247:132|255:83,1,67.5000025749208,2|2,3:0|0:0,0:0:0:0:
353,49,12649,2,0,P|345:81|337:127,1,67.5000025749208,10|2,0:0|0:0,0:0:0:0:
256,168,13125,1,2,0:0:0:0:
168,147,13364,2,0,L|73:128,1,67.5000025749208,2|8,3:2|0:0,0:0:0:0:
80,302,13840,1,0,3:0:0:0:
0,270,14078,6,0,P|24:236|117:225,1,135.000005149842,2|10,3:0|0:0,0:0:0:0:
172,346,14792,1,2,0:0:0:0:
297,231,15030,1,2,0:0:0:0:
202,257,15268,1,2,3:2:0:0:
274,322,15506,1,10,0:0:0:0:
202,257,15744,6,0,P|198:220|191:176,1,67.5000025749208,2|2,3:2|3:0,0:0:0:0:
272,137,16221,2,0,P|274:103|280:70,1,67.5000025749208,2|8,0:0|0:0,0:0:0:0:
226,0,16697,2,0,P|185:-4|126:67,1,135.000005149842,2|0,0:0|3:0,0:0:0:0:
186,115,17411,1,8,0:0:0:0:
118,190,17649,1,0,3:0:0:0:
196,262,17887,6,0,L|334:286,1,135.000005149842,2|8,3:0|0:0,0:0:0:0:
329,285,18840,1,2,0:0:0:0:
278,364,19078,1,4,3:0:0:0:
414,319,19316,6,0,L|424:274,1,33.7500012874604,8|0,0:0|0:0,0:0:0:0:
303,171,19554,2,0,L|313:216,1,33.7500012874604,0|0,3:0|0:0,0:0:0:0:
397,207,19792,6,0,P|419:173|383:78,1,135.000005149842,6|2,3:2|0:0,0:0:0:0:
327,22,20506,1,2,0:0:0:0:
234,114,20744,1,2,0:0:0:0:
151,68,20983,2,0,P|143:30|153:-9,1,67.5000025749208,2|10,3:2|0:0,0:0:0:0:
182,189,21459,1,2,3:2:0:0:
181,195,21578,1,2,0:0:0:0:
180,201,21697,6,0,L|153:347,1,135.000005149842,2|10,3:0|0:0,0:0:0:0:
6,298,22411,2,0,P|48:284|79:273,1,67.5000025749208,2|2,0:0|0:0,0:0:0:0:
155,333,22887,2,0,P|197:347|228:358,1,67.5000025749208,2|10,3:2|0:0,0:0:0:0:
391,356,23364,1,0,3:0:0:0:
312,305,23602,6,0,P|284:245|321:182,1,135.000005149842,2|8,3:0|0:0,0:0:0:0:
398,100,24316,2,0,L|387:144,2,45.0000017166138,2|2|2,3:2|0:0|0:0,0:0:0:0:
308,60,24792,6,0,L|319:113,1,33.7500012874604,2|0,3:2|0:0,0:0:0:0:
475,136,25030,2,0,L|468:169,1,33.7500012874604,8|0,0:0|0:0,0:0:0:0:
375,281,25268,6,0,L|309:306,1,67.5000025749208,6|0,3:0|0:0,0:0:0:0:
311,304,25744,6,0,P|300:335|285:387,1,53.9999983520508,8|0,0:0|0:0,0:0:0:0:
197,237,25983,2,0,P|229:230|281:218,1,53.9999983520508,8|0,0:0|0:0,0:0:0:0:
195,369,26221,2,0,P|173:343|136:304,1,53.9999983520508,8|0,0:0|0:0,0:0:0:0:
57,106,26459,6,0,P|46:138|35:169,1,67.5000025749208,8|0,0:0|0:0,0:0:0:0:
197,237,26697,2,0,P|207:204|219:173,1,67.5000025749208,8|0,0:0|0:0,0:0:0:0:
62,241,26935,2,0,P|94:251|125:263,1,67.5000025749208,8|0,0:0|0:0,0:0:0:0:
193,101,27173,2,0,P|160:90|129:79,1,67.5000025749208,8|0,0:0|0:0,0:0:0:0:
129,79,27649,5,8,3:0:0:0:
145,49,27768,1,8,3:0:0:0:
174,32,27887,1,8,3:0:0:0:
207,30,28006,1,8,0:0:0:0:
237,44,28125,1,8,0:0:0:0:
420,188,28364,1,8,3:0:0:0:
390,202,28483,1,8,3:0:0:0:
357,200,28602,1,8,0:0:0:0:
328,183,28721,1,8,0:0:0:0:
312,152,28840,6,0,P|338:141|372:119,1,53.9999983520508,10|0,0:0|0:0,0:0:0:0:
305,300,29078,2,0,P|331:310|354:324,1,53.9999983520508,10|0,3:0|0:0,0:0:0:0:
206,222,29316,6,0,P|134:237|46:253,1,135,6|0,3:2|0:0,0:0:0:0:
51,252,29792,2,0,P|69:317|74:357,1,90,10|2,0:0|0:0,0:0:0:0:
224,115,30268,1,2,3:2:0:0:
177,318,30506,1,0,3:0:0:0:
24,163,30744,1,10,0:0:0:0:
206,222,30983,6,0,P|265:213|311:186,1,90,2|2,0:0|3:0,0:0:0:0:
336,92,31459,1,2,0:0:0:0:
466,220,31697,2,0,L|444:333,1,90,10|2,0:0|0:3,0:0:0:0:
443,330,32054,1,2,0:3:0:0:
438,352,32173,1,2,3:3:0:0:
299,243,32411,2,0,P|291:213|295:182,1,45,2|2,3:2|0:3,0:0:0:0:
336,92,32649,2,0,P|378:103|434:114,1,90,8|2,0:0|0:0,0:0:0:0:
216,290,33125,5,2,3:2:0:0:
383,202,33364,1,2,0:0:0:0:
132,153,33602,5,10,0:0:0:0:
299,243,33840,1,2,0:0:0:0:
48,290,34078,5,2,3:2:0:0:
215,200,34317,1,2,3:2:0:0:
131,56,34554,5,10,0:0:0:0:
132,246,34792,1,2,0:0:0:0:
46,110,35030,5,2,3:2:0:0:
218,108,35268,2,0,P|231:62|224:15,1,90,2|8,0:0|0:0,0:0:0:0:
132,246,35744,1,2,3:2:0:0:
139,279,35863,1,8,3:0:0:0:
146,312,35982,1,0,3:0:0:0:
153,345,36101,1,8,3:0:0:0:
160,378,36220,1,2,3:2:0:0:
257,264,36459,2,0,P|319:245|354:232,1,90,8|2,0:0|0:0,0:0:0:0:
490,374,36935,6,0,B|416:373|433:341|335:346,1,135,2|0,3:2|0:0,0:0:0:0:
337,348,37411,1,10,0:0:0:0:
480,283,37649,2,0,P|495:239|466:166,1,90,2|0,0:0|3:0,0:0:0:0:
343,12,38125,1,2,3:2:0:0:
387,153,38364,1,10,0:0:0:0:
444,54,38602,5,2,0:0:0:0:
280,102,38840,2,0,P|234:94|176:84,1,90,2|0,3:0|0:0,0:0:0:0:
56,231,39316,2,0,P|44:182|65:134,1,90,10|0,0:0|0:0,0:0:0:0:
234,354,39792,1,2,3:2:0:0:
151,190,40030,1,0,3:0:0:0:
37,334,40268,2,0,P|81:326|125:318,1,90,10|0,0:0|0:0,0:0:0:0:
227,259,40625,5,2,0:0:0:0:
239,250,40744,2,0,B|345:262|302:311|422:320,2,180,2|8|0,3:2|0:0|3:0,0:0:0:0:
234,354,41935,1,2,3:2:0:0:
401,221,42173,2,0,P|415:144|431:83,1,135,10|2,0:0|0:0,0:0:0:0:
435,67,42649,5,2,3:0:0:0:
318,185,42887,1,2,0:3:0:0:
497,152,43125,1,8,0:0:0:0:
353,24,43364,1,2,3:0:0:0:
347,36,43483,1,0,3:0:0:0:
344,49,43602,1,0,3:0:0:0:
318,185,43840,6,0,P|286:176|245:156,1,53.9999983520508,8|0,3:0|3:0,0:0:0:0:
102,132,44078,2,0,P|134:123|175:103,1,53.9999983520508,8|8,0:0|0:0,0:0:0:0:
254,14,44316,2,0,L|240:92,1,53.9999983520508,8|0,3:0|3:0,0:0:0:0:
179,221,44554,6,0,P|193:277|211:377,1,135,2|0,3:2|0:0,0:0:0:0:
216,373,45030,2,0,P|260:343|312:337,1,90,10|2,0:0|0:0,0:0:0:0:
489,358,45506,1,2,3:2:0:0:
313,237,45744,1,2,3:2:0:0:
491,150,45983,1,10,0:0:0:0:
438,257,46221,1,2,0:0:0:0:
429,267,46340,1,2,0:0:0:0:
441,273,46459,5,2,3:0:0:0:
361,112,46697,1,2,0:0:0:0:
414,29,46935,2,0,P|482:12|517:1,1,90,10|2,0:0|0:3,0:0:0:0:
501,6,47292,1,2,0:3:0:0:
501,6,47411,1,2,3:3:0:0:
403,195,47649,2,0,P|423:198|456:206,1,45,2|2,3:2|0:3,0:0:0:0:
280,68,47887,2,0,B|203:65|224:40|134:41,1,135,8|0,0:0|0:0,0:0:0:0:
148,41,48364,5,2,3:2:0:0:
85,224,48602,1,2,0:0:0:0:
163,150,48840,5,10,0:0:0:0:
65,118,49078,1,2,0:0:0:0:
311,266,49316,5,2,3:2:0:0:
213,298,49554,1,2,3:2:0:0:
459,150,49792,5,10,0:0:0:0:
361,118,50030,2,0,P|344:67|360:15,1,90,2|2,0:0|3:0,0:0:0:0:
434,66,50506,1,2,0:0:0:0:
389,209,50744,2,0,L|415:311,1,90,10|2,0:0|3:0,0:0:0:0:
421,320,51102,1,0,3:0:0:0:
428,341,51221,1,0,3:0:0:0:
490,235,51459,1,0,3:0:0:0:
314,284,51697,2,0,P|264:297|202:315,1,90,8|2,0:0|0:0,0:0:0:0:
93,18,52173,6,0,B|93:111|135:97|130:204,1,180,6|8,3:2|0:0,0:0:0:0:
273,67,52887,2,0,P|218:52|180:28,1,90,6|0,3:0|0:0,0:0:0:0:
1,183,53364,2,0,P|40:164|66:162,1,45,2|0,3:0|3:0,0:0:0:0:
130,192,53602,1,8,0:0:0:0:
265,342,53840,6,0,P|220:268|128:306,1,180,6|0,3:2|3:0,0:0:0:0:
337,384,54554,2,0,B|416:363|396:392|480:367,1,135,10|8,0:0|0:0,0:0:0:0:
492,366,55030,2,0,P|460:308|468:264,1,90,10|0,0:0|3:0,0:0:0:0:
498,205,55387,1,0,3:0:0:0:
507,194,55506,2,0,L|514:139,1,45,8|8,0:0|0:0,0:0:0:0:
434,98,55744,2,0,L|427:43,1,45,8|0,3:0|3:0,0:0:0:0:
503,0,55983,5,6,3:2:0:0:
255,133,70268,5,8,3:0:0:0:
243,98,70387,1,8,0:0:0:0:
213,76,70506,1,8,0:0:0:0:
178,84,70625,1,8,0:0:0:0:
154,111,70744,1,8,3:0:0:0:
123,130,70864,1,8,3:0:0:0:
87,125,70983,1,8,3:0:0:0:
69,93,71102,1,0,3:0:0:0:
85,71,71221,6,0,L|108:216,1,135.000005149842,6|10,3:2|0:0,0:0:0:0:
187,294,71935,2,0,P|203:255|195:209,1,67.5000025749208,2|2,3:2|0:0,0:0:0:0:
0,330,72411,1,2,3:2:0:0:
7,336,72530,1,0,3:2:0:0:
13,343,72649,2,0,L|91:353,1,67.5000025749208,8|0,0:0|3:0,0:0:0:0:
87,358,73006,1,0,3:0:0:0:
94,365,73125,6,0,B|174:354|152:387|235:371,1,135.000005149842,2|10,3:0|0:0,0:0:0:0:
310,305,73840,1,2,3:2:0:0:
238,249,74078,1,2,3:2:0:0:
235,239,74197,1,0,3:2:0:0:
232,229,74316,1,2,3:2:0:0:
318,151,74554,2,0,P|322:113|331:69,1,67.5000025749208,10|2,0:0|3:2,0:0:0:0:
325,74,74911,1,0,3:0:0:0:
320,65,75030,6,0,P|262:100|182:81,1,135.000005149842,2|8,3:0|0:0,0:0:0:0:
117,27,75744,2,0,P|82:37|41:49,1,67.5000025749208,2|0,3:2|0:0,0:0:0:0:
0,134,76221,1,0,3:0:0:0:
91,167,76459,2,0,P|119:210|118:245,1,67.5000025749208,10|0,0:0|3:0,0:0:0:0:
118,234,76816,1,0,3:0:0:0:
114,243,76935,5,2,3:0:0:0:
27,304,77173,1,2,0:0:0:0:
97,384,77411,1,8,0:0:0:0:
184,322,77649,2,0,L|266:309,1,67.5000025749208,2|2,3:2|3:2,0:0:0:0:
260,311,78006,1,0,3:0:0:0:
270,309,78125,1,0,3:0:0:0:
405,374,78364,2,0,P|417:342|401:296,1,67.5000025749208,10|0,0:0|3:0,0:0:0:0:
402,303,78721,1,0,3:0:0:0:
395,295,78840,6,0,L|416:142,1,135.000005149842,2|10,3:0|0:0,0:0:0:0:
485,32,79554,1,2,3:2:0:0:
511,124,79792,1,2,0:0:0:0:
392,59,80030,2,0,P|357:54|307:42,1,67.5000025749208,2|8,3:2|0:0,0:0:0:0:
210,123,80506,1,0,3:2:0:0:
201,117,80625,1,2,3:2:0:0:
193,110,80744,6,0,P|179:71|200:29,1,67.5000025749208,2|2,3:0|0:0,0:0:0:0:
298,138,81221,2,0,P|312:177|291:219,1,67.5000025749208,10|2,0:0|3:2,0:0:0:0:
218,256,81697,1,2,3:2:0:0:
208,251,81816,1,0,3:2:0:0:
198,247,81935,1,2,3:2:0:0:
48,338,82173,2,0,L|133:324,1,67.5000025749208,10|2,0:0|3:2,0:0:0:0:
124,325,82530,1,0,3:0:0:0:
133,322,82649,6,0,B|216:330|188:359|276:367,1,135.000005149842,0|10,3:2|0:0,0:0:0:0:
387,274,83364,2,0,P|352:284|311:295,1,67.5000025749208,2|0,3:2|0:0,0:0:0:0:
465,345,83840,1,0,3:0:0:0:
387,274,84078,1,10,0:0:0:0:
452,198,84316,1,2,3:2:0:0:
456,189,84435,1,0,3:2:0:0:
461,180,84554,6,0,L|426:23,1,135.000005149842,2|8,3:0|0:0,0:0:0:0:
361,9,85268,1,0,3:0:0:0:
248,134,85506,1,2,0:0:0:0:
321,176,85744,2,0,P|331:153|332:123,1,33.7500012874604,4|0,3:0|0:0,0:0:0:0:
221,51,85983,1,10,0:0:0:0:
204,55,86102,1,8,3:0:0:0:
188,60,86221,1,8,3:0:0:0:
172,65,86340,1,0,3:0:0:0:
156,70,86459,6,0,P|137:103|139:152,1,67.5000025749208,6|2,3:2|0:0,0:0:0:0:
199,209,86935,1,10,0:0:0:0:
154,295,87173,2,0,L|68:314,1,67.5000025749208,2|2,3:2|0:0,0:0:0:0:
20,260,87649,1,2,3:2:0:0:
145,384,87887,1,10,0:0:0:0:
243,309,88125,1,2,3:2:0:0:
252,306,88244,1,2,3:2:0:0:
261,302,88364,5,2,3:0:0:0:
437,368,88602,1,2,0:0:0:0:
328,379,88840,1,10,0:0:0:0:
368,288,89078,2,0,L|395:192,1,67.5000025749208,2|2,3:2|3:2,0:0:0:0:
389,213,89435,1,0,3:2:0:0:
392,203,89554,1,2,3:2:0:0:
483,120,89792,2,0,L|456:24,1,67.5000025749208,10|0,0:0|3:0,0:0:0:0:
462,45,90149,1,0,3:0:0:0:
459,35,90268,5,2,3:0:0:0:
359,107,90506,1,2,0:0:0:0:
265,34,90744,1,10,0:0:0:0:
165,97,90983,2,0,L|154:144,2,45.0000017166138,2|2|2,3:2|0:0|0:0,0:0:0:0:
244,156,91459,6,0,P|251:130|248:106,1,33.7500012874604,0|0,3:0|0:0,0:0:0:0:
78,88,91697,2,0,P|71:114|74:138,1,33.7500012874604,10|0,0:0|0:0,0:0:0:0:
0,287,91935,5,6,3:0:0:0:
0,287,92411,2,0,L|69:263,1,67.5000025749208,8|0,0:0|0:0,0:0:0:0:
142,352,92649,2,0,L|211:376,1,67.5000025749208,8|0,0:0|0:0,0:0:0:0:
284,287,92887,2,0,L|353:263,1,67.5000025749208,8|0,0:0|0:0,0:0:0:0:
426,352,93125,2,0,L|495:376,1,67.5000025749208,8|0,0:0|0:0,0:0:0:0:
284,287,93364,5,8,0:0:0:0:
245,259,93483,1,8,0:0:0:0:
230,213,93602,1,8,0:0:0:0:
240,167,93721,1,8,3:0:0:0:
277,138,93840,2,0,P|295:167|284:226,1,53.9999983520508,2|0,3:2|3:0,0:0:0:0:
152,276,94078,6,0,B|75:286|105:310|9:313,1,135,6|0,3:2|0:0,0:0:0:0:
2,303,94554,1,10,0:0:0:0:
157,373,94792,1,2,0:0:0:0:
38,215,95030,1,2,3:2:0:0:
159,66,95268,1,2,3:2:0:0:
33,28,95506,5,10,0:0:0:0:
152,185,95744,2,0,P|216:170|249:134,1,90,2|2,0:0|3:0,0:0:0:0:
317,8,96221,1,2,0:0:0:0:
486,149,96459,2,0,P|441:140|380:129,1,90,10|2,0:0|0:3,0:0:0:0:
375,129,96816,1,2,0:3:0:0:
352,125,96935,1,2,3:3:0:0:
453,55,97173,6,0,L|461:11,1,45,2|2,3:2|0:3,0:0:0:0:
325,209,97411,1,10,0:0:0:0:
332,239,97530,1,8,3:0:0:0:
338,269,97649,1,10,3:0:0:0:
344,299,97768,1,0,3:0:0:0:
351,329,97887,5,2,3:2:0:0:
178,231,98125,1,2,0:0:0:0:
89,384,98364,5,10,0:0:0:0:
260,283,98602,1,2,0:0:0:0:
172,129,98840,5,2,3:2:0:0:
174,328,99078,1,2,3:2:0:0:
83,185,99316,5,10,0:0:0:0:
260,178,99554,1,2,0:0:0:0:
171,0,99792,5,2,3:2:0:0:
172,129,100030,2,0,L|173:232,1,90,2|8,0:0|0:0,0:0:0:0:
28,245,100506,1,2,3:2:0:0:
7,218,100625,1,8,0:0:0:0:
0,185,100744,1,0,3:0:0:0:
4,152,100864,1,8,0:0:0:0:
22,124,100983,1,2,3:2:0:0:
238,61,101221,1,8,0:0:0:0:
83,185,101459,1,2,0:0:0:0:
237,308,101697,6,0,B|316:309|295:342|401:345,1,135,2|0,3:2|0:0,0:0:0:0:
388,342,102173,1,10,0:0:0:0:
489,176,102411,2,0,P|502:220|491:275,1,90,2|0,0:0|3:0,0:0:0:0:
302,55,102887,1,2,3:2:0:0:
390,218,103125,1,8,0:0:0:0:
509,74,103364,1,2,0:0:0:0:
496,70,103483,1,2,0:0:0:0:
481,67,103602,6,0,P|436:89|385:112,1,90,2|0,3:2|0:0,0:0:0:0:
292,271,104078,2,0,P|275:224|291:176,1,90,10|0,0:0|3:2,0:0:0:0:
291,174,104435,1,0,3:2:0:0:
301,165,104554,1,2,3:2:0:0:
424,315,104792,2,0,L|373:302,1,45,4|0,3:0|0:0,0:0:0:0:
272,377,105030,1,10,0:0:0:0:
0,160,105348,5,2,0:0:0:0:
20,177,105506,2,0,P|86:159|153:138,1,135,2|0,3:2|0:0,0:0:0:0:
171,133,105983,1,8,0:0:0:0:
255,235,106221,1,0,3:0:0:0:
251,247,106340,1,0,3:0:0:0:
246,259,106459,1,0,3:0:0:0:
43,357,106697,5,2,3:2:0:0:
142,381,106935,2,0,P|154:321|104:275,1,135,10|0,0:0|0:0,0:0:0:0:
91,268,107411,6,0,P|117:260|143:249,1,53.9999983520508,2|0,3:0|0:0,0:0:0:0:
241,348,107649,2,0,P|267:355|293:367,1,53.9999983520508,2|0,3:0|0:0,0:0:0:0:
445,283,107887,2,0,L|378:304,1,53.9999983520508,10|0,0:0|0:0,0:0:0:0:
309,221,108125,6,0,B|288:63,1,135,6|0,3:2|0:0,0:0:0:0:
380,0,108602,6,0,L|368:62,1,53.9999983520508,10|0,0:0|0:0,0:0:0:0:
210,149,108840,1,10,0:0:0:0:
197,138,108959,1,8,0:0:0:0:
189,123,109078,2,0,P|187:78|210:36,1,53.9999983520508,8|0,3:0|3:0,0:0:0:0:
312,234,109316,6,0,B|389:245|369:271|457:283,1,135,6|0,3:2|0:0,0:0:0:0:
457,268,109792,1,10,0:0:0:0:
329,376,110030,1,2,0:0:0:0:
208,285,110268,2,0,P|152:277|99:265,1,90,2|0,3:2|3:2,3:2:0:0:
11,374,110744,5,10,0:0:0:0:
119,270,110983,2,0,P|136:219|105:152,1,90,2|2,0:0|3:0,0:0:0:0:
0,0,111459,1,2,0:0:0:0:
11,90,111697,2,0,L|27:210,1,90,10|2,0:0|0:3,0:0:0:0:
27,201,112054,1,2,0:3:0:0:
32,222,112173,1,2,3:0:0:0:
180,115,112411,5,2,3:2:0:0:
159,103,112530,1,2,0:3:0:0:
136,102,112649,1,8,0:0:0:0:
273,235,112887,2,0,P|308:232|338:214,1,45,2|0,3:2|0:0,0:0:0:0:
377,127,113125,5,2,3:2:0:0:
318,370,113364,1,2,0:0:0:0:
414,270,113602,5,10,0:0:0:0:
273,235,113840,2,0,L|206:222,1,45,2|0,3:2|3:2,3:2:0:0:
26,330,114078,5,2,3:2:0:0:
228,226,114316,1,2,3:2:0:0:
44,105,114554,1,10,0:0:0:0:
99,230,114792,1,0,3:0:0:0:
109,221,114911,1,2,0:0:0:0:
95,218,115030,5,2,3:0:0:0:
252,95,115268,1,2,0:0:0:0:
386,215,115506,2,0,L|503:239,1,90,10|0,0:0|3:0,0:0:0:0:
483,242,115864,1,0,3:0:0:0:
491,252,115983,2,0,L|475:310,1,45,8|0,3:0|3:0,0:0:0:0:
400,384,116221,2,0,L|388:340,1,45,8|0,3:0|3:0,0:0:0:0:
298,275,116459,1,8,0:0:0:0:
39,369,116697,1,2,0:0:0:0:
32,338,116816,1,2,0:0:0:0:
57,318,116935,6,0,B|124:331|124:331|152:372|152:372|253:393,1,180,6|8,3:2|0:0,0:0:0:0:
39,209,117649,2,0,B|46:130|14:148|21:50,1,135,2|0,3:2|0:0,0:0:0:0:
19,76,118125,2,0,L|88:90,1,45,2|0,3:2|0:0,0:0:0:0:
143,161,118364,1,8,0:0:0:0:
336,87,118602,6,0,B|213:68|213:68|241:87|250:115,1,180,6|0,3:2|3:0,0:0:0:0:
430,159,119316,2,0,B|447:124|467:102|467:102|448:72|433:17,1,135,8|8,0:0|0:0,0:0:0:0:
441,41,119792,5,8,0:0:0:0:
336,87,120030,1,8,3:0:0:0:
143,161,120268,5,8,3:0:0:0:
228,197,120506,1,0,3:2:0:0:
438,285,120744,6,0,B|319:304|387:350|245:365,1,202.500007724762,6|8,3:2|0:0,0:0:0:0:
256,363,121697,1,8,0:0:0:0:
98,308,121935,6,0,P|92:345|77:388,2,67.5000025749208,2|2|2,0:3|0:3|0:3,0:3:0:0:
176,241,122649,2,0,L|152:94,1,135.000005149842,2|0,0:3|0:0,0:0:0:0:
208,25,123364,2,0,P|249:5|324:95,1,161.999995056153,2|2,0:3|0:3,0:0:0:0:
494,186,124554,6,0,P|445:175|403:160,1,67.5000025749208,8|0,3:0|0:0,0:0:0:0:
356,240,125030,2,0,P|307:251|265:266,1,67.5000025749208,0|10,3:0|0:0,0:0:0:0:
112,175,125506,2,0,L|150:332,1,135.000005149842,10|0,0:0|0:0,0:0:0:0:
284,365,126221,1,2,0:0:0:0:
290,356,126340,1,2,0:0:0:0:
292,347,126459,6,0,P|284:306|143:307,1,215.999993408203,2|2,0:0|0:0,0:0:0:0:
143,305,127887,2,0,P|194:308|239:260,1,101.250003862381,2|0,3:2|0:0,0:0:0:0:
231,277,128364,5,0,3:0:0:0:
271,197,128602,1,0,3:0:0:0:
204,145,128840,5,0,3:0:0:0:
181,64,129078,1,0,3:0:0:0:
280,0,129316,5,8,0:0:0:0:
348,59,129554,2,0,L|335:106,3,33.7500012874604,2|0|0|0,3:3|3:0|3:0|3:0,3:0:0:0:
339,91,130030,1,2,3:3:0:0:
433,183,130268,2,0,L|424:150,4,33.7500012874604,2|0|0|0|0,3:3|3:0|3:0|3:0|3:0,3:0:0:0:
512,230,130983,6,0,P|435:219|395:285,1,161.999995056153,2|2,0:3|0:3,0:0:0:0:
395,282,132173,6,0,P|436:301|479:302,1,67.5000025749208,10|0,3:0|0:0,0:0:0:0:
457,303,132491,1,2,0:0:0:0:
278,383,132649,2,0,P|308:367|341:361,1,67.5000025749208,2|0,3:2|0:0,0:0:0:0:
340,361,132967,1,2,0:0:0:0:
173,336,133125,2,0,L|133:185,1,135.000005149842,10|2,0:0|0:0,0:0:0:0:
142,210,133919,5,2,0:0:0:0:
142,210,134078,2,0,P|100:236|50:239,1,90.0000034332277,8|0,3:0|0:0,0:0:0:0:
222,122,134554,2,0,P|264:148|314:151,1,90.0000034332277,8|0,3:0|0:0,0:0:0:0:
156,44,135030,2,0,P|92:22|53:75,1,135.000005149842,2|8,3:2|0:0,0:0:0:0:
138,205,135744,1,2,0:0:0:0:
138,205,135864,1,2,0:0:0:0:
138,205,135983,6,0,B|209:206|188:237|275:231,1,121.499996292114,2|0,3:0|0:0,0:0:0:0:
275,230,136459,1,10,0:0:0:0:
364,169,136697,2,0,P|371:123|359:82,1,80.9999975280763,2|0,0:0|3:0,0:0:0:0:
272,131,137173,1,2,0:0:0:0:
372,269,137411,2,0,P|410:276|474:287,1,80.9999975280763,10|2,0:0|0:0,0:0:0:0:
293,334,137887,6,0,P|222:318|163:389,1,161.999995056153,2|10,3:2|0:0,0:0:0:0:
5,259,138681,1,2,0:0:0:0:
22,275,138840,2,0,P|61:272|106:246,1,80.9999975280763,2|0,3:2|0:0,0:0:0:0:
165,174,139197,1,2,0:0:0:0:
165,174,139316,2,0,P|171:134|181:94,1,80.9999975280763,10|0,0:0|0:0,0:0:0:0:
16,33,139792,6,0,P|29:92|36:152,1,121.499996292114,2|0,3:2|0:0,0:0:0:0:
35,172,140268,1,10,0:0:0:0:
115,45,140506,2,0,P|145:20|201:15,1,80.9999975280763,2|0,0:0|3:0,0:0:0:0:
246,154,140983,1,2,0:0:0:0:
246,154,141221,2,0,P|216:179|160:184,1,80.9999975280763,10|0,0:0|0:0,0:0:0:0:
303,50,141697,6,0,P|383:67|477:85,1,161.999995056153,2|8,3:0|0:0,0:0:0:0:
461,82,142411,1,2,0:0:0:0:
373,159,142649,2,0,P|361:201|373:251,1,80.9999975280763,2|2,3:2|0:0,0:0:0:0:
463,290,143125,2,0,P|475:248|463:198,1,80.9999975280763,10|2,0:0|0:0,0:0:0:0:
330,329,143602,6,0,B|242:335|264:371|163:367,2,161.999995056153,2|8|0,3:0|0:0|3:0,0:0:0:0:
330,329,144792,1,2,0:3:0:0:
195,255,145030,1,10,0:2:0:0:
303,135,145268,1,2,0:3:0:0:
253,56,145506,6,0,P|196:8|104:45,2,161.999995056153,2|8|0,3:2|0:0|3:0,0:0:0:0:
253,56,146935,2,0,P|214:81|170:85,1,80.9999975280763,8|0,0:0|0:0,0:0:0:0:
5,136,147411,6,0,P|69:138|91:238,1,161.999995056153,2|8,3:0|0:0,0:0:0:0:
19,361,148125,2,0,P|3:318|24:273,1,80.9999975280763,2|0,0:3|3:0,0:0:0:0:
100,220,148602,2,0,P|154:240|189:247,1,80.9999975280763,2|8,0:3|0:0,0:0:0:0:
346,325,149078,1,2,0:0:0:0:
347,314,149197,1,2,0:0:0:0:
338,307,149316,6,0,B|247:311|281:357|163:363,1,180,2|0,3:0|3:0,0:0:0:0:
170,362,150506,5,2,0:0:0:0:
231,306,150744,1,2,3:2:0:0:
176,245,150983,1,2,0:0:0:0:
225,127,151221,6,0,L|415:70,1,180,2|2,0:3|0:0,0:0:0:0:
397,75,152649,1,2,0:0:0:0:
479,129,152887,2,0,P|490:167|488:193,1,45,2|2,0:0|0:3,0:0:0:0:
355,276,153602,2,0,P|342:256|396:173,1,135,2|2,0:0|0:0,0:0:0:0:
391,173,154792,1,2,0:0:0:0:
449,273,155030,6,0,L|433:329,1,45,2|2,0:3|0:0,0:0:0:0:
308,341,155506,2,0,L|324:397,1,45,2|2,0:0|0:0,0:0:0:0:
201,241,155983,2,0,L|170:347,1,90,2|2,0:0|0:3,0:0:0:0:
0,314,156935,6,0,P|36:260|100:266,2,135,2|2|2,0:3|0:3|0:3,0:0:0:0:
135,168,158840,6,0,B|157:89|117:95|137:25,1,135,2|2,0:3|0:0,0:0:0:0:
134,35,160030,1,2,0:3:0:0:
214,75,160268,1,2,0:3:0:0:
63,133,160506,1,2,0:3:0:0:
201,241,160744,6,0,L|341:277,1,135,2|0,0:3|0:0,0:0:0:0:
427,239,161697,2,0,P|442:206|424:143,1,90,2|2,0:0|0:3,0:0:0:0:
432,154,162292,1,2,0:0:0:0:
432,154,162411,1,2,0:0:0:0:
264,44,162621,1,0,3:0:0:0:
364,12,162938,6,0,L|339:162,1,140,2|8,3:2|3:2,3:0:0:0:
114,349,163573,5,8,3:0:0:0:
71,337,163692,1,8,0:0:0:0:
44,301,163811,1,8,0:0:0:0:
45,257,163930,1,8,0:0:0:0:
71,222,164049,1,8,3:0:0:0:
114,211,164168,1,8,3:0:0:0:
155,227,164287,1,0,3:0:0:0:
155,227,164525,6,0,P|118:242|86:246,1,67.5000025749208,8|0,0:0|0:0,0:0:0:0:
259,332,164763,2,0,P|222:317|190:313,1,67.5000025749208,8|0,0:0|0:0,0:0:0:0:
363,227,165001,2,0,P|326:242|294:246,1,67.5000025749208,8|0,0:0|0:0,0:0:0:0:
445,335,165240,6,0,P|488:302|456:220,1,135.000005149842,6|8,3:0|3:0,0:0:0:0:
424,6,165954,5,8,0:0:0:0:
399,17,166073,1,8,3:0:0:0:
386,40,166192,2,0,P|379:77|392:117,1,53.9999983520508,0|0,3:0|3:0,3:0:0:0:
472,230,166430,6,0,L|490:74,1,135,6|0,3:2|0:0,0:0:0:0:
493,74,166906,1,10,0:0:0:0:
343,220,167144,1,2,0:0:0:0:
467,361,167382,1,2,3:2:0:0:
472,230,167621,1,2,3:2:0:0:
338,354,167859,1,10,0:0:0:0:
261,247,168097,6,0,P|304:223|367:227,1,90,2|2,0:0|3:0,0:0:0:0:
211,361,168573,1,2,0:0:0:0:
147,187,168811,2,0,L|43:166,1,90,10|2,0:0|0:3,0:0:0:0:
39,180,169168,1,2,0:3:0:0:
23,196,169287,2,0,P|21:227|32:256,1,45,2|8,3:3|3:0,0:0:0:0:
130,98,169525,2,0,P|132:67|121:38,1,45,2|2,3:0|0:3,0:0:0:0:
23,13,169763,1,10,0:0:0:0:
147,187,170001,1,2,0:3:0:0:
160,186,170121,1,2,0:3:0:0:
173,182,170240,5,2,3:2:0:0:
362,118,170478,1,2,0:0:0:0:
417,283,170716,5,10,0:0:0:0:
268,150,170954,2,0,P|265:110|276:80,1,45,2|0,3:2|3:0,3:0:0:0:
383,22,171192,5,2,3:2:0:0:
343,217,171430,1,2,3:2:0:0:
268,150,171668,5,10,0:0:0:0:
434,182,171906,2,0,L|531:198,1,90,2|2,0:0|3:0,0:0:0:0:
362,118,172382,5,2,0:0:0:0:
343,217,172621,2,0,L|327:314,1,90,10|0,0:0|3:0,0:0:0:0:
324,328,172978,1,0,3:0:0:0:
320,350,173097,1,0,3:0:0:0:
123,222,173335,6,0,P|147:206|191:209,1,53.9999983520508,8|0,0:0|0:0,0:0:0:0:
198,285,173573,2,0,P|174:301|130:298,1,53.9999983520508,8|8,0:0|3:0,0:0:0:0:
215,129,173811,1,0,3:0:0:0:
55,315,174049,6,0,B|159:319|119:372|243:361,1,180,6|8,3:2|0:0,0:0:0:0:
427,232,174763,2,0,L|412:331,1,90,2|0,3:2|0:0,0:0:0:0:
294,155,175240,2,0,L|307:218,1,45,2|0,3:2|0:0,0:0:0:0:
285,283,175478,1,8,0:0:0:0:
453,122,175716,6,0,B|391:108|391:108|372:67|372:67|260:44,1,180,6|8,3:2|0:0,0:0:0:0:
105,192,176430,1,8,0:0:0:0:
294,155,176668,1,8,3:0:0:0:
68,83,176906,1,0,3:0:0:0:
189,146,177144,2,0,P|203:174|205:210,1,45,10|0,3:0|3:0,3:0:0:0:
25,246,177382,2,0,P|13:226|8:204,1,45,10|8,0:0|3:0,0:0:0:0:
138,305,177621,1,2,3:2:0:0:
138,305,177859,6,0,L|122:380,1,53.9999983520508,10|0,0:0|0:0,0:0:0:0:
282,278,178097,2,0,P|254:264|208:265,1,53.9999983520508,10|0,0:0|0:0,0:0:0:0:
381,351,178335,2,0,P|407:346|431:334,1,53.9999983520508,8|0,3:0|0:0,0:0:0:0:
467,242,178573,2,0,L|438:74,1,135,6|0,3:0|0:0,0:0:0:0:
496,43,179049,1,8,3:0:0:0:
498,29,179168,1,0,3:0:0:0:
500,15,179287,1,8,0:0:0:0:
354,134,179525,6,0,B|277:141|310:166|197:172,1,135,2|0,3:2|0:0,0:0:0:0:
193,165,180001,1,0,3:0:0:0:
73,0,180240,1,8,0:0:0:0:
233,64,180478,1,8,3:0:0:0:
97,218,180716,5,10,0:0:0:0:
70,193,180835,1,8,0:0:0:0:
63,157,180954,1,8,0:0:0:0:
78,124,181073,1,8,0:0:0:0:
110,109,181192,2,0,L|97:174,1,45,8|8,0:0|3:0,0:0:0:0:
0,235,181430,2,0,L|13:300,1,45,2|0,3:2|3:0,3:0:0:0:
127,334,181688,6,0,B|217:338|193:373|287:374,1,161.999995056153,6|8,3:2|0:0,0:0:0:0:
360,256,182402,1,2,3:2:0:0:
464,381,182640,2,0,B|486:342|486:342|463:290,1,80.9999975280763,2|0,0:0|3:0,0:0:0:0:
463,299,182997,1,2,0:0:0:0:
454,290,183116,1,8,0:0:0:0:
345,117,183354,1,2,0:0:0:0:
287,192,183592,6,0,L|142:230,1,121.499996292114,2|0,3:2|0:0,0:0:0:0:
150,228,184068,1,10,0:0:0:0:
47,194,184307,2,0,P|32:154|49:103,1,80.9999975280763,2|0,3:2|0:0,0:0:0:0:
193,45,184783,1,2,3:2:0:0:
111,9,185020,2,0,P|108:32|102:65,1,40.4999987640381,8|0,0:0|0:0,0:0:0:0:
194,138,185259,2,0,P|215:128|246:117,1,40.4999987640381,8|0,0:0|0:0,0:0:0:0:
323,35,185497,6,0,L|497:71,1,161.999995056153,4|8,3:0|0:0,0:0:0:0:
382,187,186211,1,2,3:2:0:0:
465,229,186449,2,0,B|478:187|478:187|459:133,1,80.9999975280763,2|0,0:0|3:0,0:0:0:0:
307,150,186806,1,2,0:0:0:0:
307,150,186925,2,0,B|294:192|294:192|313:246,1,80.9999975280763,8|2,0:0|0:0,0:0:0:0:
509,319,187402,6,0,B|440:337|440:337|426:354|426:354|330:375,1,161.999995056153,2|10,3:2|0:0,0:0:0:0:
262,299,188116,1,2,3:0:0:0:
242,292,188235,1,0,3:0:0:0:
222,286,188354,1,0,3:0:0:0:
137,364,188592,2,0,L|72:378,1,40.4999987640381,0|0,3:0|3:0,0:0:0:0:
34,298,188830,1,8,0:0:0:0:
12,277,188949,1,8,3:0:0:0:
6,248,189068,1,8,3:0:0:0:
17,220,189187,1,0,3:0:0:0:
43,204,189307,6,0,B|145:192|105:166|208:147,1,161.999995056153,6|8,3:2|0:0,0:0:0:0:
345,31,190021,1,2,3:2:0:0:
247,0,190259,2,0,L|263:89,1,80.9999975280763,2|0,0:0|3:0,0:0:0:0:
264,91,190616,1,2,0:0:0:0:
266,102,190735,1,8,0:0:0:0:
421,253,190973,1,2,0:0:0:0:
323,224,191211,6,0,P|336:195|471:174,1,161.999995056153,2|10,3:2|0:0,0:0:0:0:
341,329,191926,2,0,P|298:328|238:309,1,80.9999975280763,2|0,3:2|0:0,0:0:0:0:
133,210,192401,1,2,3:2:0:0:
261,319,192640,1,8,0:0:0:0:
131,378,192878,1,0,3:0:0:0:
119,381,192997,1,0,3:0:0:0:
107,384,193116,5,2,3:0:0:0:
228,232,193354,1,0,3:0:0:0:
84,119,193592,2,0,L|62:-13,1,121.499996292114,12|8,0:0|0:0,0:0:0:0:
64,0,194068,5,10,0:0:0:0:
211,54,194306,1,8,3:0:0:0:
424,127,194544,5,8,3:0:0:0:
317,173,194782,1,0,3:2:0:0:
256,320,195020,5,6,3:2:0:0:
256,192,195140,12,0,201449,0:0:0:0:
