osu file format v14

[General]
AudioFilename: audio.mp3
AudioLeadIn: 0
PreviewTime: 28555
Countdown: 0
SampleSet: Soft
StackLeniency: 0.6
Mode: 0
LetterboxInBreaks: 0
WidescreenStoryboard: 1

[Editor]
Bookmarks: 743,4552,12171,19790,27409,29314,36933,44553,52171,55981,57885
DistanceSpacing: 1
BeatDivisor: 8
GridSize: 32
TimelineZoom: 1.5

[Metadata]
Title:Kimi ni Todoke
TitleUnicode:きみにとどけ
Artist:Tomofumi Tanizawa
ArtistUnicode:タニザワトモフミ
Creator:Kyuukai
Version:Shyo's Light Insane
Source:君に届け
Tags:sawako ponoyoshi shyotamaze yaleufeu from me to reaching you opening
BeatmapID:1233944
BeatmapSetID:580001

[Difficulty]
HPDrainRate:6
CircleSize:4
OverallDifficulty:7.5
ApproachRate:8
SliderMultiplier:1.8
SliderTickRate:1

[Events]
//Background and Video events
0,0,"kmt bg.png",0,0
//Break Periods
//Storyboard Layer 0 (Background)
//Storyboard Layer 1 (Fail)
//Storyboard Layer 2 (Pass)
//Storyboard Layer 3 (Foreground)
//Storyboard Sound Samples

[TimingPoints]
734,476.190476190476,4,2,2,5,1,0
3591,-133.333333333333,4,2,2,30,0,0
4067,-133.333333333333,4,2,2,30,0,0
4543,-133.333333333333,4,2,1,40,0,0
5733,-133.333333333333,4,2,2,40,0,0
8353,-133.333333333333,4,2,1,40,0,0
9543,-133.333333333333,4,2,2,40,0,0
12162,-133.333333333333,4,2,1,40,0,0
13353,-133.333333333333,4,2,2,40,0,0
15972,-133.333333333333,4,2,1,40,0,0
17162,-133.333333333333,4,2,1,40,0,0
19781,-133.333333333333,4,2,1,50,0,0
25282,476.190476190476,4,2,1,60,1,0
29329,476.190476190476,4,2,1,80,1,1
29329,-80,4,2,1,80,0,1
31948,-80,4,2,1,60,0,1
33138,-80,4,2,1,80,0,1
42543,-80,4,2,1,80,0,1
42662,-80,4,2,1,80,0,1
47186,-80,4,2,1,60,0,1
48376,-80,4,2,1,80,0,1
54090,-80,4,2,3,80,0,1
54328,-80,4,2,1,80,0,1
55995,-80,4,2,2,80,0,0
56233,-80,4,2,1,5,0,0

[Colours]
Combo1 : 224,219,18
Combo2 : 189,248,165
Combo3 : 0,128,192
Combo4 : 255,172,132

[HitObjects]
256,192,734,12,0,3114,0:0:0:0:
128,288,3591,6,0,L|192:320,1,67.5000025749208,0|0,0:0|0:0,0:0:0:0:
283,283,4067,2,0,L|343:313,1,67.5000025749208,0|0,0:0|0:0,0:0:0:0:
248,188,4543,6,0,L|187:157,1,67.5000025749208,4|0,0:0|0:0,0:0:0:0:
187,124,4900,1,0,0:0:0:0:
187,90,5019,1,8,0:0:0:0:
286,69,5257,1,8,0:0:0:0:
343,152,5495,1,0,0:0:0:0:
248,188,5733,2,0,L|187:157,1,67.5000025749208,2|8,0:0|0:0,0:0:0:0:
92,193,6210,1,0,0:0:0:0:
188,318,6448,6,0,L|128:288,1,67.5000025749208,8|0,0:0|0:0,0:0:0:0:
92,193,6924,2,0,L|31:162,1,67.5000025749208,8|0,0:0|0:0,0:0:0:0:
102,91,7400,1,0,0:0:0:0:
189,224,7638,2,0,P|193:191|188:158,1,67.5000025749208,8|8,0:0|0:0,0:0:0:0:
102,91,8114,1,0,0:0:0:0:
253,20,8353,6,0,P|222:33|196:55,1,67.5000025749208,4|0,0:0|0:0,0:0:0:0:
102,91,8829,2,0,P|70:78|43:58,2,67.5000025749208,8|0|0,0:0|0:0|0:0,0:0:0:0:
188,157,9543,1,2,0:0:0:0:
92,193,9781,2,0,P|59:183|31:164,1,67.5000025749208,8|0,0:0|0:0,0:0:0:0:
124,289,10257,5,0,0:0:0:0:
102,383,10495,1,0,0:0:0:0:
2,360,10733,1,8,0:0:0:0:
24,266,10972,1,0,0:0:0:0:
189,280,11210,2,0,P|155:278|124:289,1,67.5000025749208,0|8,0:0|0:0,0:0:0:0:
102,383,11686,2,0,P|135:385|167:374,1,67.5000025749208,8|8,0:0|0:0,0:0:0:0:
281,253,12162,5,4,0:0:0:0:
377,221,12400,1,0,0:0:0:0:
298,353,12638,2,0,P|330:341|356:320,1,67.5000025749208,8|0,0:0|0:0,0:0:0:0:
377,221,13114,1,0,0:0:0:0:
509,320,13353,2,0,P|483:299|452:288,1,67.5000025749208,2|0,0:0|0:0,0:0:0:0:
356,320,13829,1,8,0:0:0:0:
473,189,14067,6,0,P|478:155|472:122,1,67.5000025749208,0|0,0:0|0:0,0:0:0:0:
376,155,14543,2,0,P|370:188|377:221,1,67.5000025749208,8|0,0:0|0:0,0:0:0:0:
452,288,15019,1,0,0:0:0:0:
356,320,15257,1,8,0:0:0:0:
377,221,15495,1,8,0:0:0:0:
298,352,15733,6,0,P|330:341|356:320,1,67.5000025749208,0|4,0:0|0:0,0:0:0:0:
377,221,16210,2,0,P|371:189|377:156,1,67.5000025749208,0|8,0:0|0:0,0:0:0:0:
472,122,16686,2,0,P|478:155|473:188,1,67.5000025749208,0|0,0:0|0:0,0:0:0:0:
377,221,17162,1,8,0:0:0:0:
356,319,17400,2,0,P|330:341|298:352,1,67.5000025749208,0|8,0:0|0:0,0:0:0:0:
452,288,17876,5,0,0:0:0:0:
473,189,18114,1,0,0:0:0:0:
377,221,18353,1,8,0:0:0:0:
356,320,18591,1,0,0:0:0:0:
240,200,18829,2,0,P|256:230|281:253,1,67.5000025749208,0|8,0:0|0:0,0:0:0:0:
377,221,19305,2,0,P|361:191|336:168,1,67.5000025749208,8|8,0:0|0:0,0:0:0:0:
164,132,19781,6,0,P|190:110|223:99,2,67.5000025749208,4|0|8,0:0|0:0|0:0,0:0:0:0:
144,231,20495,1,0,0:0:0:0:
67,162,20733,2,0,P|61:129|69:97,1,67.5000025749208,0|0,0:0|0:0,0:0:0:0:
147,32,21210,1,8,0:0:0:0:
286,109,21448,5,0,0:0:0:0:
255,99,21567,1,0,0:0:0:0:
221,99,21686,2,0,P|189:110|164:131,1,67.5000025749208,4|0,0:0|0:0,0:0:0:0:
144,231,22162,2,0,P|119:253|85:264,1,67.5000025749208,8|0,0:0|0:0,0:0:0:0:
68,163,22638,1,0,0:0:0:0:
164,132,22876,1,0,0:0:0:0:
239,199,23114,2,0,P|245:233|238:266,1,67.5000025749208,8|0,0:0|0:0,0:0:0:0:
286,109,23591,5,4,0:0:0:0:
240,200,23829,1,0,0:0:0:0:
164,132,24067,2,0,P|162:99|170:64,1,67.5000025749208,8|0,0:0|0:0,0:0:0:0:
186,36,24424,1,0,0:0:0:0:
209,11,24543,1,8,0:0:0:0:
240,200,24781,1,0,0:0:0:0:
68,163,25019,1,8,0:0:0:0:
286,109,25282,1,4,0:0:0:0:
286,109,25758,5,0,0:0:0:0:
148,257,25996,1,8,0:0:0:0:
347,218,26234,1,0,0:0:0:0:
164,132,26472,1,8,0:0:0:0:
263,310,26710,1,8,0:0:0:0:
286,109,26948,1,8,0:0:0:0:
148,257,27186,1,4,0:0:0:0:
347,218,27662,5,0,0:0:0:0:
373,253,27782,1,0,0:0:0:0:
386,296,27901,1,0,0:0:0:0:
382,341,28020,1,0,0:0:0:0:
363,382,28139,1,8,0:0:0:0:
263,310,28377,1,0,0:0:0:0:
275,267,28496,1,0,0:0:0:0:
305,235,28615,2,0,L|346:218,1,45,8|0,0:0|0:0,0:0:0:0:
445,161,28853,2,0,L|404:144,2,45,8|0|8,0:0|0:0|0:0,0:0:0:0:
488,61,29329,6,0,L|385:18,1,112.5,4|0,0:0|0:0,0:0:0:0:
286,109,29805,2,0,L|183:66,1,112.5,8|0,0:0|0:0,0:0:0:0:
84,157,30281,2,0,L|-20:113,1,112.5
63,6,30757,1,8,0:0:0:0:
217,169,30995,6,0,P|210:114|182:66,1,112.5
84,157,31471,1,0,0:0:0:0:
274,287,31709,1,8,0:0:0:0:
142,278,31948,1,2,0:0:0:0:
142,278,32067,1,2,0:0:0:0:
142,278,32186,1,2,0:0:0:0:
217,169,32424,2,0,P|210:114|182:66,1,112.5,2|10,0:0|0:0,0:0:0:0:
63,6,32900,1,2,0:0:0:0:
285,109,33138,6,0,L|181:65,1,112.5,4|0,0:0|0:0,0:0:0:0:
38,234,33614,2,0,L|142:278,1,112.5,8|0,0:0|0:0,0:0:0:0:
212,192,34090,1,0,0:0:0:0:
202,372,34329,1,0,0:0:0:0:
320,230,34567,1,8,0:0:0:0:
142,278,34805,1,0,0:0:0:0:
285,109,35043,5,0,0:0:0:0:
212,192,35281,2,0,P|181:146|177:91,1,112.5,0|8,0:0|0:0,0:0:0:0:
250,4,35757,2,0,P|305:0|355:23,1,112.5
393,132,36233,2,0,P|368:181|322:213,1,112.5,0|8,0:0|0:0,0:0:0:0:
285,109,36709,1,0,0:0:0:0:
502,153,36948,6,0,P|499:98|470:51,1,112.5,4|0,0:0|0:0,0:0:0:0:
356,24,37424,1,8,0:0:0:0:
322,213,37662,2,0,P|368:181|393:132,1,112.5,0|0,0:0|0:0,0:0:0:0:
356,24,38138,1,0,0:0:0:0:
356,24,38376,1,8,0:0:0:0:
178,92,38614,2,0,P|229:114|285:109,2,112.5,0|0|0,0:0|0:0|0:0,0:0:0:0:
252,295,39329,6,0,P|276:245|322:213,1,112.5,8|0,0:0|0:0,0:0:0:0:
465,334,39805,2,0,P|410:339|359:316,1,112.5,0|0,0:0|0:0,0:0:0:0:
390,131,40281,2,0,P|422:176|429:232,1,112.5,8|0,0:0|0:0,0:0:0:0:
252,295,40757,6,0,P|200:272|145:277,1,112.5,4|0,0:0|0:0,0:0:0:0:
2,152,41233,2,0,P|53:174|109:171,1,112.5,8|0,0:0|0:0,0:0:0:0:
72,65,41709,1,0,0:0:0:0:
72,65,41948,1,0,0:0:0:0:
146,277,42186,2,0,P|208:223|215:137,1,168.75,8|0,0:0|0:0,0:0:0:0:
196,100,42662,5,4,0:0:0:0:
72,65,42900,1,0,0:0:0:0:
284,29,43138,1,8,0:0:0:0:
108,171,43376,2,0,P|53:174|2:152,1,112.5,4|0,0:0|0:0,0:0:0:0:
72,65,43852,1,0,0:0:0:0:
196,100,44090,1,8,0:0:0:0:
196,100,44209,1,8,0:0:0:0:
196,100,44328,1,8,0:0:0:0:
2,152,44567,5,4,0:0:0:0:
32,283,44805,1,0,0:0:0:0:
108,171,45043,1,8,0:0:0:0:
138,302,45281,1,0,0:0:0:0:
2,152,45519,2,0,P|26:100|70:69,1,112.5,0|0,0:0|0:0,0:0:0:0:
158,75,45995,1,8,0:0:0:0:
196,177,46233,1,0,0:0:0:0:
151,183,46352,1,0,0:0:0:0:
108,171,46471,5,0,0:0:0:0:
266,94,46709,1,0,0:0:0:0:
234,279,46948,1,8,0:0:0:0:
196,177,47186,1,2,0:0:0:0:
196,177,47305,1,2,0:0:0:0:
196,177,47424,1,2,0:0:0:0:
304,196,47662,2,0,P|336:242|339:301,2,112.5,2|10|2,0:0|0:0|0:0,0:0:0:0:
446,315,48376,6,0,P|393:320|338:295,1,112.5,4|0,0:0|0:0,0:0:0:0:
373,116,48852,1,8,0:0:0:0:
478,136,49090,1,0,0:0:0:0:
304,196,49328,1,0,0:0:0:0:
409,216,49567,1,0,0:0:0:0:
373,116,49805,1,8,0:0:0:0:
445,315,50043,6,0,P|390:319|339:296,1,112.5,0|0,0:0|0:0,0:0:0:0:
304,196,50519,1,0,0:0:0:0:
103,215,50757,2,0,P|153:191|208:196,1,112.5,8|0,0:0|0:0,0:0:0:0:
172,296,51233,2,0,P|121:319|66:315,2,112.5,0|0|8,0:0|0:0|0:0,0:0:0:0:
209,197,51948,1,0,0:0:0:0:
257,359,52186,5,4,0:0:0:0:
304,196,52424,2,0,P|360:191|410:217,1,112.5,0|8,0:0|0:0,0:0:0:0:
209,197,52900,2,0,P|153:192|103:216,1,112.5,4|0,0:0|0:0,0:0:0:0:
66,315,53376,1,0,0:0:0:0:
66,315,53495,1,0,0:0:0:0:
66,315,53614,1,8,0:0:0:0:
85,110,53852,6,0,P|109:160|104:216,1,112.5,0|4,0:0|0:0,0:0:0:0:
0,180,54328,1,8,0:0:0:0:
170,40,54567,1,8,0:0:0:0:
85,110,54805,1,0,0:0:0:0:
85,110,54924,1,0,0:0:0:0:
85,110,55043,1,8,0:0:0:0:
233,208,55281,1,0,0:0:0:0:
263,102,55519,1,8,0:0:0:0:
170,40,55757,1,8,0:0:0:0:
122,212,55995,5,4,0:0:0:0:
256,192,56233,12,0,57900,0:0:0:0:
