osu file format v14

[General]
AudioFilename: audio.mp3
AudioLeadIn: 0
PreviewTime: 28555
Countdown: 0
SampleSet: Soft
StackLeniency: 0.5
Mode: 0
LetterboxInBreaks: 0
WidescreenStoryboard: 1

[Editor]
Bookmarks: 29314
DistanceSpacing: 1
BeatDivisor: 8
GridSize: 4
TimelineZoom: 1.5

[Metadata]
Title:Kimi ni Todoke
TitleUnicode:きみにとどけ
Artist:Tomofumi Tanizawa
ArtistUnicode:タニザワトモフミ
Creator:Kyuukai
Version:Insane
Source:君に届け
Tags:sawako ponoyoshi shyotamaze yaleufeu from me to reaching you opening
BeatmapID:1234022
BeatmapSetID:580001

[Difficulty]
HPDrainRate:6.5
CircleSize:4.5
OverallDifficulty:8
ApproachRate:8
SliderMultiplier:2
SliderTickRate:1

[Events]
//Background and Video events
0,0,"kmt bg.png",0,0
//Break Periods
//Storyboard Layer 0 (Background)
//Storyboard Layer 1 (Fail)
//Storyboard Layer 2 (Pass)
//Storyboard Layer 3 (Foreground)
//Storyboard Sound Samples

[TimingPoints]
734,476.190476190476,4,2,2,5,1,0
3591,-125,4,2,2,20,0,0
4067,-125,4,2,2,35,0,0
4543,-125,4,2,1,40,0,0
5733,-125,4,2,2,40,0,0
8353,-125,4,2,1,40,0,0
9543,-125,4,2,2,40,0,0
12162,-125,4,2,1,40,0,0
13353,-125,4,2,2,40,0,0
15972,-125,4,2,1,40,0,0
19781,-111.111111111111,4,2,1,50,0,0
25282,476.190476190476,4,2,1,60,1,0
29329,476.190476190476,4,2,1,80,1,1
29329,-100,4,2,1,80,0,1
31948,-100,4,2,1,60,0,1
33138,-100,4,2,1,80,0,1
47186,-100,4,2,1,60,0,1
48376,-100,4,2,1,80,0,1
54090,-100,4,2,3,80,0,1
54328,-100,4,2,1,80,0,1
55995,-100,4,2,2,80,0,0
56233,-100,4,2,1,5,0,0

[Colours]
Combo1 : 224,219,18
Combo2 : 189,248,165
Combo3 : 0,128,192
Combo4 : 255,172,132

[HitObjects]
256,192,734,12,0,3114,0:0:0:0:
300,143,3591,6,0,P|417:137|457:96,1,160,0|0,0:0|0:0,0:0:0:0:
274,64,4543,6,0,P|226:106|240:201,1,160,4|8,0:0|0:0,0:0:0:0:
306,260,5257,1,8,0:0:0:0:
366,185,5495,2,0,P|335:157|288:141,2,80,0|2|8,0:0|0:0|0:0,0:0:0:0:
366,185,6210,1,0,0:0:0:0:
216,279,6448,6,0,P|263:340|340:344,1,160,8|8,0:0|0:0,0:0:0:0:
366,185,7162,1,0,0:0:0:0:
306,260,7400,1,0,0:0:0:0:
399,275,7638,1,8,0:0:0:0:
271,170,7876,1,8,0:0:0:0:
232,315,8114,1,0,0:0:0:0:
114,168,8353,6,0,B|192:137|195:199|287:164,1,160,4|8,0:0|0:0,0:0:0:0:
313,76,9067,2,0,P|274:68|236:76,1,80,0|0,0:0|0:0,0:0:0:0:
157,243,9543,1,2,0:0:0:0:
157,243,9781,2,0,P|195:251|234:243,1,80,8|0,0:0|0:0,0:0:0:0:
119,88,10257,6,0,P|113:129|115:178,1,80,0|0,0:0|0:0,0:0:0:0:
330,236,10733,2,0,P|335:196|335:156,1,80,8|0,0:0|0:0,0:0:0:0:
313,76,11210,1,0,0:0:0:0:
223,176,11448,1,8,0:0:0:0:
126,71,11686,2,0,P|166:65|206:69,1,80,8|8,0:0|0:0,0:0:0:0:
37,253,12162,6,0,P|48:179|40:88,1,160,4|8,0:0|0:0,0:0:0:0:
126,71,12876,1,0,0:0:0:0:
198,147,13114,2,0,P|195:190|203:233,1,80,0|2,0:0|0:0,0:0:0:0:
283,64,13591,2,0,P|239:60|204:67,1,80,0|8,0:0|0:0,0:0:0:0:
339,167,14067,5,0,0:0:0:0:
406,76,14305,1,0,0:0:0:0:
248,157,14543,1,8,0:0:0:0:
344,30,14781,1,0,0:0:0:0:
424,151,15019,2,0,P|427:197|420:238,1,80,0|8,0:0|0:0,0:0:0:0:
327,306,15495,1,8,0:0:0:0:
339,167,15733,1,0,0:0:0:0:
132,231,15972,6,0,P|211:236|291:233,1,160,4|8,0:0|0:0,0:0:0:0:
248,157,16686,1,0,0:0:0:0:
208,304,16924,1,0,0:0:0:0:
132,231,17162,1,8,0:0:0:0:
287,317,17400,2,0,P|271:352|231:380,1,80,0|8,0:0|0:0,0:0:0:0:
190,194,17876,5,0,0:0:0:0:
208,304,18114,1,0,0:0:0:0:
291,233,18353,1,8,0:0:0:0:
108,262,18591,1,0,0:0:0:0:
289,153,18829,2,0,P|294:184|286:248,1,80,0|8,0:0|0:0,0:0:0:0:
76,187,19305,2,8,P|71:156|79:92,1,80
276,74,19781,6,0,P|236:93|189:90,2,89.9999972534181,4|0|8,0:0|0:0|0:0,0:0:0:0:
219,5,20495,1,0,0:0:0:0:
121,51,20733,2,0,P|112:114|137:155,1,89.9999972534181,0|0,0:0|0:0,0:0:0:0:
191,92,21210,1,8,0:0:0:0:
257,209,21448,1,0,0:0:0:0:
257,209,21567,1,0,0:0:0:0:
257,209,21686,5,4,0:0:0:0:
144,212,21924,1,0,0:0:0:0:
124,340,22162,2,0,P|172:341|227:334,1,89.9999972534181,8|0,0:0|0:0,0:0:0:0:
257,209,22638,2,0,P|209:208|152:211,1,89.9999972534181,0|0,0:0|0:0,0:0:0:0:
76,272,23114,1,8,0:0:0:0:
124,340,23353,1,0,0:0:0:0:
156,133,23591,6,0,P|208:140|270:122,1,89.9999972534181,4|0,0:0|0:0,0:0:0:0:
401,40,24067,2,0,P|356:33|312:40,1,89.9999972534181,8|0,0:0|0:0,0:0:0:0:
355,159,24543,1,8,0:0:0:0:
209,48,24781,1,0,0:0:0:0:
401,40,25019,1,8,0:0:0:0:
221,165,25282,1,4,0:0:0:0:
421,115,25758,5,0,0:0:0:0:
300,36,25996,1,8,0:0:0:0:
394,225,26234,1,0,0:0:0:0:
490,42,26472,1,8,0:0:0:0:
288,162,26710,1,8,0:0:0:0:
505,240,26948,1,8,0:0:0:0:
394,18,27186,1,4,0:0:0:0:
282,228,27662,5,0,0:0:0:0:
239,243,27782,1,0,0:0:0:0:
195,248,27901,1,0,0:0:0:0:
150,242,28020,1,0,0:0:0:0:
108,226,28139,1,8,0:0:0:0:
217,156,28377,5,0,0:0:0:0:
233,198,28496,1,0,0:0:0:0:
239,243,28615,1,8,0:0:0:0:
234,287,28734,1,0,0:0:0:0:
212,332,28853,1,8,0:0:0:0:
172,360,28972,1,0,0:0:0:0:
124,368,29091,1,8,0:0:0:0:
239,243,29329,6,0,P|289:234|360:250,1,100,4|0,0:0|0:0,0:0:0:0:
432,286,29805,2,0,P|441:237|435:188,1,100,8|0,0:0|0:0,0:0:0:0:
238,349,30281,2,0,P|286:357|336:351,1,100,0|0,0:0|0:0,0:0:0:0:
434,187,30757,1,8,0:0:0:0:
337,240,30995,1,0,0:0:0:0:
439,380,31233,6,0,B|461:299|387:270|436:182,1,200,0|8,0:0|0:0,0:0:0:0:
310,82,31948,1,2,0:0:0:0:
355,100,32067,1,2,0:0:0:0:
404,95,32186,1,2,0:0:0:0:
255,8,32424,1,2,0:0:0:0:
226,47,32543,1,2,0:0:0:0:
220,96,32662,1,10,0:0:0:0:
279,186,32900,1,2,0:0:0:0:
130,137,33138,6,0,L|19:140,1,100,4|0,0:0|0:0,0:0:0:0:
226,47,33614,2,0,L|325:49,1,100,8|0,0:0|0:0,0:0:0:0:
435,163,34090,1,0,0:0:0:0:
287,118,34329,1,0,0:0:0:0:
352,256,34567,1,8,0:0:0:0:
403,53,34805,1,0,0:0:0:0:
119,100,35043,6,0,P|197:95|252:112,1,100
306,135,35519,1,8,0:0:0:0:
170,225,35757,1,0,0:0:0:0:
103,105,35995,1,0,0:0:0:0:
72,269,36233,1,0,0:0:0:0:
291,216,36471,2,0,P|241:209|192:216,1,100,8|0,0:0|0:0,0:0:0:0:
373,134,36948,6,0,P|402:181|359:311,1,200,4|8,0:0|0:0,0:0:0:0:
192,215,37662,2,0,P|241:208|291:216,1,100,0|0,0:0|0:0,0:0:0:0:
242,325,38138,1,0,0:0:0:0:
266,132,38376,1,8,0:0:0:0:
173,223,38614,1,0,0:0:0:0:
373,133,38852,6,0,P|422:128|472:132,1,100,0|0,0:0|0:0,0:0:0:0:
272,222,39329,2,0,P|223:227|173:223,1,100,8|0,0:0|0:0,0:0:0:0:
277,26,39805,2,0,P|272:76|278:126,1,100,0|0,0:0|0:0,0:0:0:0:
367,326,40281,2,0,P|372:276|367:227,1,100,8|0,0:0|0:0,0:0:0:0:
172,330,40757,6,0,B|255:292|285:366|390:317,1,200,4|8,0:0|0:0,0:0:0:0:
464,261,41471,1,0,0:0:0:0:
318,219,41709,1,0,0:0:0:0:
405,81,41948,1,0,0:0:0:0:
405,81,42186,2,0,P|415:130|409:180,1,100,8|0,0:0|0:0,0:0:0:0:
192,293,42662,5,4,0:0:0:0:
320,134,42900,1,0,0:0:0:0:
306,374,43138,5,8,0:0:0:0:
172,145,43376,1,4,0:0:0:0:
320,134,43852,5,0,0:0:0:0:
84,112,44090,1,8,0:0:0:0:
123,141,44209,1,8,0:0:0:0:
172,145,44328,1,8,0:0:0:0:
129,24,44567,5,4,0:0:0:0:
84,112,44805,1,0,0:0:0:0:
222,59,45043,1,8,0:0:0:0:
16,61,45281,1,0,0:0:0:0:
185,184,45519,1,0,0:0:0:0:
154,88,45757,1,0,0:0:0:0:
59,234,45995,2,0,P|58:293|81:333,1,100,8|0,0:0|0:0,0:0:0:0:
280,371,46471,6,0,P|243:283|148:266,1,200,0|8,0:0|0:0,0:0:0:0:
101,350,47186,1,2,0:0:0:0:
148,361,47305,1,2,0:0:0:0:
196,349,47424,1,2,0:0:0:0:
148,266,47662,1,2,0:0:0:0:
101,255,47781,1,2,0:0:0:0:
53,267,47900,1,10,0:0:0:0:
8,352,48138,1,2,0:0:0:0:
147,153,48376,6,0,L|258:147,1,100,4|0,0:0|0:0,0:0:0:0:
389,287,48852,2,0,L|289:281,1,100,8|0,0:0|0:0,0:0:0:0:
366,138,49328,1,0,0:0:0:0:
410,318,49567,1,0,0:0:0:0:
246,147,49805,1,8,0:0:0:0:
482,196,50043,1,0,0:0:0:0:
215,220,50281,6,0,P|171:121|273:73,1,200,0|8,0:0|0:0,0:0:0:0:
356,120,50995,1,0,0:0:0:0:
263,286,51233,2,0,P|210:302|161:281,1,100,0|0,0:0|0:0,0:0:0:0:
261,120,51709,2,0,P|310:105|367:129,1,100,8|0,0:0|0:0,0:0:0:0:
435,256,52186,5,4,0:0:0:0:
305,233,52424,1,0,0:0:0:0:
450,149,52662,1,8,0:0:0:0:
351,355,52900,2,0,P|288:361|210:345,1,100,4|0,0:0|0:0,0:0:0:0:
108,297,53376,1,0,0:0:0:0:
239,172,53614,1,8,0:0:0:0:
276,295,53852,1,0,0:0:0:0:
96,165,54090,5,4,0:0:0:0:
193,350,54328,1,8,0:0:0:0:
239,172,54567,1,8,0:0:0:0:
33,256,54805,1,0,0:0:0:0:
33,256,54924,1,0,0:0:0:0:
33,256,55043,5,8,0:0:0:0:
208,67,55281,1,0,0:0:0:0:
317,215,55519,1,8,0:0:0:0:
96,165,55757,1,8,0:0:0:0:
358,71,55995,1,4,0:0:0:0:
256,192,56233,12,0,57900,0:0:0:0:
