osu file format v14

[General]
AudioFilename: audio.mp3
AudioLeadIn: 0
PreviewTime: 28555
Countdown: 0
SampleSet: Soft
StackLeniency: 0.7
Mode: 0
LetterboxInBreaks: 0
WidescreenStoryboard: 0

[Editor]
Bookmarks: 44553
DistanceSpacing: 0.8
BeatDivisor: 8
GridSize: 4
TimelineZoom: 1.2

[Metadata]
Title:Kimi ni Todoke
TitleUnicode:きみにとどけ
Artist:Tomofumi Tanizawa
ArtistUnicode:タニザワトモフミ
Creator:Kyuukai
Version:Hard
Source:君に届け
Tags:sawako ponoyoshi shyotamaze yaleufeu from me to reaching you opening
BeatmapID:1228822
BeatmapSetID:580001

[Difficulty]
HPDrainRate:5
CircleSize:3.8
OverallDifficulty:6.5
ApproachRate:7
SliderMultiplier:1.6
SliderTickRate:1

[Events]
//Background and Video events
0,0,"kmt bg.png",0,0
//Break Periods
//Storyboard Layer 0 (Background)
//Storyboard Layer 1 (Fail)
//Storyboard Layer 2 (Pass)
//Storyboard Layer 3 (Foreground)
//Storyboard Sound Samples

[TimingPoints]
734,476.190476190476,4,2,2,5,1,0
3591,-133.333333333333,4,2,2,30,0,0
4543,-133.333333333333,4,2,1,40,0,0
5733,-133.333333333333,4,2,2,40,0,0
8353,-133.333333333333,4,2,1,40,0,0
9543,-133.333333333333,4,2,2,40,0,0
12162,-133.333333333333,4,2,1,40,0,0
13353,-133.333333333333,4,2,2,40,0,0
15972,-133.333333333333,4,2,1,40,0,0
17162,-133.333333333333,4,2,1,40,0,0
19781,-117.647058823529,4,2,1,50,0,0
25282,476.190476190476,4,2,1,60,1,0
29329,476.190476190476,4,2,1,80,1,1
31948,-100,4,2,1,60,0,1
33138,-100,4,2,1,80,0,1
47186,-100,4,2,1,60,0,1
48376,-100,4,2,1,80,0,1
54090,-100,4,2,3,80,0,1
54328,-100,4,2,1,80,0,1
55995,-100,4,2,2,80,0,0
56233,-100,4,2,1,5,0,0

[Colours]
Combo1 : 224,219,18
Combo2 : 189,248,165
Combo3 : 0,128,192
Combo4 : 255,172,132

[HitObjects]
256,192,734,12,0,3591,0:0:0:0:
94,96,4543,6,0,P|150:108|218:88,1,120.000004577637,4|8,0:0|0:0,0:0:0:0:
278,36,5257,1,8,0:0:0:0:
346,96,5495,2,0,P|350:132|334:180,2,60.0000022888184,0|2|8,0:0|0:0|0:0,0:0:0:0:
278,36,6210,1,0,0:0:0:0:
208,93,6448,2,0,P|199:144|224:220,1,120.000004577637,8|8,0:0|0:0,0:0:0:0:
285,268,7162,1,0,0:0:0:0:
370,232,7400,2,0,P|402:228|454:244,1,60.0000022888184,0|8,0:0|0:0,0:0:0:0:
462,316,7876,2,0,P|430:320|378:304,1,60.0000022888184,8|0,0:0|0:0,0:0:0:0:
370,232,8353,6,0,P|377:180|357:104,1,120.000004577637,4|8,0:0|0:0,0:0:0:0:
286,68,9067,1,0,0:0:0:0:
194,64,9305,2,0,L|198:140,1,60.0000022888184,0|2,0:0|0:0,0:0:0:0:
282,156,9781,2,0,L|285:96,1,60.0000022888184,8|0,0:0|0:0,0:0:0:0:
194,64,10257,2,0,P|106:52|58:76,1,120.000004577637,0|8,0:0|0:0,0:0:0:0:
42,144,10972,1,0,0:0:0:0:
104,216,11210,2,0,P|122:192|136:166,1,60.0000022888184,0|8,0:0|0:0,0:0:0:0:
101,80,11686,1,8,0:0:0:0:
42,144,11924,1,8,0:0:0:0:
136,166,12162,6,0,P|205:153|277:177,1,120.000004577637,4|8,0:0|0:0,0:0:0:0:
321,214,12876,1,0,0:0:0:0:
390,268,13114,2,0,L|382:348,2,60.0000022888184,0|2|0,0:0|0:0|0:0,0:0:0:0:
402,180,13829,1,8,0:0:0:0:
321,214,14067,2,0,P|252:227|180:203,1,120.000004577637,0|8,0:0|0:0,0:0:0:0:
129,165,14781,1,0,0:0:0:0:
70,232,15019,2,0,L|74:312,1,60.0000022888184,0|8,0:0|0:0,0:0:0:0:
158,256,15495,2,0,L|160:196,1,60.0000022888184,8|0,0:0|0:0,0:0:0:0:
242,156,15972,6,0,L|248:275,1,120.000004577637,4|8,0:0|0:0,0:0:0:0:
318,332,16686,1,0,0:0:0:0:
398,292,16924,2,0,L|470:300,1,60.0000022888184,0|8,0:0|0:0,0:0:0:0:
434,212,17400,2,0,L|374:205,1,60.0000022888184,0|8,0:0|0:0,0:0:0:0:
314,136,17876,2,0,P|282:192|298:256,1,120.000004577637,0|8,0:0|0:0,0:0:0:0:
318,332,18591,1,0,0:0:0:0:
233,306,18829,2,0,P|203:300|174:304,1,60.0000022888184,0|8,0:0|0:0,0:0:0:0:
85,290,19305,1,8,0:0:0:0:
74,200,19543,1,8,0:0:0:0:
175,182,19781,6,0,P|226:203|311:175,1,136.000002593994,4|8,0:0|0:0,0:0:0:0:
239,101,20495,1,0,0:0:0:0:
175,182,20733,2,0,P|170:215|181:256,1,68.0000012969971,0|0,0:0|0:0,0:0:0:0:
273,282,21210,2,0,P|278:249|267:208,1,68.0000012969971,8|0,0:0|0:0,0:0:0:0:
175,182,21686,6,0,P|124:203|39:175,1,136.000002593994,4|8,0:0|0:0,0:0:0:0:
111,101,22400,1,0,0:0:0:0:
175,182,22638,2,0,P|214:186|262:178,1,68.0000012969971,0|0,0:0|0:0,0:0:0:0:
279,87,23114,2,0,P|240:83|192:91,1,68.0000012969971,8|0,0:0|0:0,0:0:0:0:
175,182,23591,6,0,L|167:345,1,136.000002593994,4|8,0:0|0:0,0:0:0:0:
256,368,24305,1,0,0:0:0:0:
256,268,24543,1,8,0:0:0:0:
168,317,24781,1,0,0:0:0:0:
344,316,25019,1,8,0:0:0:0:
256,174,25282,1,4,0:0:0:0:
256,300,25758,5,0,0:0:0:0:
168,348,25996,1,8,0:0:0:0:
80,300,26234,1,0,0:0:0:0:
168,252,26472,1,8,0:0:0:0:
168,140,26710,1,8,0:0:0:0:
72,192,26948,1,8,0:0:0:0:
264,192,27186,1,4,0:0:0:0:
148,112,27662,6,0,L|155:44,4,40,0|0|0|0|8,0:0|0:0|0:0|0:0|0:0,0:0:0:0:
241,187,28377,2,0,L|234:255,4,40,0|0|8|0|8,0:0|0:0|0:0|0:0|0:0,0:0:0:0:
280,80,29091,1,8,0:0:0:0:
391,160,29329,6,0,L|375:330,1,160,4|8,0:0|0:0,0:0:0:0:
264,363,30043,1,0,0:0:0:0:
158,306,30281,2,0,L|163:226,1,80,0|0,0:0|0:0,0:0:0:0:
249,142,30757,2,0,L|254:221,1,80,8|0,0:0|0:0,0:0:0:0:
343,302,31233,6,0,L|353:142,1,160,0|8,0:0|0:0,0:0:0:0:
448,68,31948,2,0,L|519:91,2,40,2|2|2,0:0|0:0|0:0,0:0:0:0:
335,25,32424,2,0,L|264:48,2,40,2|2|10,0:0|0:0|0:0,0:0:0:0:
448,68,32900,1,2,0:0:0:0:
352,142,33138,6,0,L|251:174,1,80,4|0,0:0|0:0,0:0:0:0:
221,272,33614,2,0,L|144:248,1,80,8|0,0:0|0:0,0:0:0:0:
32,204,34090,1,0,0:0:0:0:
51,322,34329,1,0,0:0:0:0:
116,156,34567,1,8,0:0:0:0:
144,248,34805,1,0,0:0:0:0:
189,94,35043,6,0,P|263:78|350:99,1,160,0|8,0:0|0:0,0:0:0:0:
404,200,35757,1,0,0:0:0:0:
302,265,35995,2,0,P|264:274|225:265,1,80,0|0,0:0|0:0,0:0:0:0:
147,173,36471,2,0,P|185:164|224:173,1,80,8|0,0:0|0:0,0:0:0:0:
149,267,36948,6,0,P|75:231|68:123,1,160,4|8,0:0|0:0,0:0:0:0:
95,47,37662,1,0,0:0:0:0:
185,125,37900,2,0,P|223:134|262:125,1,80,0|0,0:0|0:0,0:0:0:0:
364,62,38376,1,8,0:0:0:0:
429,162,38614,1,0,0:0:0:0:
364,263,38852,6,0,P|276:239|188:285,1,160,0|8,0:0|0:0,0:0:0:0:
132,350,39567,1,0,0:0:0:0:
61,252,39805,2,0,P|52:200|67:150,1,80,0|0,0:0|0:0,0:0:0:0:
152,102,40281,2,0,P|161:140|156:180,1,80,8|0,0:0|0:0,0:0:0:0:
258,242,40757,6,0,P|249:204|288:78,1,160,4|8,0:0|0:0,0:0:0:0:
377,20,41471,1,0,0:0:0:0:
428,128,41709,2,0,P|456:156|515:181,2,80,0|0|8,0:0|0:0|0:0,0:0:0:0:
377,20,42424,1,0,0:0:0:0:
278,89,42662,6,0,P|224:93|176:81,1,80,4|0,0:0|0:0,0:0:0:0:
125,183,43138,1,8,0:0:0:0:
125,183,43376,2,0,P|164:178|204:183,1,80,4|0,0:0|0:0,0:0:0:0:
308,242,43852,1,0,0:0:0:0:
204,300,44090,1,8,0:0:0:0:
204,300,44209,1,8,0:0:0:0:
204,300,44328,1,8,0:0:0:0:
204,183,44567,6,0,L|200:103,1,80,4|0,0:0|0:0,0:0:0:0:
303,49,45043,2,0,L|299:128,1,80,8|0,0:0|0:0,0:0:0:0:
363,230,45519,1,0,0:0:0:0:
422,125,45757,1,0,0:0:0:0:
298,128,45995,2,0,L|218:130,1,80,8|0,0:0|0:0,0:0:0:0:
117,66,46471,6,0,P|98:138|142:223,1,160,0|8,0:0|0:0,0:0:0:0:
239,266,47186,2,0,L|254:333,2,40,2|2|2,0:0|0:0|0:0,0:0:0:0:
306,167,47662,2,2,L|291:100,2,40,2|2|10,0:0|0:0|0:0,0:0:0:0:
340,281,48138,1,2,0:0:0:0:
423,194,48376,6,0,L|385:34,1,160,4|8,0:0|0:0,0:0:0:0:
268,16,49090,1,0,0:0:0:0:
235,131,49328,2,0,L|256:224,2,80,0|0|8,0:0|0:0|0:0,0:0:0:0:
152,44,50043,1,0,0:0:0:0:
86,144,50281,6,0,P|66:203|95:303,1,160,0|8,0:0|0:0,0:0:0:0:
188,363,50995,1,0,0:0:0:0:
277,282,51233,2,0,P|316:277|356:282,1,80,0|0,0:0|0:0,0:0:0:0:
467,326,51709,2,0,P|472:286|467:246,1,80,8|0,0:0|0:0,0:0:0:0:
396,149,52186,6,0,P|314:165|229:144,1,160,4|8,0:0|0:0,0:0:0:0:
161,59,52900,2,0,P|238:43|316:59,1,160,4|0,0:0|0:0,0:0:0:0:
240,149,53614,2,0,P|184:155|143:139,1,80,8|0,0:0|0:0,0:0:0:0:
50,104,54090,1,4,0:0:0:0:
44,224,54328,6,0,L|40:329,1,80,8|8,0:0|0:0,0:0:0:0:
134,378,54805,1,0,0:0:0:0:
134,378,54924,1,0,0:0:0:0:
134,378,55043,1,8,0:0:0:0:
187,270,55281,1,0,0:0:0:0:
294,322,55519,1,8,0:0:0:0:
362,223,55757,1,8,0:0:0:0:
462,288,55995,5,4,0:0:0:0:
256,192,56233,12,0,57900,0:0:0:0:
