osu file format v14

[General]
AudioFilename: audio.mp3
AudioLeadIn: 0
PreviewTime: 68055
Countdown: 0
SampleSet: Soft
StackLeniency: 0.7
Mode: 0
LetterboxInBreaks: 0
WidescreenStoryboard: 0

[Editor]
Bookmarks: 97249,111027
DistanceSpacing: 1.1
BeatDivisor: 4
GridSize: 32
TimelineZoom: 1.5

[Metadata]
Title:Yamato Nadeshiko Hanakotoba
TitleUnicode:ヤマトナデシコ花言葉
Artist:Tomoe Tamiyasu
ArtistUnicode:民安ともえ
Creator:Lasse
Version:Hard
Source:ナデレボ!
Tags:jitaku studio j-studio eroge visual novel opening short version Naderebo! NADESHIKO REVOLUTION Naderevo! Asaiga
BeatmapID:1608888
BeatmapSetID:748589

[Difficulty]
HPDrainRate:4
CircleSize:3.6
OverallDifficulty:6
ApproachRate:7.4
SliderMultiplier:1.7
SliderTickRate:1

[Events]
//Background and Video events
0,0,"b.jpg",0,0
//Break Periods
//Storyboard Layer 0 (Background)
//Storyboard Layer 1 (Fail)
//Storyboard Layer 2 (Pass)
//Storyboard Layer 3 (Foreground)
//Storyboard Sound Samples

[TimingPoints]
1250,444.444444444444,4,2,1,70,1,0
11916,-100,4,2,1,5,0,0
12361,-100,4,2,1,10,0,0
12805,-100,4,2,1,20,0,0
13249,-100,4,2,1,30,0,0
13694,-100,4,2,1,40,0,0
14138,-100,4,2,1,50,0,0
14583,-100,4,2,1,60,0,0
15027,-100,4,2,2,5,0,0
15472,-100,4,2,1,70,0,0
20805,-200,4,2,1,40,0,0
22583,-100,4,2,1,70,0,0
28583,-100,4,2,2,70,0,0
28805,-83.3333333333333,4,2,1,70,0,0
29138,-100,4,2,1,30,0,0
29249,-100,4,2,1,70,0,0
29583,-100,4,2,1,30,0,0
29694,-100,4,2,1,70,0,0
33694,-100,4,2,2,70,0,0
33916,-100,4,2,1,70,0,0
36138,-100,4,2,2,70,0,0
36361,-100,4,2,1,70,0,0
37249,-100,4,2,1,61,0,0
37472,-100,4,2,1,64,0,0
37694,-100,4,2,1,67,0,0
37916,-100,4,2,1,70,0,0
38138,-100,4,2,1,73,0,0
38361,-100,4,2,1,76,0,0
39916,-100,4,2,1,50,0,0
40249,-111.111111111111,4,2,1,60,0,0
43249,-111.111111111111,4,2,1,60,0,0
43583,-111.111111111111,4,2,1,60,0,0
46472,-111.111111111111,4,2,1,50,0,0
47361,-100,4,2,1,65,0,0
47694,-100,4,2,1,65,0,0
49138,-100,4,2,1,65,0,0
49694,-100,4,2,1,65,0,0
50694,-100,4,2,1,65,0,0
51249,-100,4,2,1,65,0,0
52583,-100,4,2,2,65,0,0
52805,-100,4,2,1,75,0,0
54138,-100,4,2,1,60,0,0
54583,-125,4,2,1,55,0,0
61361,-125,4,2,1,60,0,0
61472,-125,4,2,1,65,0,0
61583,-125,4,2,1,70,0,0
61694,-125,4,2,1,60,0,0
61916,-100,4,2,1,70,0,0
63694,-90.9090909090909,4,2,1,65,0,0
65249,-90.9090909090909,4,2,1,58,0,0
65472,-90.9090909090909,4,2,1,60,0,0
65694,-90.9090909090909,4,2,1,62,0,0
65916,-90.9090909090909,4,2,1,64,0,0
66138,-90.9090909090909,4,2,1,66,0,0
66361,-90.9090909090909,4,2,1,68,0,0
66583,-90.9090909090909,4,2,1,70,0,0
66805,-90.9090909090909,4,2,1,72,0,0
67027,-90.9090909090909,4,2,1,74,0,0
67472,-90.9090909090909,4,2,1,70,0,0
68805,-83.3333333333333,4,2,1,80,0,1
75861,-83.3333333333333,4,2,1,80,0,0
75916,-83.3333333333333,4,2,1,80,0,1
83027,-111.111111111111,4,2,1,65,0,0
88583,-111.111111111111,4,2,2,65,0,0
88805,-111.111111111111,4,2,1,65,0,0
89916,-111.111111111111,4,2,2,65,0,0
90138,-111.111111111111,4,2,1,70,0,0
93694,-99.9999999999999,4,2,1,70,0,0
94138,-111.111111111111,4,2,1,71,0,0
94249,-111.111111111111,4,2,1,72,0,0
94361,-111.111111111111,4,2,1,73,0,0
94472,-111.111111111111,4,2,1,74,0,0
94583,-111.111111111111,4,2,1,75,0,0
94694,-111.111111111111,4,2,1,76,0,0
94805,-111.111111111111,4,2,1,77,0,0
94916,-111.111111111111,4,2,1,78,0,0
95027,-111.111111111111,4,2,1,79,0,0
95138,-111.111111111111,4,2,1,80,0,0
95249,-111.111111111111,4,2,1,74,0,0
97249,-100,4,2,2,50,0,0
97694,-100,4,2,1,70,0,0
103249,-100,4,2,2,70,0,0
103472,-83.3333333333333,4,2,1,70,0,0
103805,-100,4,2,1,30,0,0
103916,-100,4,2,1,70,0,0
104249,-100,4,2,1,30,0,0
104361,-100,4,2,1,70,0,0
108361,-100,4,2,2,70,0,0
108583,-100,4,2,1,70,0,0
110805,-100,4,2,2,70,0,0
111027,-100,4,2,1,70,0,0
111916,-100,4,2,1,61,0,0
112138,-100,4,2,1,64,0,0
112361,-100,4,2,1,67,0,0
112583,-100,4,2,1,70,0,0
112805,-100,4,2,1,73,0,0
113027,-100,4,2,1,76,0,0
113472,-100,4,2,1,66,0,0
113694,-100,4,2,1,68,0,0
113916,-100,4,2,1,70,0,0
114138,-100,4,2,1,71,0,0
114249,-100,4,2,1,72,0,0
114361,-100,4,2,1,73,0,0
114472,-100,4,2,1,74,0,0
114583,-100,4,2,1,75,0,0
114694,-100,4,2,1,76,0,0
114805,-100,4,2,1,77,0,0
114916,-100,4,2,1,78,0,0
115472,-100,4,2,1,70,0,0
115583,-100,4,2,1,50,0,0
115916,-100,4,2,1,45,0,0
116361,-100,4,2,1,40,0,0
116805,-100,4,2,1,35,0,0
117249,-100,4,2,1,30,0,0
117694,-100,4,2,1,25,0,0
118138,-100,4,2,1,20,0,0
118583,-100,4,2,1,15,0,0
119212,-100,4,2,1,40,0,0

[Colours]
Combo1 : 250,190,230
Combo2 : 130,200,230
Combo3 : 255,230,140
Combo4 : 170,245,170

[HitObjects]
256,192,11916,12,0,15027,1:0:0:0:
67,61,15472,5,10,0:0:0:0:
55,145,15694,1,10,0:0:0:0:
204,58,17249,5,10,0:0:0:0:
223,141,17472,1,10,0:0:0:0:
422,26,19027,5,10,0:0:0:0:
408,109,19249,1,10,0:0:0:0:
426,337,20805,6,0,L|429:276,1,42.5,0|0,3:0|3:0,0:0:0:0:
399,222,21249,1,0,3:0:0:0:
395,218,21361,2,0,P|353:209|325:210,1,63.75,0|0,3:0|3:0,0:0:0:0:
270,258,21916,1,0,3:0:0:0:
266,262,22027,1,0,3:0:0:0:
262,266,22138,2,0,L|232:261,3,21.25,0|0|0|0,3:0|3:0|3:0|3:0,0:0:0:0:
199,280,22583,6,0,L|195:160,1,85,12|8,0:3|0:0,0:0:0:0:
144,107,23027,2,0,P|118:92|54:102,1,85,10|8,0:3|0:0,0:0:0:0:
52,113,23361,1,8,0:3:0:0:
45,133,23472,2,0,B|36:223,2,85,2|8|8,0:3|0:0|0:3,0:0:0:0:
96,45,24138,1,8,0:0:0:0:
163,131,24361,6,0,P|205:141|246:133,1,85,10|8,0:3|0:0,0:0:0:0:
306,50,24805,2,0,P|277:81|263:121,1,85,10|8,0:3|0:0,0:0:0:0:
306,213,25249,2,0,P|293:172|265:140,1,85,2|8,0:3|0:0,0:0:0:0:
159,111,25694,2,0,L|144:72,2,42.5,10|8|8,0:3|0:0|0:0,0:0:0:0:
223,212,26138,6,0,P|263:222|305:212,1,85,12|8,0:3|0:0,0:0:0:0:
324,202,26472,1,8,0:3:0:0:
341,190,26583,2,0,P|384:175|437:188,1,85,10|8,0:3|0:0,0:0:0:0:
490,288,27027,2,0,P|447:303|394:290,2,85,2|8|8,0:0|0:0|0:3,0:0:0:0:
511,179,27694,1,8,0:0:0:0:
399,139,27916,6,0,L|301:127,1,85,14|8,0:3|0:0,0:0:0:0:
253,66,28361,1,10,0:0:0:0:
231,63,28472,1,8,0:0:0:0:
210,59,28583,1,8,0:3:0:0:
189,55,28694,1,8,0:3:0:0:
166,53,28805,6,0,B|120:74|120:74|109:177|109:177|146:209,1,203.999993774414,14|14,0:3|0:2,0:0:0:0:
146,209,29694,6,0,B|233:197,1,85,12|8,0:3|0:0,0:0:0:0:
323,244,30138,2,0,B|407:232,1,85,10|8,0:3|0:0,0:0:0:0:
428,231,30472,1,8,0:3:0:0:
448,227,30583,2,0,P|461:177|446:125,2,85,2|8|8,0:0|0:0|0:3,0:0:0:0:
413,325,31249,1,8,0:0:0:0:
324,243,31472,6,0,L|315:159,1,85,10|8,0:3|0:0,0:0:0:0:
229,248,31916,2,0,L|238:332,1,85,10|8,0:3|0:0,0:0:0:0:
136,265,32361,2,0,L|126:173,1,85,2|8,0:0|0:0,0:0:0:0:
42,118,32805,2,0,L|-5:111,2,42.5,8|8|8,0:3|0:0|0:0,0:0:0:0:
150,63,33249,6,0,B|211:56|211:56|247:80|247:80|311:73,1,170,12|8,0:3|0:3,0:0:0:0:
445,24,33916,2,0,B|389:48|389:48|392:161,1,170,14|8,0:3|0:3,0:0:0:0:
476,235,34583,5,8,0:0:0:0:
455,229,34694,1,8,0:0:0:0:
435,236,34805,2,0,P|393:246|348:235,1,85,14|0,0:3|0:0,0:0:0:0:
281,165,35249,2,0,L|272:101,3,42.5,8|8|8|8,0:0|0:0|0:0|0:0,0:0:0:0:
260,83,35694,6,0,P|151:57|81:101,1,170,12|8,0:3|0:3,0:0:0:0:
52,159,36361,1,8,0:0:0:0:
51,180,36472,1,8,0:0:0:0:
50,201,36583,1,8,0:0:0:0:
49,222,36694,1,8,0:0:0:0:
50,243,36805,6,0,P|128:272|207:246,1,170,14|10,0:3|0:3,0:0:0:0:
265,183,37472,1,10,0:3:0:0:
346,160,37694,1,10,0:3:0:0:
419,201,37916,1,10,0:3:0:0:
440,283,38138,1,10,0:3:0:0:
329,302,38361,5,10,0:0:0:0:
39,383,39916,5,8,0:0:0:0:
37,361,40027,1,8,0:0:0:0:
36,339,40138,1,8,0:0:0:0:
35,317,40249,6,0,B|52:166,1,114.749996498108,14|8,0:3|0:3,0:0:0:0:
70,113,40805,1,8,0:1:0:0:
70,113,41249,1,2,0:0:0:0:
70,113,41694,1,8,0:1:0:0:
157,84,41916,1,2,0:0:0:0:
175,79,42027,6,0,P|250:73|312:93,1,114.749996498108,10|8,0:3|0:3,0:0:0:0:
365,131,42583,1,8,0:1:0:0:
365,131,43027,1,2,0:0:0:0:
409,211,43249,2,0,L|398:291,1,76.4999976654053,8|8,0:1|0:1,0:0:0:0:
384,322,43583,2,0,P|362:322|335:316,1,38.2499988327027,10|0,0:3|0:0,0:0:0:0:
313,299,43805,6,0,P|256:282|173:285,1,114.749996498108,10|8,0:3|0:3,0:0:0:0:
126,334,44361,1,8,0:1:0:0:
126,334,44805,1,2,0:0:0:0:
126,334,45249,5,8,0:0:0:0:
106,333,45361,1,8,0:0:0:0:
86,333,45472,1,8,0:0:0:0:
66,333,45583,6,0,P|51:277|78:197,1,114.749996498108,14|10,0:3|0:3,0:0:0:0:
212,48,46472,1,2,0:0:0:0:
212,48,47249,1,8,0:0:0:0:
228,61,47361,6,0,P|246:107|239:191,1,127.5,14|10,0:3|0:3,0:0:0:0:
230,201,47805,1,2,0:0:0:0:
214,215,47916,2,0,L|168:218,2,42.5,10|2|2,0:0|0:0|0:0,0:0:0:0:
287,286,48361,1,10,0:3:0:0:
362,217,48583,1,2,0:0:0:0:
376,201,48694,2,0,L|381:151,1,42.5,2|8,0:0|0:0,0:0:0:0:
498,61,49138,6,0,B|457:57|457:57|419:77|419:77|370:69,1,127.5,10|10,0:3|0:3,0:0:0:0:
278,38,49694,1,10,0:0:0:0:
188,86,49916,1,2,0:0:0:0:
99,35,50138,1,10,0:3:0:0:
78,39,50249,2,0,P|55:77|69:174,1,127.5,2|8,0:0|0:0,0:0:0:0:
95,180,50694,2,0,P|104:194|112:234,1,42.5,10|0,0:3|0:0,0:0:0:0:
116,259,50916,6,0,P|166:294|235:281,1,127.5,14|2,0:3|0:0,0:0:0:0:
285,200,51472,2,0,L|291:90,1,85,8|0,0:0|0:0,0:0:0:0:
307,103,51805,1,10,0:3:0:0:
326,93,51916,2,0,P|366:81|423:83,1,85,10|8,0:3|0:0,0:0:0:0:
491,151,52361,5,8,0:0:0:0:
490,172,52472,1,8,0:0:0:0:
489,193,52583,1,8,0:3:0:0:
488,214,52694,1,8,0:3:0:0:
487,235,52805,6,0,P|456:264|415:272,1,85,10|10,0:2|0:0,0:0:0:0:
311,240,53249,2,0,P|280:210|239:202,1,85,10|10,0:0|0:0,0:0:0:0:
149,265,53694,1,10,0:0:0:0:
294,379,54138,1,10,0:3:0:0:
485,328,54583,6,0,L|495:176,1,136,14|2,0:3|0:0,0:0:0:0:
444,127,55249,2,0,P|405:113|349:115,1,68,10|8,0:3|0:0,0:0:0:0:
300,136,55694,2,0,P|266:132|234:119,1,68,2|8,0:0|0:3,0:0:0:0:
235,120,56361,6,0,P|161:88|101:102,1,136,10|2,0:3|0:0,0:0:0:0:
75,175,57027,1,8,0:3:0:0:
33,84,57249,1,8,0:0:0:0:
32,83,57694,2,0,P|42:51|68:30,1,68,10|2,0:3|0:0,0:0:0:0:
108,98,58138,6,0,P|169:120|233:92,1,136,10|2,0:3|0:0,0:0:0:0:
296,43,58805,2,0,P|326:29|362:33,1,68,10|8,0:3|0:0,0:0:0:0:
421,86,59249,2,0,L|434:168,1,68,2|8,0:0|0:3,0:0:0:0:
489,359,59916,5,12,0:3:0:0:
439,293,60138,1,8,0:0:0:0:
422,287,60249,1,8,0:0:0:0:
405,281,60361,2,0,L|320:263,2,68,10|10|8,0:0|0:3|0:0,0:0:0:0:
405,281,61249,6,0,L|406:335,4,34,8|8|8|8|8,0:0|0:0|0:0|0:0|0:3,0:0:0:0:
473,190,61916,6,0,P|480:146|465:99,1,85,14|8,0:3|0:0,0:0:0:0:
452,94,62249,1,8,0:0:0:0:
432,86,62361,2,0,L|374:72,2,42.5,8|8|8,0:0|0:0|0:3,0:0:0:0:
473,190,62805,6,0,P|457:231|420:264,1,85,14|8,0:3|0:0,0:0:0:0:
406,262,63138,1,8,0:0:0:0:
385,259,63250,2,0,L|327:242,2,42.5,8|8|8,0:0|0:0|0:3,0:0:0:0:
473,190,63694,6,0,L|476:83,1,93.5000028533936,14|8,0:0|0:3,0:0:0:0:
374,157,64138,2,0,L|377:50,1,93.5000028533936,14|0,0:2|0:0,0:0:0:0:
362,44,64472,1,8,0:3:0:0:
341,32,64583,2,0,P|282:23|226:39,1,93.5000028533936,14|8,0:0|0:3,0:0:0:0:
152,117,65027,6,0,P|198:111|243:120,1,93.5000028533936,10|10,0:0|0:3,0:0:0:0:
302,193,65472,1,10,0:3:0:0:
238,261,65694,2,0,P|191:266|146:257,1,93.5000028533936,10|10,0:2|0:3,0:0:0:0:
83,191,66138,1,10,0:3:0:0:
83,100,66361,1,10,0:3:0:0:
147,34,66583,1,10,0:2:0:0:
238,31,66805,1,10,0:3:0:0:
290,129,67027,5,14,0:3:0:0:
83,100,67472,1,10,0:3:0:0:
162,294,67916,1,8,0:3:0:0:
474,19,68805,6,0,P|465:73|462:146,1,101.999996887207,14|10,0:3|0:0,0:0:0:0:
487,239,69249,1,10,0:3:0:0:
371,197,69472,1,10,0:0:0:0:
350,182,69583,2,0,L|243:166,1,101.999996887207,10|8,0:3|0:3,0:0:0:0:
232,147,69916,1,10,0:0:0:0:
217,125,70027,1,2,0:0:0:0:
202,104,70138,2,0,P|152:90|99:102,1,101.999996887207,10|8,0:3|0:0,0:0:0:0:
0,185,70583,6,0,L|12:294,1,101.999996887207,10|10,0:3|0:0,0:0:0:0:
97,373,71027,1,10,0:3:0:0:
195,300,71249,1,10,0:0:0:0:
218,288,71361,2,0,P|267:286|312:311,1,101.999996887207,10|8,0:3|0:3,0:0:0:0:
326,332,71694,2,0,P|368:356|419:358,2,101.999996887207,10|10|10,0:0|0:3|0:0,0:0:0:0:
259,232,72361,5,14,0:3:0:0:
312,145,72583,1,10,0:0:0:0:
411,168,72805,1,10,0:3:0:0:
419,269,73027,1,10,0:0:0:0:
415,294,73138,2,0,P|375:325|325:331,1,101.999996887207,10|8,0:3|0:3,0:0:0:0:
300,323,73472,2,0,P|253:302|203:309,2,101.999996887207,10|10|10,0:0|0:3|0:0,0:0:0:0:
415,294,74138,6,0,L|419:173,1,101.999996887207,10|8,0:3|0:2,0:0:0:0:
419,166,74472,1,8,0:3:0:0:
416,140,74583,2,0,P|373:112|323:112,1,101.999996887207,10|8,0:3|0:0,0:0:0:0:
299,118,74916,2,0,P|248:117|206:90,1,101.999996887207,14|8,0:3|0:3,0:0:0:0:
185,75,75249,2,0,P|131:50|80:54,2,101.999996887207,8|8|8,0:0|0:0|0:0,0:0:0:0:
238,200,75916,6,0,P|292:225|343:221,1,101.999996887207,14|10,0:3|0:0,0:0:0:0:
433,152,76360,1,10,0:3:0:0:
482,264,76583,1,10,0:0:0:0:
483,289,76694,2,0,P|431:321|378:319,1,101.999996887207,10|8,0:3|0:3,0:0:0:0:
366,315,77027,2,0,P|314:303|263:313,2,101.999996887207,10|10|10,0:0|0:3|0:0,0:0:0:0:
482,264,77694,6,0,L|494:155,1,101.999996887207,10|10,0:3|0:0,0:0:0:0:
455,46,78138,1,10,0:3:0:0:
341,91,78360,1,10,0:0:0:0:
324,110,78472,2,0,P|279:119|208:96,1,101.999996887207,10|8,0:3|0:3,0:0:0:0:
205,89,78805,2,0,P|160:63|110:59,2,101.999996887207,10|10|10,0:0|0:3|0:0,0:0:0:0:
225,198,79472,6,0,L|213:303,1,101.999996887207,14|8,0:3|0:0,0:0:0:0:
116,374,79916,1,10,0:3:0:0:
22,291,80138,2,0,L|11:190,1,101.999996887207,8|0,0:0|0:0,0:0:0:0:
9,163,80472,1,8,0:3:0:0:
10,136,80583,2,0,P|55:116|105:122,1,101.999996887207,10|8,0:0|0:3,0:0:0:0:
199,201,81027,1,10,0:0:0:0:
309,105,81249,6,0,B|314:66|308:45|308:45|312:12|324:9,1,101.999996887207,14|8,0:3|0:0,0:0:0:0:
350,7,81583,1,8,0:3:0:0:
375,8,81694,1,8,0:3:0:0:
463,95,81916,2,0,B|458:134|464:155|464:155|460:188|448:191,1,101.999996887207,14|0,0:0|0:2,0:0:0:0:
333,236,82361,2,0,L|225:222,1,101.999996887207,8|8,0:0|0:0,0:0:0:0:
116,262,82805,1,8,0:0:0:0:
92,251,82916,1,8,0:0:0:0:
72,235,83027,6,0,P|67:190|88:134,1,76.4999976654053,14|8,0:3|0:3,0:0:0:0:
141,108,83472,2,0,L|231:107,1,76.4999976654053,8|8,0:0|0:3,0:0:0:0:
286,154,83916,2,0,L|444:151,1,152.999995330811,10|14,0:3|0:0,0:0:0:0:
438,151,84805,6,0,P|443:196|422:252,1,76.4999976654053,14|8,0:3|0:3,0:0:0:0:
384,292,85250,2,0,L|294:293,1,76.4999976654053,8|8,0:0|0:3,0:0:0:0:
220,322,85694,2,0,L|62:325,1,152.999995330811,10|14,0:3|0:0,0:0:0:0:
67,324,86583,6,0,P|59:283|68:241,1,76.4999976654053,12|10,0:3|0:3,0:0:0:0:
118,184,87027,2,0,P|125:146|120:109,1,76.4999976654053,10|10,0:3|0:3,0:0:0:0:
74,37,87472,2,0,L|-6:25,1,76.4999976654053,10|0,0:3|0:0,0:0:0:0:
42,172,87916,2,0,L|117:183,1,76.4999976654053,14|8,0:2|0:3,0:0:0:0:
236,113,88361,6,0,L|247:38,2,76.4999976654053,14|8|8,0:0|0:3|0:3,0:0:0:0:
226,250,89027,2,0,P|303:239|362:302,1,152.999995330811,14|8,0:3|0:3,0:0:0:0:
421,364,89694,2,0,L|466:369,2,38.2499988327027,8|8|8,0:0|0:0|0:3,0:0:0:0:
289,359,90138,5,12,0:3:0:0:
356,285,90361,2,0,L|360:192,2,76.4999976654053,10|10|10,0:0|0:3|0:0,0:0:0:0:
421,364,91027,1,2,0:0:0:0:
472,297,91249,1,10,0:0:0:0:
445,216,91472,1,10,0:3:0:0:
359,208,91694,2,0,L|268:196,1,76.4999976654053,10|8,0:0|0:3,0:0:0:0:
199,97,92138,6,0,L|123:86,2,76.4999976654053,10|10|10,0:0|0:3|0:0,0:0:0:0:
269,50,92805,1,2,0:0:0:0:
352,45,93027,1,8,0:0:0:0:
420,93,93249,1,10,0:3:0:0:
431,176,93472,1,10,0:0:0:0:
353,252,93694,6,0,P|342:284|346:344,1,85,14|8,0:3|0:3,0:0:0:0:
455,376,94138,1,8,0:2:0:0:
462,356,94249,1,8,0:2:0:0:
467,335,94360,1,8,0:2:0:0:
467,314,94471,1,8,0:2:0:0:
463,291,94583,6,0,P|455:260|457:234,3,38.2499988327027,8|8|8|8,0:2|0:2|0:2|0:2,0:0:0:0:
474,221,95027,2,0,P|480:199|474:170,2,38.2499988327027,8|8|10,0:2|0:2|0:3,0:0:0:0:
130,362,97249,5,2,0:3:0:0:
130,362,97472,1,2,0:3:0:0:
105,263,97694,6,0,L|105:174,1,85,10|8,0:3|0:0,0:0:0:0:
98,157,98028,1,8,0:3:0:0:
89,137,98139,2,0,P|43:123|0:136,2,85,2|8|8,0:3|0:0|0:3,0:0:0:0:
129,232,98805,1,8,0:0:0:0:
208,165,99028,6,0,L|216:72,1,85,10|8,0:3|0:0,0:0:0:0:
305,32,99472,2,0,L|308:117,1,85,10|8,0:3|0:0,0:0:0:0:
380,189,99916,2,0,L|408:109,1,85,2|8,0:3|0:0,0:0:0:0:
504,66,100361,2,0,L|508:23,2,42.5,10|8|8,0:3|0:0|0:0,0:0:0:0:
462,189,100805,6,0,P|422:199|380:189,1,85,12|8,0:3|0:0,0:0:0:0:
361,179,101139,1,8,0:3:0:0:
344,167,101250,2,0,P|301:152|248:165,1,85,10|8,0:3|0:0,0:0:0:0:
211,257,101694,2,0,P|251:272|293:267,2,85,2|8|8,0:0|0:0|0:3,0:0:0:0:
173,157,102361,1,8,0:0:0:0:
89,225,102583,6,0,L|79:312,1,85,14|8,0:3|0:0,0:0:0:0:
200,365,103028,1,10,0:0:0:0:
208,344,103139,1,8,0:0:0:0:
217,325,103250,1,8,0:3:0:0:
227,306,103361,1,8,0:3:0:0:
235,284,103472,6,0,B|226:234|226:234|129:196|129:196|89:224,1,203.999993774414,14|14,0:3|0:2,0:0:0:0:
89,225,104361,6,0,B|87:129,1,85,12|8,0:3|0:0,0:0:0:0:
153,51,104805,2,0,P|197:39|237:47,1,85,10|8,0:3|0:0,0:0:0:0:
250,60,105139,1,8,0:3:0:0:
266,72,105249,2,0,P|307:79|348:67,2,85,2|8|8,0:0|0:0|0:3,0:0:0:0:
166,22,105916,1,8,0:0:0:0:
100,118,106139,6,0,L|96:206,1,85,10|8,0:3|0:0,0:0:0:0:
188,271,106583,2,0,L|197:187,1,85,10|8,0:3|0:0,0:0:0:0:
300,127,107027,2,0,L|309:211,1,85,2|8,0:0|0:0,0:0:0:0:
397,262,107472,2,0,L|449:256,2,42.5,8|8|8,0:3|0:0|0:0,0:0:0:0:
296,326,107916,6,0,B|235:319|235:319|199:343|199:343|135:336,1,170,12|8,0:3|0:3,0:0:0:0:
0,362,108583,2,0,B|56:338|56:338|53:225,1,170,14|8,0:3|0:3,0:0:0:0:
94,126,109250,5,8,0:0:0:0:
115,120,109361,1,8,0:0:0:0:
135,127,109472,2,0,P|177:137|222:126,1,85,14|0,0:3|0:0,0:0:0:0:
314,71,109916,2,0,P|331:65|378:60,3,42.5,8|8|8|8,0:0|0:0|0:0|0:0,0:0:0:0:
393,79,110361,6,0,L|410:260,1,170,12|8,0:3|0:3,0:0:0:0:
344,322,111028,1,8,0:0:0:0:
323,318,111139,1,8,0:0:0:0:
302,315,111250,1,8,0:0:0:0:
281,312,111361,1,8,0:0:0:0:
261,307,111472,6,0,B|212:300|212:300|155:328|155:328|91:321,1,170,14|10,0:3|0:3,0:0:0:0:
34,267,112138,1,10,0:3:0:0:
15,186,112360,1,10,0:3:0:0:
49,109,112583,1,10,0:3:0:0:
121,67,112805,1,10,0:3:0:0:
192,147,113027,6,0,P|270:172|329:103,1,170,10|10,0:0|0:0,0:0:0:0:
362,38,113694,1,10,0:0:0:0:
446,28,113916,1,10,0:0:0:0:
486,102,114138,1,8,0:2:0:0:
485,123,114249,1,8,0:2:0:0:
484,144,114360,1,8,0:2:0:0:
483,165,114471,1,8,0:2:0:0:
482,186,114583,2,0,L|472:238,3,42.5,8|8|8|8,0:2|0:2|0:2|0:2,0:0:0:0:
256,352,115472,5,14,0:3:0:0:
256,192,115583,12,2,119212,1:3:0:0:
