osu file format v14

[General]
AudioFilename: audio.mp3
AudioLeadIn: 0
PreviewTime: 68055
Countdown: 0
SampleSet: Soft
StackLeniency: 0.3
Mode: 0
LetterboxInBreaks: 0
WidescreenStoryboard: 1

[Editor]
DistanceSpacing: 1.3
BeatDivisor: 4
GridSize: 32
TimelineZoom: 1.9

[Metadata]
Title:Yamato Nadeshiko Hanakotoba
TitleUnicode:ヤマトナデシコ花言葉
Artist:Tomoe Tamiyasu
ArtistUnicode:民安ともえ
Creator:Lasse
Version:Extra
Source:ナデレボ!
Tags:jitaku studio j-studio eroge visual novel opening short version Naderebo! NADESHIKO REVOLUTION Naderevo! Asaiga
BeatmapID:1612947
BeatmapSetID:748589

[Difficulty]
HPDrainRate:5
CircleSize:3
OverallDifficulty:8.4
ApproachRate:9.2
SliderMultiplier:3.2
SliderTickRate:1

[Events]
//Background and Video events
0,0,"b.jpg",0,0
//Break Periods
//Storyboard Layer 0 (Background)
//Storyboard Layer 1 (Fail)
//Storyboard Layer 2 (Pass)
//Storyboard Layer 3 (Foreground)
//Storyboard Sound Samples

[TimingPoints]
1250,444.444444444444,4,2,1,70,1,0
11916,-100,4,2,1,5,0,0
12361,-100,4,2,1,10,0,0
12805,-100,4,2,1,20,0,0
13249,-100,4,2,1,30,0,0
13694,-100,4,2,1,40,0,0
14138,-100,4,2,1,50,0,0
14583,-100,4,2,1,60,0,0
15027,-100,4,2,1,70,0,0
15249,-100,4,2,2,5,0,0
15472,-100,4,2,1,70,0,0
20805,-100,4,2,1,40,0,0
22583,-100,4,2,1,70,0,0
28583,-100,4,2,2,70,0,0
28805,-166.666666666667,4,2,1,70,0,0
29138,-166.666666666667,4,2,1,30,0,0
29249,-83.3333333333333,4,2,1,70,0,0
29583,-83.3333333333333,4,2,1,30,0,0
29694,-100,4,2,1,70,0,0
33694,-100,4,2,2,70,0,0
33916,-100,4,2,1,70,0,0
36138,-100,4,2,2,70,0,0
36361,-100,4,2,1,70,0,0
37249,-100,4,2,1,61,0,0
37472,-100,4,2,1,64,0,0
37694,-100,4,2,1,67,0,0
37916,-100,4,2,1,70,0,0
38138,-100,4,2,1,73,0,0
38361,-100,4,2,1,76,0,0
39916,-100,4,2,1,50,0,0
40249,-83.3333333333333,4,2,1,60,0,0
43249,-125,4,2,1,60,0,0
43583,-83.3333333333333,4,2,1,60,0,0
46472,-83.3333333333333,4,2,1,50,0,0
47361,-83.3333333333333,4,2,1,65,0,0
47694,-100,4,2,1,65,0,0
49138,-83.3333333333333,4,2,1,65,0,0
49694,-100,4,2,1,65,0,0
50694,-83.3333333333333,4,2,1,65,0,0
51249,-100,4,2,1,65,0,0
52583,-100,4,2,2,65,0,0
52805,-58.8235294117647,4,2,1,75,0,0
54138,-50,4,2,1,60,0,0
54583,-142.857142857143,4,2,1,55,0,0
61361,-142.857142857143,4,2,1,60,0,0
61472,-142.857142857143,4,2,1,65,0,0
61583,-142.857142857143,4,2,1,70,0,0
61694,-142.857142857143,4,2,1,60,0,0
61916,-83.3333333333334,4,2,1,70,0,0
63694,-100,4,2,1,65,0,0
65249,-100,4,2,1,58,0,0
65472,-100,4,2,1,60,0,0
65694,-100,4,2,1,62,0,0
65916,-100,4,2,1,64,0,0
66138,-100,4,2,1,66,0,0
66361,-100,4,2,1,68,0,0
66583,-100,4,2,1,70,0,0
66805,-100,4,2,1,72,0,0
67027,-100,4,2,1,74,0,0
67472,-100,4,2,1,70,0,0
68805,-76.9230769230769,4,2,1,80,0,1
75861,-76.9230769230769,4,2,1,80,0,0
75916,-76.9230769230769,4,2,1,80,0,1
83027,-125,4,2,1,65,0,0
88509,-125,4,2,2,5,0,0
88583,-125,4,2,2,65,0,0
88805,-125,4,2,1,65,0,0
89916,-125,4,2,2,65,0,0
90138,-111.111111111111,4,2,1,70,0,0
94138,-111.111111111111,4,2,1,71,0,0
94249,-111.111111111111,4,2,1,72,0,0
94361,-111.111111111111,4,2,1,73,0,0
94472,-111.111111111111,4,2,1,74,0,0
94583,-111.111111111111,4,2,1,75,0,0
94694,-111.111111111111,4,2,1,76,0,0
94805,-111.111111111111,4,2,1,77,0,0
94916,-111.111111111111,4,2,1,78,0,0
95027,-111.111111111111,4,2,1,79,0,0
95138,-111.111111111111,4,2,1,80,0,0
95249,-111.111111111111,4,2,1,74,0,0
97249,-100,4,2,2,50,0,0
97694,-100,4,2,1,70,0,0
103249,-100,4,2,2,70,0,0
103472,-166.666666666667,4,2,1,70,0,0
103805,-166.666666666667,4,2,1,30,0,0
103916,-83.3333333333333,4,2,1,70,0,0
104249,-83.3333333333333,4,2,1,30,0,0
104361,-100,4,2,1,70,0,0
108361,-100,4,2,2,70,0,0
108583,-100,4,2,1,70,0,0
110805,-100,4,2,2,70,0,0
111027,-100,4,2,1,70,0,0
111916,-100,4,2,1,61,0,0
112138,-100,4,2,1,64,0,0
112361,-100,4,2,1,67,0,0
112583,-100,4,2,1,70,0,0
112805,-100,4,2,1,73,0,0
113027,-100,4,2,1,76,0,0
113472,-100,4,2,1,66,0,0
113694,-100,4,2,1,68,0,0
113916,-100,4,2,1,70,0,0
114138,-100,4,2,1,71,0,0
114249,-100,4,2,1,72,0,0
114361,-100,4,2,1,73,0,0
114472,-100,4,2,1,74,0,0
114583,-100,4,2,1,75,0,0
114694,-100,4,2,1,76,0,0
114805,-100,4,2,1,77,0,0
114916,-100,4,2,1,78,0,0
115472,-100,4,2,1,70,0,0
115583,-100,4,2,1,50,0,0
115916,-100,4,2,1,45,0,0
116361,-100,4,2,1,40,0,0
116805,-100,4,2,1,35,0,0
117249,-100,4,2,1,30,0,0
117694,-100,4,2,1,25,0,0
118138,-100,4,2,1,20,0,0
118583,-100,4,2,1,15,0,0
119212,-100,4,2,1,40,0,0

[Colours]
Combo1 : 250,190,230
Combo2 : 130,200,230
Combo3 : 255,230,140
Combo4 : 170,245,170

[HitObjects]
256,192,11916,12,0,15249,1:0:0:0:
128,32,15472,5,10,0:0:0:0:
96,224,15694,1,10,0:0:0:0:
384,32,17249,5,10,0:0:0:0:
416,224,17472,1,10,0:0:0:0:
256,32,19027,5,10,0:0:0:0:
256,288,19249,1,10,0:0:0:0:
15,342,20805,5,0,3:0:0:0:
0,222,21027,1,0,3:0:0:0:
118,208,21249,1,0,3:0:0:0:
118,208,21361,1,0,3:0:0:0:
288,352,21694,1,0,3:0:0:0:
403,317,21916,1,0,3:0:0:0:
405,292,22027,1,0,3:0:0:0:
408,267,22138,1,0,3:0:0:0:
410,242,22249,1,0,3:0:0:0:
413,217,22361,1,0,3:0:0:0:
415,192,22472,1,0,3:0:0:0:
417,166,22583,6,0,P|349:130|275:153,1,160,12|8,0:3|0:0,0:0:0:0:
164,310,22916,1,8,0:3:0:0:
258,345,23027,2,0,P|324:304|341:228,1,160,10|8,0:3|0:0,0:0:0:0:
259,57,23361,1,8,0:3:0:0:
182,117,23472,2,0,P|184:194|241:247,2,160,2|8|8,0:3|0:0|0:3,0:0:0:0:
259,57,24027,1,8,0:3:0:0:
352,76,24138,2,0,P|376:109|382:161,1,80,8|0,0:0|0:0,0:0:0:0:
91,226,24361,6,0,P|112:151|181:116,1,160,10|8,0:3|0:0,0:0:0:0:
340,273,24694,1,8,0:3:0:0:
269,338,24805,2,0,P|193:357|128:314,1,160,10|8,0:3|0:0,0:0:0:0:
181,115,25138,1,8,0:3:0:0:
219,193,25249,2,0,P|220:232|209:271,1,80,2|8,0:3|0:3,0:0:0:0:
92,138,25472,2,0,P|90:98|101:59,1,80,8|0,0:0|0:0,0:0:0:0:
266,21,25694,1,10,0:3:0:0:
295,34,25805,1,8,0:0:0:0:
323,47,25916,2,0,P|354:52|412:47,1,80,8|0,0:0|0:0,0:0:0:0:
501,272,26138,6,0,P|511:201|438:129,1,160,12|8,0:3|0:0,0:0:0:0:
273,153,26472,1,8,0:3:0:0:
339,222,26583,2,0,P|378:232|417:224,1,80,10|8,0:3|0:3,0:0:0:0:
309,67,26805,2,0,P|270:57|231:65,1,80,8|8,0:0|0:3,0:0:0:0:
166,240,27027,6,0,P|129:301|27:311,2,160,2|8|8,0:0|0:0|0:3,0:0:0:0:
137,83,27583,1,8,0:3:0:0:
63,144,27694,2,0,P|59:183|70:222,1,80,8|0,0:0|0:0,0:0:0:0:
292,116,27916,6,0,P|265:86|231:65,1,80,14|0,0:3|0:0,0:0:0:0:
166,240,28138,2,0,P|192:269|226:290,1,80,8|0,0:0|0:0,0:0:0:0:
480,161,28361,5,10,0:0:0:0:
405,202,28472,1,8,0:0:0:0:
482,256,28583,1,8,0:3:0:0:
492,152,28694,1,8,0:3:0:0:
396,217,28805,6,0,B|383:266|403:306|403:306|385:282|349:267,1,143.999995605469,14|0,0:3|0:0,0:0:0:0:
362,273,29249,6,0,P|262:257|67:274,1,287.999991210938,14|0,0:2|0:0,0:0:0:0:
0,218,29694,6,0,P|68:254|142:231,1,160,12|8,0:3|0:0,0:0:0:0:
253,74,30027,1,8,0:3:0:0:
159,39,30138,2,0,P|93:80|76:156,1,160,10|8,0:3|0:0,0:0:0:0:
158,327,30472,1,8,0:3:0:0:
235,267,30583,2,0,P|233:190|176:137,2,160,2|8|8,0:0|0:0|0:3,0:0:0:0:
158,327,31138,1,8,0:3:0:0:
63,308,31249,2,0,P|39:272|37:234,1,80,8|0,0:0|0:0,0:0:0:0:
175,136,31472,6,0,B|262:119|245:172|336:153,1,160,10|8,0:3|0:0,0:0:0:0:
498,86,31805,1,8,0:3:0:0:
413,40,31916,2,0,P|345:78|329:153,1,160,10|8,0:3|0:0,0:0:0:0:
460,246,32249,1,8,0:3:0:0:
507,163,32361,2,0,P|508:123|497:85,1,80,2|8,0:0|0:3,0:0:0:0:
366,243,32583,2,0,P|374:281|395:315,1,80,8|0,0:0|0:0,0:0:0:0:
413,40,32805,5,8,0:3:0:0:
369,75,32916,1,8,0:0:0:0:
322,44,33027,1,8,0:0:0:0:
276,76,33138,1,8,0:2:0:0:
232,40,33249,6,0,P|204:33|141:30,1,80,12|0,0:3|0:0,0:0:0:0:
287,232,33472,2,0,P|315:239|378:242,1,80,8|0,0:0|0:0,0:0:0:0:
70,50,33694,5,8,0:3:0:0:
61,134,33805,1,8,0:3:0:0:
58,218,33916,2,0,B|73:303|139:349|139:349|186:283|171:197,1,320,14|8,0:3|0:3,0:0:0:0:
442,47,34583,5,8,0:0:0:0:
452,134,34694,1,8,0:0:0:0:
454,221,34805,2,0,B|465:285|431:335|431:335|381:301|367:236,1,240,14|0,0:3|0:0,0:0:0:0:
318,94,35249,5,8,0:0:0:0:
270,158,35361,1,8,0:0:0:0:
238,84,35472,1,8,0:0:0:0:
190,149,35583,1,8,0:0:0:0:
158,75,35694,2,0,B|103:40|43:52|43:52|56:112|111:148,1,240,12|0,0:3|0:0,0:0:0:0:
220,227,36138,2,0,P|234:261|236:328,1,80,8|0,0:3|0:0,0:0:0:0:
1,300,36361,5,8,0:0:0:0:
52,238,36472,1,8,0:0:0:0:
80,314,36583,1,8,0:0:0:0:
131,252,36694,1,8,0:0:0:0:
155,352,36805,5,14,0:3:0:0:
155,352,37249,5,10,0:3:0:0:
234,7,37472,1,10,0:3:0:0:
370,331,37694,1,10,0:3:0:0:
69,148,37916,1,10,0:3:0:0:
421,118,38138,1,10,0:3:0:0:
249,191,38361,5,10,0:0:0:0:
512,41,39916,1,8,0:0:0:0:
503,100,40027,1,8,0:0:0:0:
495,161,40138,1,8,0:0:0:0:
420,209,40249,6,0,P|294:196|144:83,1,287.999991210938,14|8,0:3|0:3,0:0:0:0:
163,108,40805,1,8,0:1:0:0:
420,209,41249,1,2,0:0:0:0:
163,108,41694,1,8,0:1:0:0:
22,206,41916,1,2,0:0:0:0:
82,261,42027,6,0,P|208:248|358:135,1,287.999991210938,10|8,0:3|0:3,0:0:0:0:
339,159,42583,1,8,0:1:0:0:
82,261,43027,1,2,0:0:0:0:
238,235,43249,2,0,P|293:202|338:158,1,128,8|8,0:1|0:1,0:0:0:0:
236,27,43583,6,0,P|225:90|230:145,1,95.9999970703126,10|0,0:3|0:0,0:0:0:0:
299,263,43805,2,0,P|330:128|236:26,1,287.999991210938,10|8,0:3|0:3,0:0:0:0:
236,26,44361,1,8,0:1:0:0:
299,263,44805,1,2,0:0:0:0:
236,26,45249,5,8,0:0:0:0:
170,21,45361,1,8,0:0:0:0:
106,19,45472,1,8,0:0:0:0:
49,87,45583,6,0,B|30:137|40:177|66:204|66:204|96:180|118:129,1,191.999994140625,14|0,0:3|0:0,0:0:0:0:
236,26,45916,2,0,P|299:27|341:45,1,95.9999970703126,10|0,0:3|0:0,0:0:0:0:
497,369,46472,5,2,0:0:0:0:
452,47,47249,1,8,0:0:0:0:
394,104,47361,6,0,B|321:144|238:96|286:75|194:35|125:81,1,287.999991210938,14|10,0:3|0:3,0:0:0:0:
76,145,47805,1,2,0:0:0:0:
78,225,47916,1,10,0:0:0:0:
130,287,48027,1,2,0:0:0:0:
209,301,48138,1,2,0:0:0:0:
394,104,48361,1,10,0:3:0:0:
150,52,48583,1,2,0:0:0:0:
125,80,48694,2,0,P|81:77|45:61,1,80,2|8,0:0|0:0,0:0:0:0:
351,30,49027,1,2,0:0:0:0:
394,104,49138,6,0,B|440:172|400:264|379:216|331:299|370:373,1,287.999991210938,10|10,0:3|0:3,0:0:0:0:
370,373,49694,1,10,0:0:0:0:
394,104,49916,1,2,0:0:0:0:
253,288,50138,1,10,0:3:0:0:
223,264,50249,2,0,P|184:257|137:268,1,80,2|0,0:0|0:0,0:0:0:0:
292,373,50472,2,0,P|331:380|378:369,1,80,2|8,0:0|0:0,0:0:0:0:
394,104,50694,6,0,P|383:167|388:222,1,95.9999970703126,10|0,0:3|0:0,0:0:0:0:
457,340,50916,2,0,P|487:204|393:103,1,287.999991210938,14|2,0:3|0:0,0:0:0:0:
281,182,51472,2,0,L|114:161,1,160,8|0,0:0|0:0,0:0:0:0:
13,50,51805,1,10,0:3:0:0:
48,38,51916,2,0,P|110:84|122:161,1,160,10|8,0:3|0:0,0:0:0:0:
15,339,52361,5,8,0:0:0:0:
35,285,52472,1,8,0:0:0:0:
89,245,52583,1,8,0:3:0:0:
168,242,52694,1,8,0:3:0:0:
236,300,52805,5,10,0:2:0:0:
493,17,53027,1,10,0:0:0:0:
236,300,53249,1,10,0:0:0:0:
493,17,53472,1,10,0:0:0:0:
236,300,53694,1,10,0:0:0:0:
493,17,54138,5,10,0:3:0:0:
435,335,54583,6,0,P|356:359|229:290,1,223.999993164063,14|2,0:3|0:0,0:0:0:0:
425,134,55249,2,0,P|457:179|466:233,1,111.999996582031,10|8,0:3|0:0,0:0:0:0:
229,204,55694,2,0,P|252:152|294:116,1,111.999996582031,2|8,0:0|0:3,0:0:0:0:
293,116,56361,6,0,P|230:203|121:215,1,223.999993164063,10|2,0:3|0:0,0:0:0:0:
62,49,57027,1,8,0:3:0:0:
293,116,57249,1,8,0:0:0:0:
293,116,57694,2,0,P|336:81|390:71,1,111.999996582031,10|2,0:3|0:0,0:0:0:0:
417,78,58027,1,2,0:0:0:0:
443,88,58138,6,0,P|488:157|457:298,1,223.999993164063,10|2,0:3|0:0,0:0:0:0:
253,154,58805,2,0,P|286:111|337:86,1,111.999996582031,10|8,0:3|0:0,0:0:0:0:
374,323,59249,2,0,P|319:315|273:285,1,111.999996582031,2|8,0:0|0:3,0:0:0:0:
101,15,59916,5,12,0:3:0:0:
40,154,60138,1,8,0:0:0:0:
57,182,60249,1,8,0:0:0:0:
77,208,60361,2,0,P|86:280|77:328,2,111.999996582031,10|10|8,0:0|0:3|0:0,0:0:0:0:
77,208,61249,5,8,0:0:0:0:
57,182,61361,1,8,0:0:0:0:
90,129,61472,1,8,0:0:0:0:
57,82,61583,1,8,0:0:0:0:
51,97,61694,1,8,0:3:0:0:
326,275,61916,6,0,P|373:277|419:264,1,95.9999970703126,14|0,0:3|0:0,0:0:0:0:
472,194,62138,1,8,0:0:0:0:
494,131,62249,1,8,0:0:0:0:
465,69,62361,1,8,0:0:0:0:
399,56,62472,1,8,0:0:0:0:
399,70,62583,1,8,0:3:0:0:
186,275,62805,6,0,P|138:277|92:264,1,95.9999970703126,14|0,0:3|0:0,0:0:0:0:
40,194,63027,1,8,0:0:0:0:
18,131,63138,1,8,0:0:0:0:
47,69,63249,1,8,0:0:0:0:
113,56,63361,1,8,0:0:0:0:
113,70,63472,1,8,0:3:0:0:
256,352,63694,6,0,L|256:192,1,160,14|8,0:0|0:3,0:0:0:0:
493,44,64138,2,0,P|417:69|338:66,1,160,14|0,0:2|0:0,0:0:0:0:
256,32,64472,1,8,0:3:0:0:
173,66,64583,2,0,P|94:69|19:44,1,160,14|8,0:0|0:3,0:0:0:0:
137,297,65027,2,0,L|155:219,1,80,10|0,0:0|0:0,0:0:0:0:
256,128,65249,5,10,0:3:0:0:
358,219,65472,1,10,0:3:0:0:
137,297,65694,1,10,0:2:0:0:
220,29,65916,1,10,0:3:0:0:
297,353,66138,1,10,0:3:0:0:
97,78,66361,1,10,0:3:0:0:
401,142,66583,1,10,0:2:0:0:
63,246,66805,1,10,0:3:0:0:
454,0,67027,5,14,0:3:0:0:
233,349,67472,1,10,0:3:0:0:
0,31,67916,1,8,0:3:0:0:
67,222,68805,6,0,P|117:233|167:219,1,103.999995239258,14|0,0:3|0:0,0:0:0:0:
162,49,69027,2,0,P|127:87|115:137,1,103.999995239258,10|0,0:0|0:0,0:0:0:0:
264,216,69249,2,0,P|249:167|212:132,1,103.999995239258,10|8,0:3|0:3,0:0:0:0:
57,275,69472,5,10,0:0:0:0:
128,327,69583,2,0,P|226:308|264:216,1,207.999990478516,10|8,0:3|0:3,0:0:0:0:
162,49,69916,5,10,0:0:0:0:
115,136,70027,1,2,0:0:0:0:
166,219,70138,2,0,P|218:233|265:214,1,103.999995239258,10|8,0:3|0:3,0:0:0:0:
162,49,70361,2,0,P|110:35|63:54,1,103.999995239258,8|0,0:0|0:0,0:0:0:0:
68,222,70583,6,0,P|120:236|167:217,1,103.999995239258,10|0,0:3|0:0,0:0:0:0:
256,45,70805,2,0,P|217:83|210:133,1,103.999995239258,10|0,0:0|0:0,0:0:0:0:
315,298,71027,2,0,P|301:245|261:214,1,103.999995239258,10|8,0:3|0:3,0:0:0:0:
68,222,71249,5,10,0:0:0:0:
115,299,71361,2,0,P|214:301|263:214,1,207.999990478516,10|8,0:3|0:3,0:0:0:0:
342,24,71694,6,0,P|390:6|439:20,1,103.999995239258,10|0,0:0|0:0,0:0:0:0:
263,214,71916,2,0,P|223:181|211:131,1,103.999995239258,10|8,0:3|0:3,0:0:0:0:
468,188,72138,2,0,P|459:238|422:273,1,103.999995239258,10|0,0:0|0:0,0:0:0:0:
247,96,72361,6,0,P|256:46|293:10,1,103.999995239258,14|0,0:3|0:0,0:0:0:0:
372,259,72583,2,0,P|324:277|275:263,1,103.999995239258,10|0,0:0|0:0,0:0:0:0:
452,69,72805,2,0,P|491:102|504:151,1,103.999995239258,10|8,0:3|0:3,0:0:0:0:
275,263,73027,5,10,0:0:0:0:
283,137,73138,2,0,P|351:62|452:69,1,207.999990478516,10|8,0:3|0:3,0:0:0:0:
275,263,73472,6,0,P|225:252|187:218,1,103.999995239258,10|0,0:0|0:0,0:0:0:0:
277,38,73694,2,0,P|293:86|283:137,1,103.999995239258,10|8,0:3|0:3,0:0:0:0:
81,148,73916,2,0,P|114:109|163:93,1,103.999995239258,10|0,0:0|0:0,0:0:0:0:
275,263,74138,6,0,B|293:317|336:347|336:347|365:304|360:250,1,207.999990478516,10|8,0:3|0:2,0:0:0:0:
277,38,74472,1,8,0:3:0:0:
242,127,74583,2,0,B|210:175|161:192|161:192|143:143|163:92,1,207.999990478516,10|8,0:3|0:0,0:0:0:0:
300,23,74916,2,0,P|399:29|392:154,1,207.999990478516,14|8,0:3|0:3,0:0:0:0:
296,204,75249,5,8,0:0:0:0:
242,127,75361,1,8,0:0:0:0:
203,212,75472,1,8,0:0:0:0:
150,136,75583,1,8,0:0:0:0:
111,221,75694,1,8,0:0:0:0:
58,144,75805,1,8,0:0:0:0:
19,229,75916,6,0,P|36:279|83:312,1,103.999995239258,14|0,0:3|0:0,0:0:0:0:
248,127,76138,2,0,P|196:116|144:140,1,103.999995239258,10|0,0:0|0:0,0:0:0:0:
221,376,76361,2,0,P|255:336|260:279,1,103.999995239258,10|8,0:3|0:3,0:0:0:0:
58,144,76583,5,10,0:0:0:0:
111,221,76694,2,0,P|216:212|248:123,1,207.999990478516,10|8,0:3|0:3,0:0:0:0:
380,9,77027,6,0,P|442:7|491:33,1,103.999995239258,10|0,0:0|0:0,0:0:0:0:
248,126,77249,2,0,P|215:73|213:17,1,103.999995239258,10|8,0:3|0:3,0:0:0:0:
417,181,77472,2,0,P|387:235|340:265,1,103.999995239258,10|0,0:0|0:0,0:0:0:0:
180,287,77694,6,0,P|127:255|100:206,1,103.999995239258,10|0,0:3|0:0,0:0:0:0:
248,126,77916,2,0,P|302:96|357:97,1,103.999995239258,10|0,0:0|0:0,0:0:0:0:
354,260,78138,2,0,P|352:321|324:369,1,103.999995239258,10|8,0:3|0:3,0:0:0:0:
104,220,78361,5,10,0:0:0:0:
184,179,78472,2,0,P|285:185|354:260,1,207.999990478516,10|8,0:3|0:3,0:0:0:0:
90,321,78805,6,0,P|87:274|110:208,1,103.999995239258,10|0,0:0|0:0,0:0:0:0:
278,139,79027,2,0,P|238:165|170:178,1,103.999995239258,10|8,0:3|0:3,0:0:0:0:
27,68,79249,2,0,P|69:88|114:141,1,103.999995239258,10|0,0:0|0:0,0:0:0:0:
218,303,79472,6,0,P|307:316|291:214,1,207.999990478516,14|8,0:3|0:0,0:0:0:0:
107,129,79805,1,8,0:3:0:0:
17,181,79916,2,0,P|4:219|7:289,1,103.999995239258,10|8,0:3|0:3,0:0:0:0:
137,365,80138,1,8,0:0:0:0:
218,302,80249,2,0,P|255:209|210:119,1,207.999990478516,8|8,0:3|0:3,0:0:0:0:
0,7,80583,5,10,0:0:0:0:
3,48,80694,1,8,0:3:0:0:
12,91,80805,2,0,P|61:100|125:85,1,103.999995239258,8|8,0:3|0:3,0:0:0:0:
292,29,81027,2,0,P|243:20|179:35,1,103.999995239258,10|0,0:0|0:0,0:0:0:0:
344,289,81249,6,0,P|384:194|373:91,1,207.999990478516,14|8,0:3|0:0,0:0:0:0:
292,29,81583,1,8,0:3:0:0:
190,29,81694,2,0,P|159:60|134:117,1,103.999995239258,8|8,0:3|0:3,0:0:0:0:
168,323,81916,5,14,0:0:0:0:
199,237,82027,2,0,P|287:183|396:192,1,207.999990478516,8|8,0:3|0:3,0:0:0:0:
509,313,82361,5,8,0:0:0:0:
483,213,82472,1,8,0:0:0:0:
412,283,82583,1,8,0:0:0:0:
388,188,82694,1,8,0:0:0:0:
316,258,82805,1,8,0:0:0:0:
293,161,82916,1,8,0:0:0:0:
221,231,83027,6,0,P|173:245|90:214,1,128,14|8,0:3|0:3,0:0:0:0:
222,24,83472,2,0,P|270:10|353:41,1,128,8|8,0:0|0:3,0:0:0:0:
146,332,83916,2,0,P|99:216|134:95,1,256,10|14,0:3|0:0,0:0:0:0:
134,95,84805,6,0,P|176:120|264:112,1,128,14|8,0:3|0:3,0:0:0:0:
452,53,85249,2,0,P|409:27|321:35,1,128,8|8,0:0|0:3,0:0:0:0:
424,290,85694,2,0,P|477:176|452:53,1,256,10|14,0:3|0:0,0:0:0:0:
451,52,86583,5,12,0:3:0:0:
424,290,86805,1,10,0:3:0:0:
328,32,87027,1,10,0:3:0:0:
299,285,87249,1,10,0:3:0:0:
451,52,87472,2,0,P|379:28|312:38,1,128,10|0,0:3|0:0,0:0:0:0:
299,285,87916,2,0,P|373:300|438:281,1,128,14|8,0:2|0:3,0:0:0:0:
245,140,88361,6,0,L|145:121,1,85.3333333333333,14|0,0:0|0:0,0:0:0:0:
152,131,88583,1,8,0:3:0:0:
144,140,88657,1,8,0:3:0:0:
139,151,88731,1,8,0:3:0:0:
137,163,88805,1,8,0:3:0:0:
299,285,89027,2,0,P|356:207|345:44,1,256,14|8,0:3|0:3,0:0:0:0:
61,3,89694,5,8,0:0:0:0:
47,59,89805,1,8,0:0:0:0:
103,42,89916,1,8,0:3:0:0:
0,330,90138,5,12,0:3:0:0:
0,330,90361,2,0,P|-7:283|7:241,1,71.9999978027344,10|0,0:0|0:0,0:0:0:0:
38,183,90583,2,0,P|75:153|118:144,1,71.9999978027344,10|8,0:3|0:3,0:0:0:0:
184,139,90805,2,0,P|228:156|257:189,1,71.9999978027344,10|8,0:0|0:3,0:0:0:0:
290,253,91027,6,0,P|289:288|301:322,1,71.9999978027344,2|0,0:0|0:0,0:0:0:0:
376,365,91249,2,0,P|411:365|445:353,1,71.9999978027344,10|0,0:0|0:0,0:0:0:0:
489,279,91472,2,0,P|489:243|477:209,1,71.9999978027344,10|8,0:3|0:3,0:0:0:0:
402,167,91694,2,0,P|366:166|332:178,1,71.9999978027344,10|0,0:0|0:0,0:0:0:0:
290,253,91916,5,8,0:3:0:0:
290,253,92138,2,0,P|245:269|201:264,1,71.9999978027344,10|0,0:0|0:0,0:0:0:0:
138,245,92361,2,0,P|101:214|83:174,1,71.9999978027344,10|8,0:3|0:3,0:0:0:0:
65,111,92583,2,0,P|72:64|99:28,1,71.9999978027344,10|8,0:0|0:3,0:0:0:0:
171,64,92805,6,0,P|197:87|213:119,1,71.9999978027344,2|0,0:0|0:0,0:0:0:0:
193,202,93027,2,0,P|169:228|137:244,1,71.9999978027344,8|0,0:0|0:0,0:0:0:0:
53,227,93249,2,0,P|26:203|10:171,1,71.9999978027344,10|8,0:3|0:3,0:0:0:0:
29,86,93472,2,0,P|52:59|84:43,1,71.9999978027344,10|0,0:0|0:0,0:0:0:0:
213,119,93694,6,0,L|236:305,1,143.999995605469,14|8,0:3|0:3,0:0:0:0:
483,333,94138,5,8,0:2:0:0:
397,370,94249,1,8,0:2:0:0:
389,282,94361,1,8,0:2:0:0:
475,315,94472,1,8,0:2:0:0:
481,229,94583,1,8,0:2:0:0:
395,263,94694,1,8,0:2:0:0:
388,177,94805,1,8,0:2:0:0:
474,211,94916,1,8,0:2:0:0:
480,125,95027,1,8,0:2:0:0:
394,159,95138,1,8,0:2:0:0:
404,67,95249,5,10,0:3:0:0:
65,50,97249,5,2,0:3:0:0:
65,50,97472,1,2,0:3:0:0:
65,50,97694,6,0,P|139:28|207:66,1,160,10|8,0:3|0:0,0:0:0:0:
278,241,98027,1,8,0:3:0:0:
182,258,98138,2,0,P|126:204|124:127,2,160,2|8|8,0:3|0:0|0:3,0:0:0:0:
278,241,98694,1,8,0:3:0:0:
327,159,98805,2,0,P|318:119|283:79,1,80,8|0,0:0|0:0,0:0:0:0:
182,258,99027,6,0,P|225:322|302:336,1,160,10|8,0:3|0:0,0:0:0:0:
472,244,99361,1,8,0:3:0:0:
405,176,99472,2,0,P|327:181|277:240,1,160,10|8,0:3|0:0,0:0:0:0:
389,376,99805,1,8,0:3:0:0:
466,320,99916,2,0,P|479:282|472:244,1,80,2|8,0:3|0:3,0:0:0:0:
271,265,100138,2,0,P|277:304|302:336,1,80,8|0,0:0|0:0,0:0:0:0:
405,176,100361,1,10,0:3:0:0:
382,152,100472,1,8,0:0:0:0:
354,135,100583,2,0,P|311:114|252:115,1,80,8|0,0:0|0:0,0:0:0:0:
195,246,100805,6,0,P|129:274|40:222,1,160,12|8,0:3|0:0,0:0:0:0:
20,56,101138,1,8,0:3:0:0:
103,101,101249,2,0,P|122:136|125:175,1,80,10|8,0:3|0:3,0:0:0:0:
0,297,101472,2,0,P|20:262|53:240,1,80,8|8,0:0|0:3,0:0:0:0:
195,246,101694,6,0,P|260:274|349:222,2,160,2|8|8,0:0|0:0|0:3,0:0:0:0:
103,101,102249,1,8,0:3:0:0:
169,30,102361,2,0,P|208:20|251:27,1,80,8|0,0:0|0:0,0:0:0:0:
107,178,102583,6,0,P|97:139|104:96,1,80,14|0,0:3|0:0,0:0:0:0:
246,25,102805,2,0,P|284:35|318:63,1,80,8|0,0:0|0:0,0:0:0:0:
401,258,103027,5,10,0:0:0:0:
464,201,103138,1,8,0:0:0:0:
378,165,103249,1,8,0:3:0:0:
385,266,103361,1,8,0:3:0:0:
476,189,103472,6,0,B|485:139|453:96|453:96|514:121,1,143.999995605469,14|0,0:3|0:0,0:0:0:0:
494,113,103916,6,0,P|396:115|208:69,1,287.999991210938,14|0,0:2|0:0,0:0:0:0:
122,109,104361,6,0,P|197:91|262:133,1,160,12|8,0:3|0:0,0:0:0:0:
329,313,104694,1,8,0:3:0:0:
229,323,104805,2,0,P|175:266|179:188,1,160,10|8,0:3|0:0,0:0:0:0:
302,44,105138,1,8,0:3:0:0:
361,122,105249,2,0,P|339:195|270:232,2,160,2|8|8,0:0|0:0|0:3,0:0:0:0:
302,44,105805,1,8,0:3:0:0:
206,38,105916,2,0,P|173:66|161:102,1,80,8|0,0:0|0:0,0:0:0:0:
269,232,106138,6,0,B|356:215|339:268|430:249,1,160,10|8,0:3|0:0,0:0:0:0:
512,141,106472,1,8,0:3:0:0:
478,51,106583,2,0,P|407:79|395:155,1,160,10|8,0:3|0:0,0:0:0:0:
436,290,106916,1,8,0:3:0:0:
501,219,107027,2,0,P|512:180|511:141,1,80,2|8,0:0|0:3,0:0:0:0:
411,51,107249,2,0,P|372:60|338:80,1,80,8|0,0:0|0:0,0:0:0:0:
253,190,107472,5,8,0:3:0:0:
219,144,107583,1,8,0:0:0:0:
166,162,107694,1,8,0:0:0:0:
129,119,107805,1,8,0:2:0:0:
78,143,107916,6,0,P|43:145|-2:136,1,80,12|0,0:3|0:0,0:0:0:0:
194,29,108138,2,0,P|229:27|274:36,1,80,8|0,0:0|0:0,0:0:0:0:
407,327,108361,5,8,0:3:0:0:
443,247,108472,1,8,0:3:0:0:
413,164,108583,2,0,B|397:77|330:30|330:30|282:97|298:185,1,320,14|8,0:3|0:3,0:0:0:0:
41,355,109249,5,8,0:0:0:0:
30,266,109361,1,8,0:0:0:0:
56,182,109472,2,0,B|61:117|107:77|107:77|147:123|143:190,1,240,14|0,0:3|0:0,0:0:0:0:
216,318,109916,5,8,0:0:0:0:
267,250,110027,1,8,0:0:0:0:
302,329,110138,1,8,0:0:0:0:
353,259,110249,1,8,0:0:0:0:
388,339,110361,2,0,B|440:376|500:367|500:367|490:307|438:269,1,240,12|0,0:3|0:0,0:0:0:0:
267,250,110805,2,0,P|231:237|182:202,1,80,8|0,0:3|0:0,0:0:0:0:
245,61,111027,5,8,0:0:0:0:
302,130,111138,1,8,0:0:0:0:
333,46,111249,1,8,0:0:0:0:
389,114,111361,1,8,0:0:0:0:
410,0,111472,5,14,0:3:0:0:
410,0,111916,5,10,0:3:0:0:
326,366,112138,1,10,0:3:0:0:
181,22,112361,1,10,0:3:0:0:
501,216,112583,1,10,0:3:0:0:
127,248,112805,1,10,0:3:0:0:
310,188,113027,5,10,0:0:0:0:
310,188,113472,5,10,0:0:0:0:
0,52,113694,1,10,0:0:0:0:
202,369,113916,1,10,0:0:0:0:
159,15,114138,5,8,0:2:0:0:
165,112,114249,1,8,0:2:0:0:
219,30,114361,1,8,0:2:0:0:
127,65,114472,1,8,0:2:0:0:
223,90,114583,1,8,0:2:0:0:
159,15,114694,1,8,0:2:0:0:
165,112,114805,1,8,0:2:0:0:
219,30,114916,1,8,0:2:0:0:
0,332,115472,5,14,0:3:0:0:
256,192,115583,12,2,119212,1:3:0:0:
