osu file format v14

[General]
AudioFilename: audio.mp3
AudioLeadIn: 0
PreviewTime: 68055
Countdown: 0
SampleSet: Soft
StackLeniency: 0.3
Mode: 0
LetterboxInBreaks: 0
WidescreenStoryboard: 0

[Editor]
Bookmarks: 15472,22583,40361,54583,61694,68805,75916,83027,90138,97249,115472
DistanceSpacing: 1
BeatDivisor: 4
GridSize: 32
TimelineZoom: 1.4

[Metadata]
Title:Yamato Nadeshiko Hanakotoba
TitleUnicode:ヤマトナデシコ花言葉
Artist:Tomoe Tamiyasu
ArtistUnicode:民安ともえ
Creator:Lasse
Version:Blossom
Source:ナデレボ!
Tags:jitaku studio j-studio eroge visual novel opening short version Naderebo! NADESHIKO REVOLUTION Naderevo! Asaiga
BeatmapID:1576975
BeatmapSetID:748589

[Difficulty]
HPDrainRate:5
CircleSize:4
OverallDifficulty:8.7
ApproachRate:9.3
SliderMultiplier:3.2
SliderTickRate:1

[Events]
//Background and Video events
0,0,"b.jpg",0,0
//Break Periods
//Storyboard Layer 0 (Background)
//Storyboard Layer 1 (Fail)
//Storyboard Layer 2 (Pass)
//Storyboard Layer 3 (Foreground)
//Storyboard Sound Samples

[TimingPoints]
1250,444.444444444444,4,2,1,70,1,0
11916,-100,4,2,1,5,0,0
12361,-100,4,2,1,10,0,0
12805,-100,4,2,1,20,0,0
13249,-100,4,2,1,30,0,0
13694,-100,4,2,1,40,0,0
14138,-100,4,2,1,50,0,0
14583,-100,4,2,1,60,0,0
15027,-100,4,2,1,70,0,0
15249,-100,4,2,2,5,0,0
15472,-100,4,2,1,70,0,0
20805,-100,4,2,1,40,0,0
22583,-100,4,2,1,70,0,0
28583,-100,4,2,2,70,0,0
28805,-166.666666666667,4,2,1,70,0,0
29138,-166.666666666667,4,2,1,30,0,0
29249,-83.3333333333333,4,2,1,70,0,0
29583,-83.3333333333333,4,2,1,30,0,0
29694,-100,4,2,1,70,0,0
33694,-100,4,2,2,70,0,0
33916,-100,4,2,1,70,0,0
36138,-100,4,2,2,70,0,0
36361,-100,4,2,1,70,0,0
37249,-100,4,2,1,61,0,0
37472,-100,4,2,1,64,0,0
37694,-100,4,2,1,67,0,0
37916,-100,4,2,1,70,0,0
38138,-100,4,2,1,73,0,0
38361,-100,4,2,1,76,0,0
39916,-100,4,2,1,50,0,0
40249,-83.3333333333333,4,2,1,60,0,0
43249,-125,4,2,1,60,0,0
43583,-83.3333333333333,4,2,1,60,0,0
46472,-83.3333333333333,4,2,1,50,0,0
47361,-83.3333333333333,4,2,1,65,0,0
47694,-100,4,2,1,65,0,0
49138,-83.3333333333333,4,2,1,65,0,0
49694,-100,4,2,1,65,0,0
50694,-83.3333333333333,4,2,1,65,0,0
51249,-100,4,2,1,65,0,0
52583,-100,4,2,2,65,0,0
52805,-50,4,2,1,75,0,0
54138,-50,4,2,1,60,0,0
54583,-142.857142857143,4,2,1,55,0,0
61361,-142.857142857143,4,2,1,60,0,0
61472,-142.857142857143,4,2,1,65,0,0
61583,-142.857142857143,4,2,1,70,0,0
61694,-142.857142857143,4,2,1,60,0,0
61916,-83.3333333333334,4,2,1,70,0,0
63694,-100,4,2,1,65,0,0
65249,-100,4,2,1,58,0,0
65472,-100,4,2,1,60,0,0
65694,-100,4,2,1,62,0,0
65916,-100,4,2,1,64,0,0
66138,-100,4,2,1,66,0,0
66361,-100,4,2,1,68,0,0
66583,-100,4,2,1,70,0,0
66805,-100,4,2,1,72,0,0
67027,-100,4,2,1,74,0,0
67472,-100,4,2,1,70,0,0
68805,-76.9230769230769,4,2,1,80,0,1
75861,-76.9230769230769,4,2,1,80,0,0
75916,-76.9230769230769,4,2,1,80,0,1
83027,-125,4,2,1,65,0,0
88509,-125,4,2,2,5,0,0
88583,-125,4,2,2,65,0,0
88805,-125,4,2,1,65,0,0
89916,-125,4,2,2,65,0,0
90138,-111.111111111111,4,2,1,70,0,0
94138,-111.111111111111,4,2,1,71,0,0
94249,-111.111111111111,4,2,1,72,0,0
94361,-111.111111111111,4,2,1,73,0,0
94472,-111.111111111111,4,2,1,74,0,0
94583,-111.111111111111,4,2,1,75,0,0
94694,-111.111111111111,4,2,1,76,0,0
94805,-111.111111111111,4,2,1,77,0,0
94916,-111.111111111111,4,2,1,78,0,0
95027,-111.111111111111,4,2,1,79,0,0
95138,-111.111111111111,4,2,1,80,0,0
95249,-111.111111111111,4,2,1,74,0,0
97249,-100,4,2,2,50,0,0
97694,-100,4,2,1,70,0,0
103249,-100,4,2,2,70,0,0
103472,-166.666666666667,4,2,1,70,0,0
103805,-166.666666666667,4,2,1,30,0,0
103916,-83.3333333333333,4,2,1,70,0,0
104249,-83.3333333333333,4,2,1,30,0,0
104361,-100,4,2,1,70,0,0
108361,-100,4,2,2,70,0,0
108583,-100,4,2,1,70,0,0
110805,-100,4,2,2,70,0,0
111027,-100,4,2,1,70,0,0
111916,-100,4,2,1,61,0,0
112138,-100,4,2,1,64,0,0
112361,-100,4,2,1,67,0,0
112583,-100,4,2,1,70,0,0
112805,-100,4,2,1,73,0,0
113027,-100,4,2,1,76,0,0
113472,-100,4,2,1,66,0,0
113694,-100,4,2,1,68,0,0
113916,-100,4,2,1,70,0,0
114138,-100,4,2,1,71,0,0
114249,-100,4,2,1,72,0,0
114361,-100,4,2,1,73,0,0
114472,-100,4,2,1,74,0,0
114583,-100,4,2,1,75,0,0
114694,-100,4,2,1,76,0,0
114805,-100,4,2,1,77,0,0
114916,-100,4,2,1,78,0,0
115472,-100,4,2,1,70,0,0
115583,-100,4,2,1,50,0,0
115916,-100,4,2,1,45,0,0
116361,-100,4,2,1,40,0,0
116805,-100,4,2,1,35,0,0
117249,-100,4,2,1,30,0,0
117694,-100,4,2,1,25,0,0
118138,-100,4,2,1,20,0,0
118583,-100,4,2,1,15,0,0
119212,-100,4,2,1,40,0,0

[Colours]
Combo1 : 250,190,230
Combo2 : 130,200,230
Combo3 : 255,230,140
Combo4 : 170,245,170

[HitObjects]
256,192,11916,12,0,15249,1:0:0:0:
68,39,15472,5,10,0:0:0:0:
121,337,15694,1,10,0:0:0:0:
444,39,17249,5,10,0:0:0:0:
391,337,17472,1,10,0:0:0:0:
60,309,19027,5,10,0:0:0:0:
452,75,19249,1,10,0:0:0:0:
60,75,20805,5,0,3:0:0:0:
159,125,21027,1,0,3:0:0:0:
256,72,21249,1,0,3:0:0:0:
256,72,21361,1,0,3:0:0:0:
390,331,21694,1,0,3:0:0:0:
474,250,21916,1,0,3:0:0:0:
480,224,22027,1,0,3:0:0:0:
483,197,22138,1,0,3:0:0:0:
483,171,22249,1,0,3:0:0:0:
478,144,22361,1,0,3:0:0:0:
469,119,22472,1,0,3:0:0:0:
457,96,22583,6,0,P|369:69|291:98,1,160,12|8,0:3|0:0,0:0:0:0:
220,239,22916,1,8,0:3:0:0:
188,157,23027,2,0,B|226:142|274:158|254:171|295:182|344:169,1,160,10|8,0:3|0:0,0:0:0:0:
408,38,23361,1,8,0:3:0:0:
306,87,23472,2,0,P|287:182|330:226,2,160,2|8|8,0:3|0:0|0:3,0:0:0:0:
412,42,24027,1,8,0:3:0:0:
494,92,24138,2,0,P|504:131|495:181,1,80,8|0,0:0|0:0,0:0:0:0:
396,242,24361,6,0,P|319:224|184:222,1,160,10|8,0:3|0:0,0:0:0:0:
403,271,24694,1,8,0:3:0:0:
484,205,24805,2,0,P|496:172|469:42,1,160,10|8,0:3|0:0,0:0:0:0:
379,13,25138,1,8,0:3:0:0:
285,53,25249,2,0,P|242:49|200:27,1,80,2|8,0:3|0:3,0:0:0:0:
395,128,25472,2,0,P|438:132|480:154,1,80,8|0,0:0|0:0,0:0:0:0:
279,190,25694,1,10,0:3:0:0:
237,177,25805,1,8,0:0:0:0:
194,184,25916,2,0,P|160:199|105:190,1,80,8|0,0:0|0:0,0:0:0:0:
26,15,26138,6,0,P|34:94|36:174,1,160,12|8,0:3|0:0,0:0:0:0:
0,15,26472,1,8,0:3:0:0:
83,88,26583,2,0,P|125:88|194:65,1,80,10|8,0:3|0:3,0:0:0:0:
317,13,26805,2,0,P|275:13|206:36,1,80,8|8,0:0|0:3,0:0:0:0:
378,208,27027,2,0,P|387:128|400:49,2,160,2|8|8,0:0|0:0|0:3,0:0:0:0:
438,329,27583,1,8,0:3:0:0:
500,238,27694,2,0,P|497:196|487:152,1,80,8|0,0:0|0:0,0:0:0:0:
296,117,27916,6,0,P|322:117|387:112,1,80,14|0,0:3|0:0,0:0:0:0:
212,39,28138,2,0,P|186:39|121:44,1,80,8|0,0:0|0:0,0:0:0:0:
9,163,28361,5,10,0:0:0:0:
51,85,28472,1,8,0:0:0:0:
97,158,28583,1,8,0:3:0:0:
0,184,28694,1,8,0:3:0:0:
36,76,28805,6,0,B|66:11|66:11|132:42,1,143.999995605469,14|0,0:3|0:0,0:0:0:0:
132,42,29249,2,0,P|232:58|424:30,1,287.999991210938,14|0,0:2|0:0,0:0:0:0:
178,26,29694,6,0,P|311:60|348:96,1,160,12|8,0:3|0:0,0:0:0:0:
414,222,30027,1,8,0:3:0:0:
444,140,30138,2,0,B|406:125|358:141|378:154|333:169|288:152,1,160,10|8,0:3|0:0,0:0:0:0:
164,41,30472,1,8,0:3:0:0:
269,77,30583,2,0,P|284:173|243:219,2,160,2|8|8,0:0|0:0|0:3,0:0:0:0:
160,45,31138,1,8,0:3:0:0:
77,100,31249,2,0,P|62:126|66:184,1,80,8|0,0:0|0:0,0:0:0:0:
138,314,31472,6,0,P|150:235|153:155,1,160,10|8,0:3|0:0,0:0:0:0:
111,294,31805,1,8,0:3:0:0:
203,352,31916,2,0,P|268:355|413:318,1,160,10|8,0:3|0:0,0:0:0:0:
408,184,32249,1,8,0:3:0:0:
320,123,32361,2,0,P|305:159|303:200,1,80,2|8,0:0|0:3,0:0:0:0:
496,245,32583,2,0,P|511:209|512:167,1,80,8|0,0:0|0:0,0:0:0:0:
411,38,32805,5,8,0:3:0:0:
356,25,32916,1,8,0:0:0:0:
304,47,33027,1,8,0:0:0:0:
249,36,33138,1,8,0:2:0:0:
197,55,33249,6,0,L|107:39,1,80,12|0,0:3|0:0,0:0:0:0:
303,199,33472,2,0,L|393:215,1,80,8|0,0:0|0:0,0:0:0:0:
134,273,33694,5,8,0:3:0:0:
180,198,33805,1,8,0:3:0:0:
233,268,33916,2,0,P|301:287|275:102,1,320,14|8,0:3|0:3,0:0:0:0:
10,21,34583,5,8,0:0:0:0:
69,96,34694,1,8,0:0:0:0:
145,37,34805,2,0,P|249:16|408:43,1,240,14|0,0:3|0:0,0:0:0:0:
490,87,35249,5,8,0:0:0:0:
402,143,35361,1,8,0:0:0:0:
489,215,35472,1,8,0:0:0:0:
389,264,35583,1,8,0:0:0:0:
470,325,35694,2,0,P|485:247|488:68,1,240,12|0,0:3|0:0,0:0:0:0:
380,33,36138,2,0,P|335:27|287:9,1,80,8|0,0:3|0:0,0:0:0:0:
138,34,36361,5,8,0:0:0:0:
267,85,36472,1,8,0:0:0:0:
132,142,36583,1,8,0:0:0:0:
257,186,36694,1,8,0:0:0:0:
128,271,36805,5,14,0:3:0:0:
128,271,37249,5,10,0:3:0:0:
259,25,37472,1,10,0:3:0:0:
410,314,37694,1,10,0:3:0:0:
75,119,37916,1,10,0:3:0:0:
472,37,38138,1,10,0:3:0:0:
113,365,38361,5,10,0:0:0:0:
472,37,39916,1,8,0:0:0:0:
482,116,40027,1,8,0:0:0:0:
492,195,40138,1,8,0:0:0:0:
426,269,40249,6,0,P|328:281|167:171,1,287.999991210938,14|8,0:3|0:3,0:0:0:0:
174,183,40805,1,8,0:1:0:0:
426,269,41249,1,2,0:0:0:0:
174,183,41694,1,8,0:1:0:0:
0,287,41916,1,2,0:0:0:0:
37,355,42027,6,0,P|135:367|296:257,1,287.999991210938,10|8,0:3|0:3,0:0:0:0:
288,269,42583,1,8,0:1:0:0:
50,356,43027,1,2,0:0:0:0:
194,352,43249,2,0,P|247:318|287:269,1,128,8|8,0:1|0:1,0:0:0:0:
235,172,43583,6,0,P|227:116|232:59,1,95.9999970703126,10|0,0:3|0:0,0:0:0:0:
257,6,43805,2,0,P|265:62|213:286,1,287.999991210938,10|8,0:3|0:3,0:0:0:0:
214,284,44361,1,8,0:1:0:0:
257,6,44805,1,2,0:0:0:0:
214,284,45249,5,8,0:0:0:0:
136,273,45361,1,8,0:0:0:0:
60,261,45472,1,8,0:0:0:0:
20,181,45583,6,0,B|8:41|8:41|55:-10,1,191.999994140625,14|0,0:3|0:0,0:0:0:0:
138,68,45916,2,0,B|176:84|176:84|229:71,1,95.9999970703126,10|0,0:3|0:0,0:0:0:0:
512,0,46472,5,2,0:0:0:0:
0,384,47249,1,8,0:0:0:0:
41,310,47361,6,0,B|104:269|195:315|151:334|236:373|313:327,1,287.999991210938,14|10,0:3|0:3,0:0:0:0:
364,267,47805,1,2,0:0:0:0:
315,203,47916,1,10,0:0:0:0:
331,124,48027,1,2,0:0:0:0:
406,99,48138,1,2,0:0:0:0:
449,258,48361,1,10,0:3:0:0:
315,203,48583,1,2,0:0:0:0:
243,238,48694,2,0,L|148:233,1,80,2|8,0:0|0:0,0:0:0:0:
0,85,49027,1,2,0:0:0:0:
41,11,49138,6,0,B|104:-30|195:16|151:35|236:74|313:28,1,287.999991210938,10|10,0:3|0:3,0:0:0:0:
312,29,49694,1,10,0:0:0:0:
41,11,49916,1,2,0:0:0:0:
253,135,50138,1,10,0:3:0:0:
306,76,50249,2,0,P|342:71|392:80,1,80,2|0,0:0|0:0,0:0:0:0:
249,153,50472,2,0,P|213:158|163:149,1,80,2|8,0:0|0:0,0:0:0:0:
75,37,50694,6,0,P|119:26|143:64,1,95.9999970703126,10|0,0:3|0:0,0:0:0:0:
43,192,50916,2,0,P|17:68|143:64,1,287.999991210938,14|2,0:3|0:0,0:0:0:0:
225,174,51472,2,0,P|233:269|243:347,1,160,8|0,0:0|0:0,0:0:0:0:
321,361,51805,1,10,0:3:0:0:
345,349,51916,2,0,P|356:234|360:171,1,160,10|8,0:3|0:0,0:0:0:0:
493,58,52361,5,8,0:0:0:0:
472,110,52472,1,8,0:0:0:0:
403,128,52583,1,8,0:3:0:0:
332,97,52694,1,8,0:3:0:0:
282,16,52805,6,0,P|401:117|410:292,4,320,10|10|10|10|10,0:2|0:0|0:0|0:0|0:0,0:0:0:0:
282,16,54138,1,10,0:3:0:0:
45,327,54583,6,0,P|125:345|246:265,1,223.999993164063,14|2,0:3|0:0,0:0:0:0:
37,126,55249,2,0,P|9:174|4:229,1,111.999996582031,10|8,0:3|0:0,0:0:0:0:
238,179,55694,2,0,P|210:130|165:98,1,111.999996582031,2|8,0:0|0:3,0:0:0:0:
165,98,56361,6,0,P|245:157|392:100,1,223.999993164063,10|2,0:3|0:0,0:0:0:0:
458,27,57027,1,8,0:3:0:0:
499,231,57249,1,8,0:0:0:0:
499,231,57694,2,0,P|435:199|402:227,1,111.999996582031,10|2,0:3|0:0,0:0:0:0:
396,243,58027,1,2,0:0:0:0:
376,263,58138,6,0,P|295:281|174:201,1,223.999993164063,10|2,0:3|0:0,0:0:0:0:
383,62,58805,2,0,P|411:109|416:165,1,111.999996582031,10|8,0:3|0:0,0:0:0:0:
182,114,59249,2,0,P|208:66|253:34,1,111.999996582031,2|8,0:0|0:3,0:0:0:0:
512,0,59916,5,12,0:3:0:0:
496,130,60138,1,8,0:0:0:0:
503,168,60249,1,8,0:0:0:0:
512,206,60361,1,10,0:0:0:0:
422,308,60583,2,0,P|356:307|330:266,1,111.999996582031,10|8,0:3|0:0,0:0:0:0:
332,274,61249,5,8,0:0:0:0:
328,234,61361,1,8,0:0:0:0:
336,164,61472,1,8,0:0:0:0:
296,101,61583,1,8,0:0:0:0:
284,112,61694,1,8,0:3:0:0:
185,272,61916,6,0,L|71:260,1,95.9999970703126,14|0,0:3|0:0,0:0:0:0:
0,183,62138,1,8,0:0:0:0:
2,86,62249,1,8,0:0:0:0:
75,28,62361,1,8,0:0:0:0:
168,45,62472,1,8,0:0:0:0:
168,61,62583,1,8,0:3:0:0:
187,288,62805,6,0,L|73:276,1,95.9999970703126,14|0,0:3|0:0,0:0:0:0:
0,199,63027,1,8,0:0:0:0:
2,102,63138,1,8,0:0:0:0:
75,44,63250,1,8,0:0:0:0:
168,61,63361,1,8,0:0:0:0:
168,77,63472,1,8,0:3:0:0:
189,304,63694,6,0,L|9:285,1,160,14|8,0:0|0:3,0:0:0:0:
326,303,64138,2,0,L|505:284,1,160,14|0,0:2|0:0,0:0:0:0:
494,124,64472,1,8,0:3:0:0:
475,149,64583,2,0,L|295:130,1,160,14|8,0:0|0:3,0:0:0:0:
37,149,65027,2,0,L|168:135,1,80,10|0,0:0|0:0,0:0:0:0:
197,132,65249,5,10,0:3:0:0:
280,49,65472,1,10,0:3:0:0:
414,27,65694,1,10,0:2:0:0:
512,146,65916,1,10,0:3:0:0:
436,333,66138,1,10,0:3:0:0:
200,377,66361,1,10,0:3:0:0:
0,204,66583,1,10,0:2:0:0:
206,0,66805,1,10,0:3:0:0:
342,375,67027,5,14,0:3:0:0:
512,0,67472,1,10,0:3:0:0:
0,166,67916,1,8,0:3:0:0:
0,166,68805,6,0,P|56:159|149:155,1,103.999995239258,14|0,0:3|0:0,0:0:0:0:
284,76,69027,2,0,P|234:77|135:87,1,103.999995239258,10|0,0:0|0:0,0:0:0:0:
147,250,69249,2,0,P|203:247|250:242,1,103.999995239258,10|8,0:3|0:3,0:0:0:0:
487,300,69472,5,10,0:0:0:0:
393,172,69583,2,0,P|350:149|251:246,1,207.999990478516,10|8,0:3|0:3,0:0:0:0:
82,371,69916,5,10,0:0:0:0:
122,208,70027,1,2,0:0:0:0:
199,328,70138,2,0,P|248:341|301:329,1,103.999995239258,10|8,0:3|0:3,0:0:0:0:
307,151,70361,2,0,P|257:137|204:149,1,103.999995239258,8|0,0:0|0:0,0:0:0:0:
308,368,70583,6,0,P|310:317|316:265,1,103.999995239258,10|0,0:3|0:0,0:0:0:0:
412,108,70805,2,0,P|408:160|403:212,1,103.999995239258,10|0,0:0|0:0,0:0:0:0:
472,380,71027,2,0,P|475:328|480:276,1,103.999995239258,10|8,0:3|0:3,0:0:0:0:
510,86,71249,5,10,0:0:0:0:
403,212,71361,2,0,P|312:237|254:130,1,207.999990478516,10|8,0:3|0:3,0:0:0:0:
337,32,71694,6,0,P|384:26|481:29,1,103.999995239258,10|0,0:0|0:0,0:0:0:0:
195,77,71916,2,0,P|130:63|94:46,1,103.999995239258,10|8,0:3|0:3,0:0:0:0:
346,151,72138,2,0,P|389:134|475:125,1,103.999995239258,10|0,0:0|0:0,0:0:0:0:
254,257,72361,6,0,P|253:305|258:383,1,103.999995239258,14|0,0:3|0:0,0:0:0:0:
351,189,72583,2,0,P|379:232|403:278,1,103.999995239258,10|0,0:0|0:0,0:0:0:0:
182,183,72805,2,0,P|144:217|110:256,1,103.999995239258,10|8,0:3|0:3,0:0:0:0:
98,384,73027,5,10,0:0:0:0:
182,292,73138,2,0,P|183:190|164:80,1,207.999990478516,10|8,0:3|0:3,0:0:0:0:
0,15,73472,6,0,P|51:15|113:6,1,103.999995239258,10|0,0:0|0:0,0:0:0:0:
340,50,73694,2,0,P|293:50|236:42,1,103.999995239258,10|8,0:3|0:3,0:0:0:0:
42,148,73916,2,0,P|93:141|172:143,1,103.999995239258,10|0,0:0|0:0,0:0:0:0:
344,258,74138,6,0,P|344:154|340:50,1,207.999990478516,10|8,0:3|0:2,0:0:0:0:
288,208,74472,1,8,0:3:0:0:
394,116,74583,2,0,P|440:103|488:244,1,207.999990478516,10|8,0:3|0:0,0:0:0:0:
344,258,74916,2,0,P|240:246|110:240,1,207.999990478516,14|8,0:3|0:3,0:0:0:0:
0,352,75249,5,8,0:0:0:0:
9,202,75361,1,8,0:0:0:0:
98,333,75472,1,8,0:0:0:0:
87,167,75583,1,8,0:0:0:0:
196,321,75694,1,8,0:0:0:0:
165,133,75805,1,8,0:0:0:0:
343,256,75916,6,0,P|396:252|447:244,1,103.999995239258,14|0,0:3|0:0,0:0:0:0:
262,171,76138,2,0,P|211:153|164:132,1,103.999995239258,10|0,0:0|0:0,0:0:0:0:
384,149,76361,2,0,P|427:119|468:86,1,103.999995239258,10|8,0:3|0:3,0:0:0:0:
270,17,76583,5,10,0:0:0:0:
166,133,76694,2,0,P|61:143|18:43,1,207.999990478516,10|8,0:3|0:3,0:0:0:0:
270,17,77027,6,0,P|333:26|375:39,1,103.999995239258,10|0,0:0|0:0,0:0:0:0:
420,186,77249,2,0,P|380:236|348:265,1,103.999995239258,10|8,0:3|0:3,0:0:0:0:
199,231,77472,2,0,P|175:171|165:129,1,103.999995239258,10|0,0:0|0:0,0:0:0:0:
372,38,77694,6,0,P|415:40|501:22,1,103.999995239258,10|0,0:3|0:0,0:0:0:0:
203,61,77916,2,0,P|139:54|73:54,1,103.999995239258,10|0,0:0|0:0,0:0:0:0:
336,143,78138,2,0,P|377:174|410:214,1,103.999995239258,10|8,0:3|0:3,0:0:0:0:
506,359,78361,5,10,0:0:0:0:
488,236,78472,2,0,P|362:241|286:311,1,207.999990478516,10|8,0:3|0:3,0:0:0:0:
101,383,78805,6,0,P|46:372|-5:357,1,103.999995239258,10|0,0:0|0:0,0:0:0:0:
241,340,79027,2,0,P|264:303|301:238,1,103.999995239258,10|8,0:3|0:3,0:0:0:0:
62,280,79249,2,0,P|51:230|44:176,1,103.999995239258,10|0,0:0|0:0,0:0:0:0:
262,303,79472,6,0,P|432:277|480:254,1,207.999990478516,14|8,0:3|0:0,0:0:0:0:
493,37,79805,1,8,0:3:0:0:
415,89,79916,2,0,P|402:127|405:197,1,103.999995239258,10|8,0:3|0:3,0:0:0:0:
500,343,80138,1,8,0:0:0:0:
463,263,80249,2,0,P|373:229|240:215,1,207.999990478516,8|8,0:3|0:3,0:0:0:0:
66,338,80583,5,10,0:0:0:0:
114,355,80694,1,8,0:3:0:0:
165,349,80805,2,0,P|182:316|191:237,1,103.999995239258,8|8,0:3|0:3,0:0:0:0:
53,146,81027,2,0,P|36:113|27:34,1,103.999995239258,10|0,0:0|0:0,0:0:0:0:
263,214,81249,6,0,P|319:219|456:160,1,207.999990478516,14|8,0:3|0:0,0:0:0:0:
418,7,81583,1,8,0:3:0:0:
346,37,81694,2,0,P|324:74|312:135,1,103.999995239258,8|8,0:3|0:3,0:0:0:0:
433,347,81916,5,14,0:0:0:0:
512,273,82027,2,0,P|422:222|319:219,1,207.999990478516,8|8,0:3|0:3,0:0:0:0:
188,299,82361,5,8,0:0:0:0:
194,178,82472,1,8,0:0:0:0:
93,296,82583,1,8,0:0:0:0:
120,160,82694,1,8,0:0:0:0:
0,289,82805,1,8,0:0:0:0:
49,130,82916,1,8,0:0:0:0:
99,320,83027,6,0,P|178:334|216:297,1,128,14|8,0:3|0:3,0:0:0:0:
386,61,83472,2,0,P|307:47|269:84,1,128,8|8,0:0|0:3,0:0:0:0:
465,384,83916,2,0,P|474:274|482:88,1,256,10|14,0:3|0:0,0:0:0:0:
481,128,84805,6,0,P|428:160|369:141,1,128,14|8,0:3|0:3,0:0:0:0:
160,30,85249,2,0,P|239:16|277:53,1,128,8|8,0:0|0:3,0:0:0:0:
52,294,85694,2,0,P|43:184|35:-2,1,256,10|14,0:3|0:0,0:0:0:0:
36,39,86583,5,12,0:3:0:0:
45,213,86805,1,10,0:3:0:0:
172,59,87027,1,10,0:3:0:0:
172,241,87249,1,10,0:3:0:0:
318,138,87472,2,0,P|397:129|460:145,1,128,10|0,0:3|0:0,0:0:0:0:
506,366,87916,2,0,P|427:375|364:359,1,128,14|8,0:2|0:3,0:0:0:0:
193,76,88361,6,0,L|293:57,1,85.3333333333333,14|0,0:0|0:0,0:0:0:0:
286,67,88583,1,8,0:3:0:0:
294,76,88657,1,8,0:3:0:0:
299,87,88731,1,8,0:3:0:0:
301,99,88805,1,8,0:3:0:0:
119,267,89027,2,0,P|76:188|118:26,1,256,14|8,0:3|0:3,0:0:0:0:
370,246,89694,5,8,0:0:0:0:
340,162,89805,1,8,0:0:0:0:
282,228,89916,1,8,0:3:0:0:
102,27,90138,5,12,0:3:0:0:
150,120,90361,2,0,L|234:126,1,71.9999978027344,10|0,0:0|0:0,0:0:0:0:
102,27,90583,2,0,L|18:21,1,71.9999978027344,10|8,0:3|0:3,0:0:0:0:
157,127,90805,2,0,L|241:133,1,71.9999978027344,10|8,0:0|0:3,0:0:0:0:
57,170,91027,6,0,P|48:200|38:258,1,71.9999978027344,2|0,0:0|0:0,0:0:0:0:
162,307,91249,2,0,P|154:272|150:237,1,71.9999978027344,10|0,0:0|0:0,0:0:0:0:
262,260,91472,2,0,P|278:286|314:333,1,71.9999978027344,10|8,0:3|0:3,0:0:0:0:
434,272,91694,2,0,P|402:255|373:235,1,71.9999978027344,10|0,0:0|0:0,0:0:0:0:
338,79,91916,5,8,0:3:0:0:
426,152,92138,2,0,L|510:146,1,71.9999978027344,10|0,0:0|0:0,0:0:0:0:
338,79,92361,2,0,L|254:85,1,71.9999978027344,10|8,0:3|0:3,0:0:0:0:
433,145,92583,2,0,L|517:139,1,71.9999978027344,10|8,0:0|0:3,0:0:0:0:
347,205,92805,6,0,P|340:240|341:276,1,71.9999978027344,2|0,0:0|0:0,0:0:0:0:
254,331,93027,2,0,P|240:298|233:263,1,71.9999978027344,8|0,0:0|0:0,0:0:0:0:
136,209,93249,2,0,P|129:244|130:280,1,71.9999978027344,10|8,0:3|0:3,0:0:0:0:
42,334,93472,2,0,P|27:300|20:265,1,71.9999978027344,10|0,0:0|0:0,0:0:0:0:
172,384,93694,6,0,P|243:381|311:358,1,143.999995605469,14|8,0:3|0:3,0:0:0:0:
478,129,94138,5,8,0:2:0:0:
387,117,94249,1,8,0:2:0:0:
452,220,94361,5,8,0:2:0:0:
375,161,94472,1,8,0:2:0:0:
383,288,94583,5,8,0:2:0:0:
343,194,94694,1,8,0:2:0:0:
285,312,94805,5,8,0:2:0:0:
298,206,94916,1,8,0:2:0:0:
187,284,95027,5,8,0:2:0:0:
254,194,95138,1,8,0:2:0:0:
286,334,95249,5,10,0:3:0:0:
0,275,97249,5,2,0:3:0:0:
0,275,97472,1,2,0:3:0:0:
0,275,97694,6,0,B|38:260|86:276|66:289|107:300|156:287,1,160,10|8,0:3|0:0,0:0:0:0:
241,148,98027,1,8,0:3:0:0:
123,183,98138,2,0,P|76:264|94:330,2,160,2|8|8,0:3|0:0|0:3,0:0:0:0:
245,152,98694,1,8,0:3:0:0:
335,207,98805,2,0,P|381:207|425:192,1,80,8|0,0:0|0:0,0:0:0:0:
492,275,99027,6,0,P|420:242|341:231,1,160,10|8,0:3|0:0,0:0:0:0:
286,355,99361,1,8,0:3:0:0:
421,350,99472,2,0,P|433:317|406:187,1,160,10|8,0:3|0:0,0:0:0:0:
310,97,99805,1,8,0:3:0:0:
221,153,99916,2,0,P|205:184|194:240,1,80,2|8,0:3|0:3,0:0:0:0:
314,101,100138,2,0,P|348:97|404:106,1,80,8|0,0:0|0:0,0:0:0:0:
216,44,100361,1,10,0:3:0:0:
170,30,100472,1,8,0:0:0:0:
125,48,100583,2,0,P|82:48|32:35,1,80,8|0,0:0|0:0,0:0:0:0:
252,132,100805,6,0,P|331:121|411:115,1,160,12|8,0:3|0:0,0:0:0:0:
261,166,101138,1,8,0:3:0:0:
176,108,101249,2,0,P|167:60|170:24,1,80,10|8,0:3|0:3,0:0:0:0:
265,170,101472,2,0,P|274:218|271:254,1,80,8|8,0:0|0:3,0:0:0:0:
410,33,101694,2,0,P|383:117|388:192,2,160,2|8|8,0:0|0:0|0:3,0:0:0:0:
512,21,102249,1,8,0:3:0:0:
461,118,102361,2,0,P|416:128|378:127,1,80,8|0,0:0|0:0,0:0:0:0:
235,53,102583,6,0,P|261:48|326:48,1,80,14|0,0:3|0:0,0:0:0:0:
297,209,102805,2,0,P|271:214|206:214,1,80,8|0,0:0|0:0,0:0:0:0:
81,131,103027,5,10,0:0:0:0:
145,69,103138,1,8,0:0:0:0:
166,153,103249,1,8,0:3:0:0:
66,148,103361,1,8,0:3:0:0:
133,56,103472,6,0,B|176:18|176:18|281:45,1,143.999995605469,14|0,0:3|0:0,0:0:0:0:
259,39,103916,2,0,P|246:208|248:339,1,287.999991210938,14|0,0:2|0:0,0:0:0:0:
271,84,104361,6,0,P|281:162|279:247,1,160,12|8,0:3|0:0,0:0:0:0:
153,333,104694,1,8,0:3:0:0:
125,231,104805,2,0,B|163:216|211:232|191:245|236:260|281:243,1,160,10|8,0:3|0:0,0:0:0:0:
408,130,105138,1,8,0:3:0:0:
295,163,105249,2,0,P|280:259|304:324,2,160,2|8|8,0:0|0:0|0:3,0:0:0:0:
412,134,105805,1,8,0:3:0:0:
360,40,105916,2,0,P|323:22|270:17,1,80,8|0,0:0|0:0,0:0:0:0:
143,148,106138,6,0,P|212:141|306:108,1,160,10|8,0:3|0:0,0:0:0:0:
126,118,106472,1,8,0:3:0:0:
72,216,106583,2,0,P|71:302|98:405,1,160,10|8,0:3|0:0,0:0:0:0:
277,277,106916,1,8,0:3:0:0:
195,209,107027,2,0,P|176:243|170:283,1,80,2|8,0:0|0:3,0:0:0:0:
359,345,107249,2,0,P|377:310|383:270,1,80,8|0,0:0|0:0,0:0:0:0:
356,113,107472,5,8,0:3:0:0:
301,136,107583,1,8,0:0:0:0:
258,95,107694,1,8,0:0:0:0:
208,125,107805,1,8,0:2:0:0:
167,81,107916,6,0,P|126:66|77:65,1,80,12|0,0:3|0:0,0:0:0:0:
0,225,108138,2,0,P|41:240|90:241,1,80,8|0,0:0|0:0,0:0:0:0:
257,199,108361,5,8,0:3:0:0:
319,271,108472,1,8,0:3:0:0:
381,197,108583,2,0,P|411:124|234:53,1,320,14|8,0:3|0:3,0:0:0:0:
22,285,109249,5,8,0:0:0:0:
65,190,109361,1,8,0:0:0:0:
155,245,109472,2,0,P|266:251|380:198,1,240,14|0,0:3|0:0,0:0:0:0:
481,20,109916,5,8,0:0:0:0:
393,76,110027,1,8,0:0:0:0:
480,148,110138,1,8,0:0:0:0:
380,197,110249,1,8,0:0:0:0:
461,258,110361,2,0,P|476:180|479:1,1,240,12|0,0:3|0:0,0:0:0:0:
310,125,110805,2,0,P|267:124|220:110,1,80,8|0,0:3|0:0,0:0:0:0:
51,6,111027,5,8,0:0:0:0:
180,57,111138,1,8,0:0:0:0:
45,114,111249,1,8,0:0:0:0:
170,158,111361,1,8,0:0:0:0:
41,243,111472,5,14,0:3:0:0:
41,243,111916,5,10,0:3:0:0:
288,16,112138,1,10,0:3:0:0:
389,345,112361,1,10,0:3:0:0:
72,93,112583,1,10,0:3:0:0:
451,31,112805,1,10,0:3:0:0:
18,382,113027,5,10,0:0:0:0:
18,382,113472,5,10,0:0:0:0:
183,33,113694,1,10,0:0:0:0:
448,371,113916,1,10,0:0:0:0:
497,65,114138,5,8,0:2:0:0:
443,182,114249,1,8,0:2:0:0:
415,56,114361,1,8,0:2:0:0:
512,142,114472,1,8,0:2:0:0:
383,127,114583,1,8,0:2:0:0:
497,65,114694,1,8,0:2:0:0:
443,182,114805,1,8,0:2:0:0:
415,56,114916,1,8,0:2:0:0:
512,142,115472,5,14,0:3:0:0:
256,192,115583,12,2,119212,1:3:0:0:
