osu file format v14

[General]
AudioFilename: audio.mp3
AudioLeadIn: 0
PreviewTime: 68055
Countdown: 0
SampleSet: Soft
StackLeniency: 0.3
Mode: 0
LetterboxInBreaks: 0
WidescreenStoryboard: 1

[Editor]
Bookmarks: 15472,22583,40361,54583,61694,68805,75916,83027,90138,97249,115583
DistanceSpacing: 0.6
BeatDivisor: 4
GridSize: 32
TimelineZoom: 2

[Metadata]
Title:Yamato Nadeshiko Hanakotoba
TitleUnicode:ヤマトナデシコ花言葉
Artist:Tomoe Tamiyasu
ArtistUnicode:民安ともえ
Creator:Lasse
Version:Asaiga's Expert
Source:ナデレボ!
Tags:jitaku studio j-studio eroge visual novel opening short version Naderebo! NADESHIKO REVOLUTION Naderevo! Asaiga
BeatmapID:1607754
BeatmapSetID:748589

[Difficulty]
HPDrainRate:5
CircleSize:3.5
OverallDifficulty:7.5
ApproachRate:9
SliderMultiplier:2.3
SliderTickRate:1

[Events]
//Background and Video events
0,0,"b.jpg",0,0
//Break Periods
//Storyboard Layer 0 (Background)
//Storyboard Layer 1 (Fail)
//Storyboard Layer 2 (Pass)
//Storyboard Layer 3 (Foreground)
//Storyboard Sound Samples

[TimingPoints]
1250,444.444444444444,4,2,1,5,1,0
10138,-200,4,2,1,5,0,0
15472,-200,4,2,1,70,0,0
20805,-200,4,2,1,40,0,0
22583,-83.3333333333333,4,2,1,70,0,0
28583,-83.3333333333333,4,2,2,70,0,0
28805,-166.666666666667,4,2,1,70,0,0
29138,-166.666666666667,4,2,1,5,0,0
29249,-71.4285714285714,4,2,1,70,0,0
29583,-166.666666666667,4,2,1,5,0,0
29694,-83.3333333333333,4,2,1,70,0,0
35138,-83.3333333333333,4,2,1,5,0,0
35249,-83.3333333333333,4,2,1,70,0,0
36138,-83.3333333333333,4,2,2,40,0,0
36361,-83.3333333333333,4,2,1,60,0,0
37249,-83.3333333333333,4,2,1,65,0,0
37694,-83.3333333333333,4,2,1,70,0,0
38138,-83.3333333333333,4,2,1,75,0,0
39916,-83.3333333333333,4,2,1,60,0,0
40249,-83.3333333333333,4,2,1,70,0,0
40583,-111.111111111111,4,2,1,50,0,0
42027,-83.3333333333333,4,2,1,70,0,0
42361,-111.111111111111,4,2,1,50,0,0
43583,-100,4,2,1,60,0,0
43805,-83.3333333333333,4,2,1,70,0,0
44138,-111.111111111111,4,2,1,50,0,0
45249,-100,4,2,1,60,0,0
45583,-83.3333333333333,4,2,1,70,0,0
46472,-100,4,2,1,40,0,0
47249,-83.3333333333333,4,2,1,70,0,0
47694,-100,4,2,1,60,0,0
49138,-83.3333333333333,4,2,1,70,0,0
49472,-100,4,2,1,60,0,0
50916,-83.3333333333333,4,2,1,70,0,0
51249,-100,4,2,1,60,0,0
52361,-100,4,2,1,50,0,0
52583,-100,4,2,2,50,0,0
52805,-100,4,2,1,70,0,0
54138,-100,4,2,1,50,0,0
54583,-166.666666666667,4,2,1,50,0,0
59916,-100,4,2,1,60,0,0
61916,-83.3333333333333,4,2,1,70,0,0
62027,-83.3333333333333,4,2,1,5,0,0
62138,-83.3333333333333,4,2,1,70,0,0
62916,-83.3333333333333,4,2,1,5,0,0
63027,-83.3333333333333,4,2,1,70,0,0
63694,-71.4285714285714,4,2,1,70,0,0
68805,-76.9230769230769,4,2,1,80,0,1
75861,-76.9230769230769,4,2,1,80,0,0
75916,-76.9230769230769,4,2,1,80,0,1
83027,-125,4,2,1,60,0,0
88361,-100,4,2,1,60,0,0
88583,-100,4,2,2,60,0,0
89027,-100,4,2,1,60,0,0
89916,-100,4,2,2,60,0,0
90027,-100,4,2,1,60,0,0
90138,-83.3333333333333,4,2,1,70,0,0
92138,-71.4285714285714,4,2,1,70,0,0
97249,-83.3333333333333,4,2,2,60,0,0
97694,-83.3333333333333,4,2,1,70,0,0
103249,-83.3333333333333,4,2,2,70,0,0
103472,-166.666666666667,4,2,1,70,0,0
103805,-166.666666666667,4,2,1,5,0,0
103916,-71.4285714285714,4,2,1,70,0,0
104249,-71.4285714285714,4,2,1,5,0,0
104361,-83.3333333333333,4,2,1,70,0,0
109805,-83.3333333333333,4,2,1,5,0,0
109916,-83.3333333333333,4,2,1,70,0,0
110805,-83.3333333333333,4,2,2,40,0,0
111027,-83.3333333333333,4,2,1,60,0,0
111916,-83.3333333333333,4,2,1,65,0,0
112361,-83.3333333333333,4,2,1,70,0,0
112805,-83.3333333333333,4,2,1,75,0,0
115583,-100,4,2,1,50,0,0
115916,-100,4,2,1,45,0,0
116361,-100,4,2,1,40,0,0
116805,-100,4,2,1,35,0,0
117249,-100,4,2,1,30,0,0
117694,-100,4,2,1,25,0,0
118138,-100,4,2,1,20,0,0
118583,-100,4,2,1,15,0,0
119212,-100,4,2,1,40,0,0

[Colours]
Combo1 : 250,190,230
Combo2 : 130,200,230
Combo3 : 255,230,140
Combo4 : 170,245,170

[HitObjects]
256,192,10138,12,0,15249,1:0:0:0:
351,317,15472,5,10,0:0:0:0:
159,290,15694,1,10,0:0:0:0:
316,47,17249,5,10,0:0:0:0:
389,227,17472,1,10,0:0:0:0:
100,211,19027,5,10,0:0:0:0:
219,58,19249,1,10,0:0:0:0:
256,192,20805,5,0,3:0:0:0:
229,321,21027,1,0,3:0:0:0:
358,288,21249,1,0,3:0:0:0:
358,288,21361,1,0,3:0:0:0:
26,217,21694,1,0,3:0:0:0:
90,298,21916,5,0,3:0:0:0:
113,274,22027,1,0,3:0:0:0:
125,243,22138,1,0,3:0:0:0:
128,210,22249,1,0,3:0:0:0:
120,177,22361,1,0,3:0:0:0:
101,149,22472,1,0,3:0:0:0:
72,129,22583,6,0,L|209:134,1,137.999995788574,12|8,0:3|0:0,0:0:0:0:
272,67,22916,1,8,0:3:0:0:
272,67,23027,2,0,P|299:145|266:207,1,137.999995788574,10|8,0:3|0:0,0:0:0:0:
176,278,23361,1,8,0:3:0:0:
176,278,23472,2,0,B|216:262|248:270|240:286|272:294|312:278,2,137.999995788574,2|8|8,0:3|0:0|0:3,0:0:0:0:
89,314,24027,1,8,0:3:0:0:
89,314,24138,2,0,B|81:278|81:278|90:238,1,68.9999978942872,8|0,0:0|0:0,0:0:0:0:
0,107,24361,6,0,P|26:169|-2:234,1,137.999995788574,10|8,0:3|0:0,0:0:0:0:
309,278,24805,2,0,P|242:286|200:339,1,137.999995788574,10|8,0:3|0:0,0:0:0:0:
246,30,25249,2,0,P|286:83|353:92,1,137.999995788574,2|8,0:3|0:0,0:0:0:0:
492,245,25694,1,10,0:3:0:0:
512,194,25805,1,8,0:0:0:0:
489,143,25916,2,0,L|417:156,1,68.9999978942872,8|0,0:0|0:0,0:0:0:0:
244,239,26138,6,0,B|310:258|310:258|389:220,1,137.999995788574,12|8,0:3|0:0,0:0:0:0:
479,308,26472,1,8,0:3:0:0:
479,308,26583,2,0,B|434:308|434:308|351:349,1,137.999995788574,10|8,0:3|0:0,0:0:0:0:
246,336,26916,1,8,0:3:0:0:
246,336,27027,2,0,P|181:364|119:340,2,137.999995788574,2|8|8,0:0|0:0|0:3,0:0:0:0:
312,261,27583,1,8,0:3:0:0:
312,261,27694,2,0,B|321:226|321:226|313:194,1,68.9999978942872,8|0,0:0|0:0,0:0:0:0:
268,61,27916,6,0,L|253:129,1,68.9999978942872,14|0,0:3|0:0,0:0:0:0:
135,224,28138,2,0,B|143:189|143:189|166:165,1,68.9999978942872,8|0,0:0|0:0,0:0:0:0:
230,230,28361,1,10,0:0:0:0:
227,243,28472,1,8,0:0:0:0:
224,256,28583,1,8,0:3:0:0:
221,269,28694,1,8,0:3:0:0:
219,282,28805,6,0,B|270:298|270:298|317:283,1,103.499996841431,14|0,0:3|0:0,0:0:0:0:
157,358,29249,2,0,P|268:318|380:357,1,241.499992630005,14|0,0:2|0:0,0:0:0:0:
492,283,29694,6,0,B|474:240|474:240|487:138,1,137.999995788574,12|8,0:3|0:0,0:0:0:0:
413,66,30027,1,8,0:3:0:0:
413,66,30138,2,0,P|354:101|287:86,1,137.999995788574,10|8,0:3|0:0,0:0:0:0:
193,148,30472,1,8,0:3:0:0:
193,148,30583,2,0,B|197:196|197:196|214:227|214:227|219:285,2,137.999995788574,2|8|8,0:0|0:0|0:3,0:0:0:0:
177,42,31138,1,8,0:3:0:0:
177,42,31249,2,0,B|141:51|141:51|104:41,1,68.9999978942872,8|0,0:0|0:0,0:0:0:0:
0,127,31472,6,0,P|70:136|103:201,1,137.999995788574,10|8,0:3|0:0,0:0:0:0:
246,360,31916,2,0,P|194:317|128:331,1,137.999995788574,10|8,0:3|0:0,0:0:0:0:
349,291,32361,2,0,B|386:276|404:249|404:249|425:262|481:262,1,137.999995788574,2|8,0:0|0:0,0:0:0:0:
393,64,32805,1,8,0:3:0:0:
372,115,32916,1,8,0:0:0:0:
395,164,33027,2,0,L|471:156,1,68.9999978942872,8|8,0:0|0:3,0:0:0:0:
349,291,33249,6,0,P|279:281|192:272,1,137.999995788574,12|8,0:3|0:0,0:0:0:0:
34,361,33694,1,8,0:3:0:0:
150,188,33916,2,0,P|75:107|65:215,1,275.999991577149,14|8,0:3|0:3,0:0:0:0:
217,370,34583,5,8,0:0:0:0:
267,304,34694,1,8,0:0:0:0:
207,246,34805,2,0,P|309:266|410:246,1,206.999993682861,14|0,0:3|0:0,0:0:0:0:
510,140,35249,5,8,0:0:0:0:
431,167,35361,1,8,0:0:0:0:
394,92,35472,1,8,0:0:0:0:
328,141,35583,1,8,0:0:0:0:
275,76,35694,2,0,P|139:62|41:153,1,275.999991577149,12|8,0:3|0:3,0:0:0:0:
385,359,36361,5,8,0:0:0:0:
342,361,36472,1,8,0:0:0:0:
300,364,36583,1,8,0:0:0:0:
258,367,36694,1,8,0:0:0:0:
217,370,36805,5,14,0:3:0:0:
217,370,37249,5,10,0:3:0:0:
239,164,37472,1,10,0:3:0:0:
71,286,37694,5,10,0:3:0:0:
351,268,37916,1,10,0:3:0:0:
180,384,38138,5,10,0:3:0:0:
220,79,38361,1,10,0:0:0:0:
222,70,39916,5,8,0:0:0:0:
187,129,40027,1,8,0:0:0:0:
223,187,40138,1,8,0:0:0:0:
181,241,40249,6,0,B|250:236|250:236|315:261|315:261|401:253,1,206.999993682861,14|8,0:3|0:3,0:0:0:0:
467,303,40805,2,0,P|477:247|452:186,1,103.499996841431,8|0,0:1|0:0,0:0:0:0:
328,74,41249,2,0,P|314:123|324:173,1,103.499996841431,2|0,0:0|0:0,0:0:0:0:
418,23,41694,1,8,0:1:0:0:
382,254,41916,1,2,0:0:0:0:
382,254,42027,6,0,P|317:331|216:294,1,206.999993682861,10|8,0:3|0:3,0:0:0:0:
281,141,42583,2,0,L|292:244,1,103.499996841431,8|0,0:1|0:0,0:0:0:0:
76,355,43027,2,0,L|86:252,1,103.499996841431,2|8,0:0|0:1,0:0:0:0:
109,102,43472,1,8,0:1:0:0:
109,102,43583,6,0,L|176:107,1,57.5,10|0,0:3|0:0,0:0:0:0:
37,132,43805,2,0,B|97:107|146:119|134:144|183:156|244:132,1,206.999993682861,10|8,0:3|0:3,0:0:0:0:
398,65,44361,2,0,P|346:52|296:67,1,103.499996841431,8|0,0:1|0:0,0:0:0:0:
297,201,44805,2,0,P|346:215|396:202,1,103.499996841431,2|0,0:0|0:0,0:0:0:0:
474,138,45249,5,8,0:0:0:0:
468,195,45361,1,8,0:0:0:0:
463,252,45472,1,8,0:0:0:0:
458,309,45583,6,0,B|404:352|404:352|334:344,1,137.999995788574,14|0,0:3|0:0,0:0:0:0:
250,220,45916,2,0,L|258:312,1,68.9999978942872,10|0,0:3|0:0,0:0:0:0:
36,33,46472,5,2,0:0:0:0:
92,350,47249,5,8,0:0:0:0:
35,278,47361,2,0,P|128:266|183:354,1,206.999993682861,14|10,0:3|0:3,0:0:0:0:
286,306,47805,5,2,0:0:0:0:
278,260,47916,1,10,0:0:0:0:
311,186,48027,5,2,0:0:0:0:
305,140,48138,1,2,0:0:0:0:
479,35,48361,6,0,L|469:155,1,115,10|2,0:3|0:0,0:0:0:0:
452,324,48805,1,8,0:0:0:0:
294,224,49027,1,2,0:0:0:0:
294,224,49138,6,0,B|344:227|344:227|363:243|363:243|385:230|385:230|490:236,1,206.999993682861,10|10,0:3|0:3,0:0:0:0:
268,305,49694,2,0,P|234:286|214:251,1,57.5,10|0,0:0|0:0,0:0:0:0:
159,328,49916,2,0,P|139:294|139:254,1,57.5,2|0,0:0|0:0,0:0:0:0:
200,109,50138,6,0,P|232:128|252:162,1,57.5,10|2,0:3|0:0,0:0:0:0:
307,85,50361,2,0,P|325:117|326:158,1,57.5,0|2,0:0|0:0,0:0:0:0:
293,223,50583,1,8,0:0:0:0:
293,223,50694,6,0,P|323:230|359:247,1,57.5,10|0,0:3|0:0,0:0:0:0:
465,326,50916,2,0,B|407:317|370:282|393:266|357:232|292:223,1,206.999993682861,14|2,0:3|0:0,0:0:0:0:
50,329,51472,2,0,P|105:345|167:321,1,115,8|0,0:0|0:0,0:0:0:0:
114,198,51805,1,10,0:3:0:0:
113,197,51916,2,0,L|103:254,1,57.5,10|0,0:3|0:0,0:0:0:0:
69,95,52138,2,0,L|12:142,1,57.5,8|0,0:0|0:0,0:0:0:0:
184,112,52361,5,8,0:0:0:0:
229,147,52472,1,8,0:0:0:0:
286,149,52583,1,8,0:3:0:0:
337,122,52694,1,8,0:3:0:0:
367,73,52805,5,10,0:2:0:0:
474,354,53027,1,10,0:0:0:0:
113,197,53249,1,10,0:0:0:0:
486,150,53472,1,10,0:0:0:0:
156,384,53694,1,10,0:0:0:0:
367,73,54138,5,10,0:3:0:0:
367,73,54583,6,0,P|376:152|379:224,1,137.999995788574,14|2,0:3|0:0,0:0:0:0:
326,300,55249,2,0,L|243:294,1,68.9999978942872,10|8,0:3|0:0,0:0:0:0:
190,234,55694,2,0,L|107:240,1,68.9999978942872,2|8,0:0|0:3,0:0:0:0:
179,371,56361,6,0,P|182:309|192:213,1,137.999995788574,10|2,0:3|0:0,0:0:0:0:
224,61,57027,1,8,0:3:0:0:
172,138,57249,2,0,L|260:152,1,68.9999978942872,8|0,0:0|0:0,0:0:0:0:
309,210,57694,1,10,0:3:0:0:
395,182,57916,1,2,0:0:0:0:
466,241,58138,6,0,B|479:293|481:344|481:344|449:313,1,137.999995788574,10|2,0:3|0:0,0:0:0:0:
358,287,58805,2,0,L|282:301,1,68.9999978942872,10|8,0:3|0:0,0:0:0:0:
217,353,59249,2,0,L|149:340,1,68.9999978942872,2|8,0:0|0:3,0:0:0:0:
65,40,59916,6,0,L|51:127,1,57.5,12|0,0:3|0:0,0:0:0:0:
5,212,60138,1,8,0:0:0:0:
50,209,60249,1,8,0:0:0:0:
96,206,60361,1,10,0:0:0:0:
244,241,60583,1,10,0:3:0:0:
195,40,60805,1,8,0:0:0:0:
468,87,61249,5,8,0:0:0:0:
409,124,61361,1,8,0:0:0:0:
376,185,61472,1,8,0:0:0:0:
371,253,61583,1,8,0:0:0:0:
430,217,61694,1,8,0:3:0:0:
55,96,61916,6,0,L|133:100,1,68.9999978942872,14|0,0:3|0:0,0:0:0:0:
188,150,62138,1,8,0:0:0:0:
256,196,62249,1,8,0:0:0:0:
329,156,62361,1,8,0:0:0:0:
334,73,62472,1,8,0:0:0:0:
259,109,62583,1,8,0:3:0:0:
433,331,62805,6,0,L|364:337,1,68.9999978942872,14|0,0:3|0:0,0:0:0:0:
299,286,63027,1,8,0:0:0:0:
231,238,63138,1,8,0:0:0:0:
156,274,63249,1,8,0:0:0:0:
150,357,63361,1,8,0:0:0:0:
224,321,63472,1,8,0:3:0:0:
439,69,63694,6,0,B|458:146|458:146|437:225,1,160.99999508667,14|8,0:0|0:3,0:0:0:0:
80,309,64138,2,0,B|61:232|61:232|81:152,1,160.99999508667,14|0,0:2|0:0,0:0:0:0:
310,361,64583,6,0,L|149:356,1,160.99999508667,14|8,0:0|0:3,0:0:0:0:
202,23,65027,2,0,L|363:28,1,160.99999508667,10|10,0:0|0:3,0:0:0:0:
275,117,65472,5,10,0:3:0:0:
332,215,65694,1,10,0:2:0:0:
186,131,65916,5,10,0:3:0:0:
268,277,66138,1,10,0:3:0:0:
99,149,66361,5,10,0:3:0:0:
198,333,66583,1,10,0:2:0:0:
76,272,66805,1,10,0:3:0:0:
419,253,67027,5,14,0:3:0:0:
99,149,67472,1,10,0:3:0:0:
462,45,67916,1,8,0:3:0:0:
50,200,68805,6,0,P|88:198|126:192,1,74.7499965782167,14|0,0:3|0:0,0:0:0:0:
186,35,69027,2,0,P|168:68|154:104,1,74.7499965782167,10|0,0:0|0:0,0:0:0:0:
261,236,69249,2,0,P|240:204|217:175,1,74.7499965782167,10|8,0:3|0:3,0:0:0:0:
96,286,69472,5,10,0:0:0:0:
59,358,69583,2,0,B|101:375|136:367|127:349|162:340|205:358,1,149.499993156433,10|8,0:3|0:3,0:0:0:0:
360,215,69916,1,10,0:0:0:0:
385,268,70027,1,2,0:0:0:0:
357,322,70138,2,0,L|275:317,1,74.7499965782167,10|8,0:3|0:3,0:0:0:0:
50,200,70361,2,0,L|132:195,1,74.7499965782167,8|0,0:0|0:0,0:0:0:0:
131,359,70583,6,0,P|137:323|162:277,1,74.7499965782167,10|0,0:3|0:0,0:0:0:0:
259,140,70805,2,0,P|275:173|281:210,1,74.7499965782167,10|0,0:0|0:0,0:0:0:0:
403,356,71027,2,0,P|409:319|425:285,1,74.7499965782167,10|8,0:3|0:3,0:0:0:0:
444,99,71249,5,10,0:0:0:0:
497,172,71361,2,0,P|425:188|365:144,1,149.499993156433,10|8,0:3|0:3,0:0:0:0:
267,49,71694,2,0,P|250:82|244:119,1,74.7499965782167,10|0,0:0|0:0,0:0:0:0:
148,121,71916,2,0,P|157:157|176:189,1,74.7499965782167,10|8,0:3|0:3,0:0:0:0:
120,267,72138,2,0,P|159:284|199:282,1,74.7499965782167,10|0,0:0|0:0,0:0:0:0:
328,339,72361,6,0,B|367:345|367:345|402:337,1,74.7499965782167,14|0,0:3|0:0,0:0:0:0:
319,198,72583,2,0,B|294:226|294:226|281:267,1,74.7499965782167,10|0,0:0|0:0,0:0:0:0:
446,264,72805,2,0,B|433:228|433:228|397:190,1,74.7499965782167,10|8,0:3|0:3,0:0:0:0:
225,63,73027,5,10,0:0:0:0:
148,121,73138,2,0,B|200:117|200:117|241:132|241:132|298:128,1,149.499993156433,10|8,0:3|0:3,0:0:0:0:
424,195,73472,2,0,P|441:228|447:265,1,74.7499965782167,10|0,0:0|0:0,0:0:0:0:
340,330,73694,2,0,P|354:296|356:259,1,74.7499965782167,10|8,0:3|0:3,0:0:0:0:
136,196,73916,2,0,P|122:230|120:267,1,74.7499965782167,10|0,0:0|0:0,0:0:0:0:
204,384,74138,6,0,L|246:240,1,149.499993156433,10|8,0:3|0:2,0:0:0:0:
287,136,74472,1,8,0:3:0:0:
197,119,74583,2,0,L|300:227,1,149.499993156433,10|8,0:3|0:0,0:0:0:0:
434,250,74916,2,0,L|288:285,1,149.499993156433,14|8,0:3|0:3,0:0:0:0:
112,335,75249,5,8,0:0:0:0:
56,284,75361,1,8,0:0:0:0:
65,209,75472,1,8,0:0:0:0:
129,171,75583,1,8,0:0:0:0:
194,135,75694,1,8,0:0:0:0:
187,60,75805,1,8,0:0:0:0:
130,11,75916,6,0,L|212:7,1,74.7499965782167,14|0,0:3|0:0,0:0:0:0:
379,132,76138,2,0,L|392:55,1,74.7499965782167,10|0,0:0|0:0,0:0:0:0:
206,208,76361,2,0,L|193:131,1,74.7499965782167,10|8,0:3|0:3,0:0:0:0:
376,277,76583,5,10,0:0:0:0:
449,232,76694,2,0,L|298:240,1,149.499993156433,10|8,0:3|0:3,0:0:0:0:
122,339,77027,2,0,P|86:325|41:324,1,74.7499965782167,10|0,0:0|0:0,0:0:0:0:
206,208,77249,2,0,P|168:215|123:208,1,74.7499965782167,10|8,0:3|0:3,0:0:0:0:
236,336,77472,2,0,P|272:322|317:321,1,74.7499965782167,10|0,0:0|0:0,0:0:0:0:
449,308,77694,6,0,L|464:398,1,74.7499965782167,10|0,0:3|0:0,0:0:0:0:
304,210,77916,2,0,L|374:237,1,74.7499965782167,10|0,0:0|0:0,0:0:0:0:
484,101,78138,2,0,L|426:148,1,74.7499965782167,10|8,0:3|0:3,0:0:0:0:
245,135,78361,5,10,0:0:0:0:
220,43,78472,2,0,P|294:58|330:116,1,149.499993156433,10|8,0:3|0:3,0:0:0:0:
387,268,78805,2,0,P|415:294|462:310,1,74.7499965782167,10|0,0:0|0:0,0:0:0:0:
227,248,79027,2,0,P|194:268|145:276,1,74.7499965782167,10|8,0:3|0:3,0:0:0:0:
289,384,79249,2,0,L|301:310,1,74.7499965782167,10|0,0:0|0:0,0:0:0:0:
342,59,79472,6,0,L|318:207,1,149.499993156433,14|8,0:3|0:0,0:0:0:0:
150,96,79805,1,8,0:3:0:0:
135,121,79916,2,0,L|169:205,1,74.7499965782167,10|8,0:3|0:3,0:0:0:0:
52,279,80138,1,8,0:0:0:0:
65,308,80249,2,0,L|212:349,1,149.499993156433,8|8,0:3|0:3,0:0:0:0:
399,259,80583,2,0,P|330:240|269:279,1,149.499993156433,10|8,0:0|0:3,0:0:0:0:
483,299,80916,1,8,0:3:0:0:
483,299,81027,2,0,B|490:261|490:261|481:219,1,74.7499965782167,10|0,0:0|0:0,0:0:0:0:
421,83,81249,6,0,L|412:164,1,74.7499965782167,14|0,0:3|0:0,0:0:0:0:
259,205,81472,2,0,L|268:286,1,74.7499965782167,8|0,0:0|0:3,0:0:0:0:
329,118,81694,2,0,L|337:43,1,74.7499965782167,8|8,0:3|0:3,0:0:0:0:
168,185,81916,1,14,0:0:0:0:
168,185,82027,2,0,L|185:341,1,149.499993156433,8|8,0:3|0:3,0:0:0:0:
287,373,82361,5,8,0:0:0:0:
287,373,82472,1,8,0:0:0:0:
349,315,82583,5,8,0:0:0:0:
349,315,82694,1,8,0:0:0:0:
421,367,82805,5,8,0:0:0:0:
464,355,82916,1,8,0:0:0:0:
503,368,83027,6,0,L|508:277,1,92,14|8,0:3|0:3,0:0:0:0:
339,46,83472,2,0,L|344:137,1,92,8|8,0:0|0:3,0:0:0:0:
502,170,83916,2,0,B|411:171|441:246|338:246,1,184,10|14,0:3|0:0,0:0:0:0:
9,368,84805,6,0,L|4:277,1,92,14|8,0:3|0:3,0:0:0:0:
173,46,85249,2,0,L|168:137,1,92,8|8,0:0|0:3,0:0:0:0:
10,170,85694,2,0,B|101:171|71:246|174:246,1,184,10|14,0:3|0:0,0:0:0:0:
320,32,86583,5,12,0:3:0:0:
192,64,86805,1,10,0:3:0:0:
352,128,87027,1,10,0:3:0:0:
160,160,87249,1,10,0:3:0:0:
384,224,87472,5,10,0:3:0:0:
384,256,87694,1,0,0:3:0:0:
128,256,87916,5,14,0:2:0:0:
352,128,88138,1,8,0:3:0:0:
322,357,88361,1,14,0:0:0:0:
277,246,88583,2,8,L|256:288,3,38.3333333333333,8|8|8|8,0:3|0:3|0:3|0:3,0:3:0:0:
352,128,89027,6,0,B|301:142|259:118|259:118|237:145|237:145|188:124|132:140,1,230,14|8,0:3|0:3,0:0:0:0:
21,279,89694,1,8,0:0:0:0:
13,312,89805,1,8,0:0:0:0:
25,344,89916,2,0,L|98:342,1,57.5,8|0,0:3|0:0,0:0:0:0:
200,341,90138,5,12,0:3:0:0:
200,341,90361,2,0,P|193:259|197:184,1,137.999995788574,10|10,0:0|0:3,0:0:0:0:
251,107,90694,1,8,0:3:0:0:
251,107,90805,2,0,L|334:99,1,68.9999978942872,10|8,0:0|0:3,0:0:0:0:
433,24,91027,2,0,L|350:16,1,68.9999978942872,2|0,0:0|0:0,0:0:0:0:
348,191,91249,6,0,L|341:259,1,68.9999978942872,10|0,0:0|0:0,0:0:0:0:
477,172,91472,2,0,L|470:103,1,68.9999978942872,10|8,0:3|0:3,0:0:0:0:
268,41,91694,2,0,B|238:77|238:77|247:179,1,137.999995788574,10|8,0:0|0:3,0:0:0:0:
175,351,92138,6,0,B|169:310|169:310|186:265,1,80.499997543335,10|0,0:0|0:0,0:0:0:0:
278,291,92361,2,0,B|283:331|283:331|266:376,1,80.499997543335,10|8,0:3|0:3,0:0:0:0:
71,173,92583,6,0,B|111:167|111:167|156:184,1,80.499997543335,10|8,0:0|0:3,0:0:0:0:
306,125,92805,2,0,B|321:86|321:86|358:56,1,80.499997543335,2|0,0:0|0:0,0:0:0:0:
202,31,93027,6,0,B|216:67|216:67|210:108,1,80.499997543335,8|0,0:0|0:0,0:0:0:0:
339,216,93249,2,0,B|375:201|375:201|416:207,1,80.499997543335,10|8,0:3|0:3,0:0:0:0:
175,351,93472,6,0,B|169:310|169:310|182:273,1,80.499997543335,10|0,0:0|0:0,0:0:0:0:
278,291,93694,2,0,B|284:332|284:332|270:368,1,80.499997543335,14|0,0:3|0:0,0:0:0:0:
339,216,93916,5,8,0:3:0:0:
399,241,94027,1,8,0:3:0:0:
457,212,94138,1,8,0:2:0:0:
464,148,94249,1,8,0:2:0:0:
418,102,94361,1,8,0:2:0:0:
355,114,94472,1,8,0:2:0:0:
309,158,94583,1,8,0:2:0:0:
261,200,94694,1,8,0:2:0:0:
197,203,94805,1,8,0:2:0:0:
143,168,94916,1,8,0:2:0:0:
133,104,95027,1,8,0:2:0:0:
179,58,95138,1,8,0:2:0:0:
203,118,95249,1,10,0:3:0:0:
203,118,97249,5,2,0:3:0:0:
203,118,97472,1,2,0:3:0:0:
203,118,97694,2,0,B|194:188|194:188|231:251,1,137.999995788574,10|8,0:3|0:0,0:0:0:0:
301,314,98027,1,8,0:3:0:0:
301,314,98138,2,0,P|242:343|166:321,2,137.999995788574,2|8|8,0:3|0:0|0:3,0:0:0:0:
367,248,98694,1,8,0:3:0:0:
367,248,98805,2,0,B|375:212|375:212|366:172,1,68.9999978942872,8|0,0:0|0:0,0:0:0:0:
466,45,99027,6,0,P|442:110|471:178,1,137.999995788574,10|8,0:3|0:0,0:0:0:0:
191,249,99472,2,0,P|257:260|300:313,1,137.999995788574,10|8,0:3|0:0,0:0:0:0:
292,25,99916,2,0,P|248:76|181:87,1,137.999995788574,2|8,0:3|0:0,0:0:0:0:
60,265,100361,1,10,0:3:0:0:
40,214,100472,1,8,0:0:0:0:
63,163,100583,2,0,L|135:176,1,68.9999978942872,8|0,0:0|0:0,0:0:0:0:
322,235,100805,6,0,B|253:222|253:222|177:254,1,137.999995788574,12|8,0:3|0:0,0:0:0:0:
120,345,101138,1,8,0:3:0:0:
120,345,101249,2,0,B|216:345|216:345|262:325,1,137.999995788574,10|8,0:3|0:0,0:0:0:0:
384,300,101583,1,8,0:3:0:0:
384,300,101694,2,0,P|411:238|389:175,2,137.999995788574,2|8|8,0:0|0:0|0:3,0:0:0:0:
253,235,102249,1,8,0:3:0:0:
253,235,102361,2,0,B|330:235,1,68.9999978942872,8|0,0:0|0:0,0:0:0:0:
208,155,102583,6,0,B|211:119|211:119|225:89,1,68.9999978942872,14|0,0:3|0:0,0:0:0:0:
156,229,102805,2,0,B|122:232|122:232|90:246,1,68.9999978942872,8|0,0:0|0:0,0:0:0:0:
117,146,103027,1,10,0:0:0:0:
105,137,103138,1,8,0:0:0:0:
95,128,103249,1,8,0:3:0:0:
85,120,103361,1,8,0:3:0:0:
76,109,103472,6,0,B|74:88|49:68|49:68|81:79|104:77,1,103.499996841431,14|0,0:3|0:0,0:0:0:0:
210,52,103916,2,0,B|193:117|207:168|207:168|156:181|103:237,1,241.499992630005,14|0,0:2|0:0,0:0:0:0:
37,297,104361,6,0,B|187:285,1,137.999995788574,12|8,0:3|0:0,0:0:0:0:
293,227,104694,1,8,0:3:0:0:
293,227,104805,2,0,P|258:286|273:353,1,137.999995788574,10|8,0:3|0:0,0:0:0:0:
347,301,105138,1,8,0:3:0:0:
347,301,105249,2,0,B|395:297|395:297|426:280|426:280|484:275,2,137.999995788574,2|8|8,0:0|0:0|0:3,0:0:0:0:
381,207,105805,1,8,0:3:0:0:
381,207,105916,2,0,B|372:173|372:173|378:136,1,68.9999978942872,8|0,0:0|0:0,0:0:0:0:
251,42,106138,6,0,P|294:97|271:167,1,137.999995788574,10|8,0:3|0:0,0:0:0:0:
70,100,106583,2,0,P|93:37|157:17,1,137.999995788574,10|8,0:3|0:0,0:0:0:0:
205,228,107027,2,0,B|164:226|135:239|135:239|125:212|84:185,1,137.999995788574,2|8,0:0|0:0,0:0:0:0:
368,353,107472,1,8,0:3:0:0:
389,302,107583,1,8,0:0:0:0:
366,253,107694,2,0,L|290:261,1,68.9999978942872,8|8,0:0|0:3,0:0:0:0:
377,138,107916,6,0,P|307:128|220:119,1,137.999995788574,12|8,0:3|0:0,0:0:0:0:
33,87,108361,1,8,0:3:0:0:
176,217,108583,2,0,P|101:298|91:190,1,275.999991577149,14|8,0:3|0:3,0:0:0:0:
319,24,109249,5,8,0:0:0:0:
372,88,109361,1,8,0:0:0:0:
318,150,109472,2,0,P|290:240|329:356,1,206.999993682861,14|0,0:3|0:0,0:0:0:0:
419,312,109916,5,8,0:0:0:0:
378,239,110027,1,8,0:0:0:0:
299,264,110138,1,8,0:0:0:0:
269,186,110249,1,8,0:0:0:0:
193,221,110361,2,0,P|71:234|75:112,1,275.999991577149,12|8,0:3|0:3,0:0:0:0:
404,19,111027,5,8,0:0:0:0:
361,21,111138,1,8,0:0:0:0:
319,24,111249,1,8,0:0:0:0:
277,27,111361,1,8,0:0:0:0:
236,30,111472,5,14,0:3:0:0:
236,30,111916,5,10,0:3:0:0:
299,264,112138,1,10,0:3:0:0:
142,92,112361,5,10,0:3:0:0:
418,222,112583,1,10,0:3:0:0:
122,281,112805,5,10,0:3:0:0:
403,113,113027,1,10,0:0:0:0:
403,113,113472,5,10,0:0:0:0:
91,168,113694,1,10,0:0:0:0:
316,384,113916,1,10,0:0:0:0:
236,30,114138,5,8,0:2:0:0:
194,66,114249,1,8,0:2:0:0:
188,121,114361,1,8,0:2:0:0:
219,166,114472,1,8,0:2:0:0:
271,182,114583,1,8,0:2:0:0:
309,221,114694,1,8,0:2:0:0:
315,275,114805,1,8,0:2:0:0:
287,322,114916,1,8,0:2:0:0:
287,322,115472,5,14,0:3:0:0:
256,192,115583,12,2,119212,1:3:0:0:
