osu file format v14

[General]
AudioFilename: Tomodachi Tsukuritai - Zannenkei Rinjinbu (TV Size).mp3
AudioLeadIn: 0
PreviewTime: 60288
Countdown: 0
SampleSet: Normal
StackLeniency: 0.6
Mode: 1
LetterboxInBreaks: 0
WidescreenStoryboard: 0

[Editor]
DistanceSpacing: 0.5
BeatDivisor: 4
GridSize: 4
TimelineZoom: 0.9

[Metadata]
Title:Zannenkei Rinjinbu Hoshi Futatsuhan
TitleUnicode:残念系隣人部★★☆
Artist:Tomodachi Tsukuritai
ArtistUnicode:友達つくり隊
Creator:streeteelf
Version:Futsuu
Source:僕は友達が少ない
Tags:星二つ半 Boku wa Tomodachi ga Sukunai i dont have many friends haganai 井上麻里奈 Marina Inoue 伊藤かな恵 Kanae Itō 山本希望 Nozomi Yamamoto 福圓美里 Misato Fukuen 花澤香菜 Kana Hanazawa 井口裕香 Yuka Iguchi -Jamu-
BeatmapID:453413
BeatmapSetID:189553

[Difficulty]
HPDrainRate:7
CircleSize:5
OverallDifficulty:4
ApproachRate:4
SliderMultiplier:1.4
SliderTickRate:1

[Events]
//Background and Video events
0,0,"Boku wa Tomodachi.jpg",0,120
//Break Periods
//Storyboard Layer 0 (Background)
//Storyboard Layer 1 (Fail)
//Storyboard Layer 2 (Pass)
//Storyboard Layer 3 (Foreground)
//Storyboard Sound Samples

[TimingPoints]
2995,451.127819548872,4,1,0,80,1,0
60739,-100,4,1,0,80,0,1
78784,-100,4,1,0,80,0,0

[Colours]
Combo1 : 255,192,0
Combo2 : 160,113,65
Combo3 : 0,255,255
Combo4 : 242,24,57

[HitObjects]
240,140,2994,5,0,0:0:0:0:
240,140,3897,1,8,0:0:0:0:
240,140,4799,1,0,0:0:0:0:
240,140,5701,1,8,0:0:0:0:
240,136,6604,1,0,0:0:0:0:
240,136,7055,1,0,0:0:0:0:
240,136,7506,1,8,0:0:0:0:
240,136,8408,1,2,0:0:0:0:
240,136,8859,1,0,0:0:0:0:
240,136,9310,1,2,0:0:0:0:
240,136,10213,1,4,0:0:0:0:
240,136,11115,1,2,0:0:0:0:
240,136,11566,1,2,0:0:0:0:
240,136,12017,1,0,0:0:0:0:
240,136,12919,1,2,0:0:0:0:
240,136,13370,1,2,0:0:0:0:
240,136,13822,1,0,0:0:0:0:
240,136,14724,1,0,0:0:0:0:
240,136,15626,1,4,0:0:0:0:
240,136,16077,1,4,0:0:0:0:
240,136,16528,1,6,0:0:0:0:
240,136,16979,1,4,0:0:0:0:
240,136,17431,1,6,0:0:0:0:
240,136,19235,1,2,0:0:0:0:
240,136,19912,1,0,0:0:0:0:
240,136,20588,1,6,0:0:0:0:
240,136,21040,1,0,0:0:0:0:
240,136,21942,1,0,0:0:0:0:
240,136,22844,1,2,0:0:0:0:
240,136,23746,1,2,0:0:0:0:
240,136,24649,1,2,0:0:0:0:
240,136,25100,1,0,0:0:0:0:
240,136,25551,1,2,0:0:0:0:
240,136,26002,1,0,0:0:0:0:
240,136,26453,1,0,0:0:0:0:
240,136,26904,1,2,0:0:0:0:
240,136,27243,1,2,0:0:0:0:
256,192,27807,12,0,29611,0:0:0:0:
240,128,30062,5,0,0:0:0:0:
240,128,30513,1,2,0:0:0:0:
240,128,30964,1,0,0:0:0:0:
240,128,31416,1,2,0:0:0:0:
240,128,32318,1,2,0:0:0:0:
240,128,32769,1,0,0:0:0:0:
240,128,33220,1,2,0:0:0:0:
240,128,33671,1,0,0:0:0:0:
240,128,34573,1,0,0:0:0:0:
240,128,34912,1,0,0:0:0:0:
240,128,35250,1,0,0:0:0:0:
240,128,35476,1,2,0:0:0:0:
240,128,36378,1,2,0:0:0:0:
240,128,36716,1,2,0:0:0:0:
240,128,37055,1,2,0:0:0:0:
240,128,37280,1,4,0:0:0:0:
240,128,37731,1,2,0:0:0:0:
240,128,38634,1,0,0:0:0:0:
240,128,39085,1,2,0:0:0:0:
240,128,39536,1,0,0:0:0:0:
240,128,40438,1,2,0:0:0:0:
240,128,40889,1,0,0:0:0:0:
240,128,41791,1,0,0:0:0:0:
240,128,42130,1,0,0:0:0:0:
240,128,42468,1,0,0:0:0:0:
240,128,42694,1,2,0:0:0:0:
240,128,43596,1,2,0:0:0:0:
240,128,43934,1,2,0:0:0:0:
240,128,44273,1,2,0:0:0:0:
240,128,44498,1,4,0:0:0:0:
240,128,44949,1,0,0:0:0:0:
240,128,45852,1,2,0:0:0:0:
240,128,46303,1,0,0:0:0:0:
240,128,46754,1,0,0:0:0:0:
240,128,47205,1,2,0:0:0:0:
240,128,47656,1,6,0:0:0:0:
240,128,48107,1,8,0:0:0:0:
240,128,48333,1,2,0:0:0:0:
240,128,48558,1,0,0:0:0:0:
240,128,49010,1,0,0:0:0:0:
240,128,49461,1,2,0:0:0:0:
240,128,49912,1,0,0:0:0:0:
240,128,50137,1,0,0:0:0:0:
240,128,50363,1,2,0:0:0:0:
256,188,50814,1,0,0:0:0:0:
256,188,51716,1,0,0:0:0:0:
256,188,52619,5,2,0:0:0:0:
256,188,53070,1,0,0:0:0:0:
256,188,53521,1,2,0:0:0:0:
256,188,53972,1,0,0:0:0:0:
256,188,54423,1,2,0:0:0:0:
256,188,54874,1,8,0:0:0:0:
256,188,55551,1,8,0:0:0:0:
256,188,55776,1,0,0:0:0:0:
256,188,56228,1,0,0:0:0:0:
256,188,56679,1,8,0:0:0:0:
256,192,56904,12,0,58483,0:0:0:0:
252,192,58934,5,0,0:0:0:0:
252,192,59273,1,0,0:0:0:0:
252,192,59837,1,0,0:0:0:0:
252,192,60739,1,6,0:0:0:0:
252,192,61190,1,0,0:0:0:0:
252,192,61641,1,2,0:0:0:0:
252,192,61867,1,2,0:0:0:0:
252,192,62092,1,2,0:0:0:0:
252,192,62543,1,0,0:0:0:0:
252,192,62769,1,0,0:0:0:0:
248,188,62994,1,0,0:0:0:0:
248,188,63446,1,2,0:0:0:0:
248,188,63671,1,8,0:0:0:0:
248,188,63897,1,0,0:0:0:0:
248,188,64799,1,0,0:0:0:0:
248,188,65250,1,8,0:0:0:0:
248,188,65701,1,2,0:0:0:0:
248,188,66152,1,0,0:0:0:0:
248,188,66378,1,0,0:0:0:0:
248,188,66604,1,0,0:0:0:0:
248,188,67055,1,2,0:0:0:0:
248,188,67506,1,2,0:0:0:0:
248,188,67957,1,4,0:0:0:0:
248,188,68408,1,0,0:0:0:0:
248,188,68859,1,2,0:0:0:0:
248,188,69085,1,2,0:0:0:0:
248,188,69310,1,2,0:0:0:0:
248,188,69761,1,0,0:0:0:0:
248,188,69987,1,0,0:0:0:0:
248,188,70213,1,2,0:0:0:0:
248,188,70664,1,2,0:0:0:0:
248,188,70889,1,2,0:0:0:0:
248,188,71115,1,2,0:0:0:0:
248,188,72017,1,0,0:0:0:0:
248,188,72468,1,8,0:0:0:0:
248,188,72694,1,2,0:0:0:0:
248,188,72919,1,2,0:0:0:0:
248,188,73370,1,4,0:0:0:0:
248,188,73822,1,4,0:0:0:0:
248,188,74273,1,6,0:0:0:0:
248,188,74724,1,6,0:0:0:0:
256,192,75175,12,0,76528,0:0:0:0:
256,192,76979,5,0,0:0:0:0:
256,192,77656,1,0,0:0:0:0:
256,192,78333,1,2,0:0:0:0:
248,188,78784,5,0,0:0:0:0:
248,188,79122,1,0,0:0:0:0:
248,188,79461,1,0,0:0:0:0:
248,188,79799,1,0,0:0:0:0:
248,188,80137,1,2,0:0:0:0:
248,188,80588,1,0,0:0:0:0:
248,188,81040,1,0,0:0:0:0:
248,188,81491,1,0,0:0:0:0:
248,188,81716,1,0,0:0:0:0:
248,188,81942,1,2,0:0:0:0:
248,188,82393,1,0,0:0:0:0:
248,188,82844,1,0,0:0:0:0:
248,188,83746,1,6,0:0:0:0:
248,188,84198,1,0,0:0:0:0:
248,188,84649,1,0,0:0:0:0:
248,188,85100,1,2,0:0:0:0:
248,188,85325,1,2,0:0:0:0:
248,188,85551,1,0,0:0:0:0:
248,188,86002,1,0,0:0:0:0:
248,188,86453,1,0,0:0:0:0:
248,188,87355,1,6,0:0:0:0:
248,188,87807,1,0,0:0:0:0:
248,188,88258,1,0,0:0:0:0:
248,188,88709,1,2,0:0:0:0:
248,188,88934,1,2,0:0:0:0:
248,188,89160,1,0,0:0:0:0:
