osu file format v14

[General]
AudioFilename: audio.mp3
AudioLeadIn: 0
PreviewTime: 59548
Countdown: 0
SampleSet: None
StackLeniency: 0.7
Mode: 3
LetterboxInBreaks: 0
SpecialStyle: 0
WidescreenStoryboard: 0

[Editor]
DistanceSpacing: 1.2
BeatDivisor: 4
GridSize: 4
TimelineZoom: 1.2

[Metadata]
Title:Zannenkei Rinjinbu (Hoshi Futatsu Han)
TitleUnicode:Zannenkei Rinjinbu (Hoshi Futatsu Han)
Artist:Tomodachi Tsukuritai
ArtistUnicode:Tomodachi Tsukuritai
Creator:SeonRae
Version:KSR
Source:
Tags:
BeatmapID:1551415
BeatmapSetID:734866

[Difficulty]
HPDrainRate:8
CircleSize:7
OverallDifficulty:8
ApproachRate:5
SliderMultiplier:1.4
SliderTickRate:1

[Events]
//Background and Video events
//Break Periods
//Storyboard Layer 0 (Background)
//Storyboard Layer 1 (Fail)
//Storyboard Layer 2 (Pass)
//Storyboard Layer 3 (Foreground)
//Storyboard Sound Samples

[TimingPoints]
0,451.127819548872,4,3,0,30,1,0
9022,-40,4,3,0,30,0,0
9050,-333.333333333333,4,3,0,30,0,0
9248,-40,4,3,0,30,0,0
9276,-333.333333333333,4,3,0,30,0,0
9473,-40,4,3,0,30,0,0
9501,-333.333333333333,4,3,0,30,0,0
9699,-40,4,3,0,30,0,0
9727,-333.333333333333,4,3,0,30,0,0
9924,-100,4,3,0,30,0,0
10150,-40,4,3,0,30,0,0
10178,-333.333333333333,4,3,0,30,0,0
10263,-40,4,3,0,30,0,0
10291,-333.333333333333,4,3,0,30,0,0
10375,-40,4,3,0,30,0,0
10404,-333.333333333333,4,3,0,30,0,0
10488,-40,4,3,0,30,0,0
10516,-333.333333333333,4,3,0,30,0,0
10601,-40,4,3,0,30,0,0
10629,-333.333333333333,4,3,0,30,0,0
10714,-40,4,3,0,30,0,0
10742,-333.333333333333,4,3,0,30,0,0
10827,-100,4,3,0,30,0,0
16240,-40,4,3,0,30,0,0
16353,-333.333333333333,4,3,0,30,0,0
16691,-40,4,3,0,30,0,0
16804,-333.333333333333,4,3,0,30,0,0
17142,-40,4,3,0,30,0,0
17255,-333.333333333333,4,3,0,30,0,0
17593,-40,4,3,0,30,0,0
17706,-333.333333333333,4,3,0,30,0,0
18045,-100,4,3,0,30,0,0

[HitObjects]
109,192,1127,128,0,3609:0:0:0:0:
402,192,1127,128,0,3609:0:0:0:0:
475,192,3609,1,0,0:0:0:0:
329,192,3609,1,0,0:0:0:0:
36,192,3609,1,0,0:0:0:0:
256,192,3721,1,0,0:0:0:0:
402,192,3721,1,0,0:0:0:0:
475,192,3834,1,0,0:0:0:0:
109,192,3947,1,0,0:0:0:0:
256,192,3947,1,0,0:0:0:0:
182,192,4060,1,0,0:0:0:0:
329,192,4060,1,0,0:0:0:0:
36,192,4172,1,0,0:0:0:0:
109,192,4285,1,0,0:0:0:0:
256,192,4285,1,0,0:0:0:0:
182,192,4511,1,0,0:0:0:0:
329,192,4511,1,0,0:0:0:0:
402,192,4511,1,0,0:0:0:0:
109,192,4624,1,0,0:0:0:0:
256,192,4736,1,0,0:0:0:0:
402,192,4736,1,0,0:0:0:0:
329,192,4849,1,0,0:0:0:0:
475,192,4849,1,0,0:0:0:0:
256,192,4962,1,0,0:0:0:0:
36,192,5075,1,0,0:0:0:0:
182,192,5075,1,0,0:0:0:0:
109,192,5187,1,0,0:0:0:0:
256,192,5187,1,0,0:0:0:0:
475,192,5413,1,0,0:0:0:0:
329,192,5413,1,0,0:0:0:0:
36,192,5413,1,0,0:0:0:0:
402,192,5526,1,0,0:0:0:0:
256,192,5526,1,0,0:0:0:0:
36,192,5639,1,0,0:0:0:0:
109,192,5639,1,0,0:0:0:0:
329,192,5639,1,0,0:0:0:0:
182,192,5751,1,0,0:0:0:0:
256,192,5864,1,0,0:0:0:0:
475,192,5864,1,0,0:0:0:0:
402,192,6090,1,0,0:0:0:0:
475,192,6090,1,0,0:0:0:0:
36,192,6090,1,0,0:0:0:0:
182,192,6090,1,0,0:0:0:0:
182,192,6315,1,0,0:0:0:0:
329,192,6315,1,0,0:0:0:0:
109,192,6315,1,0,0:0:0:0:
36,192,6541,1,0,0:0:0:0:
109,192,6541,1,0,0:0:0:0:
329,192,6541,1,0,0:0:0:0:
402,192,6654,1,0,0:0:0:0:
256,192,6654,1,0,0:0:0:0:
475,192,6766,1,0,0:0:0:0:
329,192,6766,1,0,0:0:0:0:
36,192,6879,1,0,0:0:0:0:
182,192,6879,1,0,0:0:0:0:
109,192,6992,1,0,0:0:0:0:
256,192,6992,1,0,0:0:0:0:
402,192,6992,1,0,0:0:0:0:
475,192,6992,1,0,0:0:0:0:
475,192,7218,1,0,0:0:0:0:
329,192,7218,1,0,0:0:0:0:
109,192,7218,1,0,0:0:0:0:
182,192,7218,1,0,0:0:0:0:
402,192,7330,1,0,0:0:0:0:
256,192,7330,1,0,0:0:0:0:
36,192,7443,1,0,0:0:0:0:
109,192,7443,1,0,0:0:0:0:
475,192,7556,1,0,0:0:0:0:
329,192,7556,1,0,0:0:0:0:
182,192,7669,1,0,0:0:0:0:
109,192,7669,1,0,0:0:0:0:
402,192,7669,1,0,0:0:0:0:
329,192,7781,1,0,0:0:0:0:
256,192,7781,1,0,0:0:0:0:
36,192,7894,1,0,0:0:0:0:
109,192,7894,1,0,0:0:0:0:
329,192,8007,1,0,0:0:0:0:
402,192,8007,1,0,0:0:0:0:
36,192,8120,1,0,0:0:0:0:
182,192,8120,1,0,0:0:0:0:
256,192,8176,1,0,0:0:0:0:
329,192,8233,1,0,0:0:0:0:
402,192,8289,1,0,0:0:0:0:
109,192,8345,1,0,0:0:0:0:
256,192,8345,1,0,0:0:0:0:
475,192,8345,1,0,0:0:0:0:
36,192,8402,1,0,0:0:0:0:
182,192,8458,1,0,0:0:0:0:
329,192,8458,1,0,0:0:0:0:
402,192,8458,1,0,0:0:0:0:
475,192,8515,1,0,0:0:0:0:
36,192,8571,1,0,0:0:0:0:
109,192,8627,1,0,0:0:0:0:
256,192,8684,1,0,0:0:0:0:
402,192,8684,1,0,0:0:0:0:
182,192,8684,1,0,0:0:0:0:
36,192,8740,1,0,0:0:0:0:
329,192,8796,1,0,0:0:0:0:
475,192,8796,1,0,0:0:0:0:
109,192,8796,1,0,0:0:0:0:
182,192,8853,1,0,0:0:0:0:
256,192,8909,1,0,0:0:0:0:
402,192,8966,1,0,0:0:0:0:
36,192,9022,1,0,0:0:0:0:
182,192,9022,1,0,0:0:0:0:
329,192,9022,1,0,0:0:0:0:
475,192,9022,1,0,0:0:0:0:
256,192,9248,1,0,0:0:0:0:
182,192,9248,1,0,0:0:0:0:
36,192,9248,1,0,0:0:0:0:
475,192,9248,1,0,0:0:0:0:
329,192,9473,1,0,0:0:0:0:
182,192,9473,1,0,0:0:0:0:
475,192,9473,1,0,0:0:0:0:
36,192,9473,1,0,0:0:0:0:
36,192,9699,1,0,0:0:0:0:
256,192,9699,1,0,0:0:0:0:
329,192,9699,1,0,0:0:0:0:
475,192,9699,1,0,0:0:0:0:
36,192,9924,1,0,0:0:0:0:
109,192,9924,1,0,0:0:0:0:
475,192,9924,1,0,0:0:0:0:
402,192,9924,1,0,0:0:0:0:
256,192,10150,1,0,0:0:0:0:
256,192,10263,1,0,0:0:0:0:
256,192,10375,1,0,0:0:0:0:
256,192,10488,1,0,0:0:0:0:
256,192,10601,1,0,0:0:0:0:
256,192,10714,1,0,0:0:0:0:
256,192,10827,1,0,0:0:0:0:
36,192,10827,1,0,0:0:0:0:
109,192,10827,1,0,0:0:0:0:
329,192,10827,128,0,11052:0:0:0:0:
475,192,10827,128,0,11052:0:0:0:0:
402,192,10827,1,0,0:0:0:0:
109,192,11052,1,0,0:0:0:0:
182,192,11052,1,0,0:0:0:0:
402,192,11278,128,0,11503:0:0:0:0:
475,192,11278,128,0,11503:0:0:0:0:
36,192,11278,1,0,0:0:0:0:
182,192,11278,1,0,0:0:0:0:
256,192,11278,1,0,0:0:0:0:
36,192,11503,1,0,0:0:0:0:
182,192,11616,128,0,11842:0:0:0:0:
109,192,11616,128,0,11842:0:0:0:0:
36,192,11842,1,0,0:0:0:0:
256,192,11842,1,0,0:0:0:0:
109,192,11954,1,0,0:0:0:0:
329,192,11954,1,0,0:0:0:0:
182,192,12067,1,0,0:0:0:0:
402,192,12067,1,0,0:0:0:0:
36,192,12180,1,0,0:0:0:0:
475,192,12180,128,0,12406:0:0:0:0:
256,192,12180,128,0,12406:0:0:0:0:
109,192,12406,1,0,0:0:0:0:
182,192,12406,1,0,0:0:0:0:
36,192,12631,1,0,0:0:0:0:
182,192,12631,1,0,0:0:0:0:
329,192,12631,1,0,0:0:0:0:
109,192,12857,1,0,0:0:0:0:
182,192,12857,1,0,0:0:0:0:
256,192,12857,1,0,0:0:0:0:
402,192,12857,1,0,0:0:0:0:
475,192,13082,1,0,0:0:0:0:
329,192,13082,1,0,0:0:0:0:
36,192,13082,1,0,0:0:0:0:
329,192,13308,1,0,0:0:0:0:
182,192,13308,1,0,0:0:0:0:
36,192,13308,1,0,0:0:0:0:
402,192,13421,128,0,13646:0:0:0:0:
475,192,13421,128,0,13646:0:0:0:0:
329,192,13646,1,0,0:0:0:0:
256,192,13646,1,0,0:0:0:0:
36,192,13759,1,0,0:0:0:0:
109,192,13759,1,0,0:0:0:0:
256,192,13872,1,0,0:0:0:0:
182,192,13872,1,0,0:0:0:0:
402,192,13984,1,0,0:0:0:0:
36,192,13984,128,0,14436:0:0:0:0:
329,192,14041,1,0,0:0:0:0:
256,192,14097,1,0,0:0:0:0:
182,192,14154,1,0,0:0:0:0:
475,192,14210,1,0,0:0:0:0:
402,192,14266,1,0,0:0:0:0:
329,192,14323,1,0,0:0:0:0:
256,192,14379,1,0,0:0:0:0:
109,192,14436,1,0,0:0:0:0:
182,192,14436,1,0,0:0:0:0:
475,192,14436,128,0,14661:0:0:0:0:
109,192,14661,1,0,0:0:0:0:
329,192,14661,1,0,0:0:0:0:
402,192,14661,1,0,0:0:0:0:
182,192,14774,1,0,0:0:0:0:
256,192,14887,1,0,0:0:0:0:
36,192,14887,128,0,15112:0:0:0:0:
475,192,14887,1,0,0:0:0:0:
329,192,14999,1,0,0:0:0:0:
402,192,15112,1,0,0:0:0:0:
475,192,15112,1,0,0:0:0:0:
109,192,15225,1,0,0:0:0:0:
182,192,15225,1,0,0:0:0:0:
256,192,15338,1,0,0:0:0:0:
475,192,15338,1,0,0:0:0:0:
402,192,15338,1,0,0:0:0:0:
182,192,15451,1,0,0:0:0:0:
36,192,15451,1,0,0:0:0:0:
109,192,15563,1,0,0:0:0:0:
475,192,15563,1,0,0:0:0:0:
329,192,15563,1,0,0:0:0:0:
36,192,15676,1,0,0:0:0:0:
256,192,15676,1,0,0:0:0:0:
182,192,15676,1,0,0:0:0:0:
329,192,15789,1,0,0:0:0:0:
402,192,15789,1,0,0:0:0:0:
182,192,15902,1,0,0:0:0:0:
109,192,15902,1,0,0:0:0:0:
402,192,16015,1,0,0:0:0:0:
475,192,16015,1,0,0:0:0:0:
256,192,16015,1,0,0:0:0:0:
36,192,16240,1,0,0:0:0:0:
109,192,16240,1,0,0:0:0:0:
182,192,16240,1,0,0:0:0:0:
256,192,16240,1,0,0:0:0:0:
109,192,16691,1,0,0:0:0:0:
256,192,16691,1,0,0:0:0:0:
329,192,16691,1,0,0:0:0:0:
182,192,16691,1,0,0:0:0:0:
182,192,17142,1,0,0:0:0:0:
256,192,17142,1,0,0:0:0:0:
329,192,17142,1,0,0:0:0:0:
402,192,17142,1,0,0:0:0:0:
256,192,17593,1,0,0:0:0:0:
402,192,17593,1,0,0:0:0:0:
475,192,17593,1,0,0:0:0:0:
329,192,17593,1,0,0:0:0:0:
36,192,18045,128,0,19398:0:0:0:0:
475,192,18045,128,0,19398:0:0:0:0:
329,192,18045,1,0,0:0:0:0:
402,192,18045,1,0,0:0:0:0:
109,192,18045,1,0,0:0:0:0:
182,192,18045,1,0,0:0:0:0:
256,192,18383,1,0,0:0:0:0:
402,192,18496,1,0,0:0:0:0:
109,192,18721,1,0,0:0:0:0:
256,192,18947,1,0,0:0:0:0:
402,192,19172,1,0,0:0:0:0:
256,192,19285,1,0,0:0:0:0:
402,192,19398,1,0,0:0:0:0:
329,192,19454,1,0,0:0:0:0:
109,192,19454,1,0,0:0:0:0:
182,192,19511,1,0,0:0:0:0:
402,192,19567,1,0,0:0:0:0:
329,192,19624,1,0,0:0:0:0:
109,192,19624,1,0,0:0:0:0:
182,192,19680,1,0,0:0:0:0:
402,192,19736,1,0,0:0:0:0:
329,192,19793,1,0,0:0:0:0:
109,192,19793,1,0,0:0:0:0:
182,192,19849,1,0,0:0:0:0:
256,192,19849,1,0,0:0:0:0:
475,192,19962,1,0,0:0:0:0:
182,192,20075,1,0,0:0:0:0:
109,192,20075,1,0,0:0:0:0:
475,192,20187,1,0,0:0:0:0:
109,192,20300,1,0,0:0:0:0:
36,192,20300,1,0,0:0:0:0:
475,192,20413,1,0,0:0:0:0:
329,192,20526,1,0,0:0:0:0:
256,192,20526,1,0,0:0:0:0:
182,192,20526,1,0,0:0:0:0:
36,192,20639,1,0,0:0:0:0:
329,192,20751,1,0,0:0:0:0:
402,192,20751,1,0,0:0:0:0:
36,192,20864,1,0,0:0:0:0:
402,192,20977,1,0,0:0:0:0:
475,192,20977,1,0,0:0:0:0:
36,192,21090,1,0,0:0:0:0:
109,192,21203,128,0,21428:0:0:0:0:
256,192,21203,128,0,21428:0:0:0:0:
402,192,21203,128,0,21428:0:0:0:0:
36,192,21654,128,0,21879:0:0:0:0:
182,192,21654,128,0,21879:0:0:0:0:
329,192,21654,128,0,21879:0:0:0:0:
475,192,21654,128,0,21879:0:0:0:0:
256,192,21654,1,0,0:0:0:0:
402,192,21654,1,0,0:0:0:0:
109,192,22105,128,0,22330:0:0:0:0:
182,192,22105,128,0,22330:0:0:0:0:
402,192,22105,1,0,0:0:0:0:
475,192,22105,1,0,0:0:0:0:
256,192,22330,1,0,0:0:0:0:
329,192,22556,1,0,0:0:0:0:
182,192,22556,1,0,0:0:0:0:
402,192,22669,1,0,0:0:0:0:
109,192,22669,1,0,0:0:0:0:
36,192,22669,1,0,0:0:0:0:
475,192,22781,1,0,0:0:0:0:
256,192,22781,1,0,0:0:0:0:
402,192,22894,1,0,0:0:0:0:
182,192,23007,1,0,0:0:0:0:
329,192,23007,1,0,0:0:0:0:
475,192,23007,1,0,0:0:0:0:
109,192,23120,1,0,0:0:0:0:
36,192,23233,1,0,0:0:0:0:
402,192,23233,1,0,0:0:0:0:
256,192,23345,1,0,0:0:0:0:
182,192,23458,1,0,0:0:0:0:
329,192,23458,128,0,23684:0:0:0:0:
475,192,23458,128,0,23684:0:0:0:0:
402,192,23458,1,0,0:0:0:0:
109,192,23571,1,0,0:0:0:0:
256,192,23684,1,0,0:0:0:0:
182,192,23796,1,0,0:0:0:0:
402,192,23909,128,0,24135:0:0:0:0:
475,192,23909,128,0,24135:0:0:0:0:
36,192,23909,1,0,0:0:0:0:
329,192,23909,1,0,0:0:0:0:
256,192,24022,1,0,0:0:0:0:
109,192,24135,1,0,0:0:0:0:
182,192,24248,1,0,0:0:0:0:
329,192,24360,1,0,0:0:0:0:
36,192,24360,1,0,0:0:0:0:
475,192,24360,1,0,0:0:0:0:
402,192,24473,1,0,0:0:0:0:
109,192,24473,1,0,0:0:0:0:
182,192,24473,1,0,0:0:0:0:
475,192,24586,1,0,0:0:0:0:
36,192,24586,1,0,0:0:0:0:
256,192,24699,1,0,0:0:0:0:
329,192,24812,1,0,0:0:0:0:
109,192,24812,1,0,0:0:0:0:
36,192,24812,1,0,0:0:0:0:
402,192,24924,1,0,0:0:0:0:
182,192,25037,1,0,0:0:0:0:
329,192,25037,1,0,0:0:0:0:
256,192,25150,1,0,0:0:0:0:
402,192,25150,1,0,0:0:0:0:
475,192,25150,1,0,0:0:0:0:
329,192,25263,128,0,25488:0:0:0:0:
182,192,25263,128,0,25488:0:0:0:0:
36,192,25263,128,0,25488:0:0:0:0:
36,192,25601,1,0,0:0:0:0:
256,192,25601,1,0,0:0:0:0:
109,192,25714,128,0,25939:0:0:0:0:
182,192,25714,128,0,25939:0:0:0:0:
329,192,25714,128,0,25939:0:0:0:0:
256,192,26052,1,0,0:0:0:0:
109,192,26052,1,0,0:0:0:0:
402,192,26165,128,0,26390:0:0:0:0:
329,192,26165,128,0,26390:0:0:0:0:
182,192,26165,128,0,26390:0:0:0:0:
402,192,26503,1,0,0:0:0:0:
256,192,26503,1,0,0:0:0:0:
182,192,26616,128,0,26842:0:0:0:0:
329,192,26616,128,0,26842:0:0:0:0:
475,192,26616,128,0,26842:0:0:0:0:
475,192,26954,1,0,0:0:0:0:
256,192,26954,1,0,0:0:0:0:
109,192,27067,1,0,0:0:0:0:
182,192,27067,1,0,0:0:0:0:
329,192,27067,1,0,0:0:0:0:
402,192,27067,1,0,0:0:0:0:
182,192,27293,1,0,0:0:0:0:
109,192,27293,1,0,0:0:0:0:
329,192,27293,1,0,0:0:0:0:
402,192,27293,1,0,0:0:0:0:
36,192,27518,1,0,0:0:0:0:
475,192,27518,1,0,0:0:0:0:
329,192,27518,1,0,0:0:0:0:
182,192,27518,1,0,0:0:0:0:
182,192,27744,1,0,0:0:0:0:
329,192,27744,1,0,0:0:0:0:
109,192,27857,1,0,0:0:0:0:
256,192,27857,1,0,0:0:0:0:
402,192,27857,1,0,0:0:0:0:
329,192,28082,1,0,0:0:0:0:
182,192,28082,1,0,0:0:0:0:
36,192,28195,1,0,0:0:0:0:
475,192,28195,1,0,0:0:0:0:
109,192,28195,1,0,0:0:0:0:
402,192,28195,1,0,0:0:0:0:
36,192,28421,1,0,0:0:0:0:
329,192,28421,1,0,0:0:0:0:
402,192,28421,1,0,0:0:0:0:
109,192,28477,1,0,0:0:0:0:
182,192,28533,1,0,0:0:0:0:
475,192,28533,1,0,0:0:0:0:
256,192,28590,1,0,0:0:0:0:
402,192,28646,1,0,0:0:0:0:
329,192,28703,1,0,0:0:0:0:
256,192,28759,1,0,0:0:0:0:
182,192,28815,1,0,0:0:0:0:
109,192,28872,128,0,30676:0:0:0:0:
402,192,28872,128,0,30676:0:0:0:0:
475,192,28872,128,0,30676:0:0:0:0:
36,192,28872,128,0,30676:0:0:0:0:
182,192,30225,1,0,0:0:0:0:
256,192,30338,1,0,0:0:0:0:
329,192,30338,1,0,0:0:0:0:
182,192,30451,1,0,0:0:0:0:
256,192,30507,1,0,0:0:0:0:
329,192,30563,1,0,0:0:0:0:
182,192,30620,1,0,0:0:0:0:
256,192,30676,1,0,0:0:0:0:
