osu file format v14

[General]
AudioFilename: audio.ogg
AudioLeadIn: 0
PreviewTime: 49680
Countdown: 0
SampleSet: Soft
StackLeniency: 0.7
Mode: 0
LetterboxInBreaks: 0
WidescreenStoryboard: 1

[Editor]
Bookmarks: 23731,50009,78038,92052
DistanceSpacing: 0.3
BeatDivisor: 4
GridSize: 4
TimelineZoom: 1

[Metadata]
Title:monochrome rainbow (TV Size)
TitleUnicode:monochrome rainbow (TV Size)
Artist:Tommy heavenly6
ArtistUnicode:Tommy heavenly6
Creator:Fsjallink
Version:hard
Source:バクマン。
Tags:dopaminos japanese anime pop rock jrock jpop j-rock j-pop bakuman 2nd second season ed ending tomoko kawase 川瀬智子 february6
BeatmapID:4123021
BeatmapSetID:1984491

[Difficulty]
HPDrainRate:4
CircleSize:3.5
OverallDifficulty:6
ApproachRate:7.5
SliderMultiplier:1.4
SliderTickRate:1

[Events]
//Background and Video events
0,0,"bakuman..png",0,0
Video,185,"video.mp4"
//Break Periods
//Storyboard Layer 0 (Background)
//Storyboard Layer 1 (Fail)
//Storyboard Layer 2 (Pass)
//Storyboard Layer 3 (Foreground)
//Storyboard Layer 4 (Overlay)
//Storyboard Sound Samples

[TimingPoints]
953,437.956204379562,4,2,0,60,1,0
953,-100,4,2,0,60,0,0
8398,-111.111111111111,4,2,0,40,0,0
35989,-100,4,2,0,50,0,0
48252,-100,4,2,0,60,0,0
50004,-83.3333333333333,4,2,0,70,0,1
63142,-83.3333333333333,4,2,0,60,0,0
64018,-83.3333333333333,4,2,0,70,0,1
78033,-100,4,2,0,60,0,0
95551,-100,4,2,0,5,0,0

[Colours]
Combo1 : 17,254,176
Combo2 : 173,255,95
Combo3 : 255,88,100
Combo4 : 255,94,55

[HitObjects]
80,72,953,6,0,L|86:153,1,70,12|0,1:2|0:0,0:0:0:0:
182,98,1390,1,4,3:0:0:0:
44,40,1609,2,0,L|57:212,1,140,8|4,1:2|3:0,0:0:0:0:
140,280,2266,2,0,L|220:268,1,70,12|4,1:2|3:0,0:0:0:0:
140,280,2704,6,0,P|188:256|284:268,1,140,12|4,1:2|3:0,0:0:0:0:
364,320,3361,2,0,P|420:336|452:328,1,70,8|4,1:2|3:0,0:0:0:0:
496,272,3799,1,4,3:0:0:0:
428,192,4018,1,12,1:2:0:0:
488,108,4237,1,4,3:0:0:0:
488,108,4347,1,0,1:0:0:0:
488,108,4456,6,0,L|400:104,1,70,12|0,1:2|0:0,0:0:0:0:
324,152,4894,1,4,3:0:0:0:
448,64,5113,2,0,L|296:56,1,140,8|4,1:2|3:0,0:0:0:0:
220,116,5770,2,0,P|216:168|232:208,1,70,12|4,1:2|3:0,0:0:0:0:
224,96,6208,5,4,1:2:0:0:
140,36,6427,1,8,1:2:0:0:
48,88,6646,1,8,1:2:0:0:
136,160,6865,1,4,3:0:0:0:
136,160,6974,1,0,1:0:0:0:
136,160,7084,2,0,L|140:236,1,70,0|4,1:0|3:0,0:0:0:0:
236,292,7522,1,4,1:3:0:0:
236,292,7631,1,0,1:0:0:0:
236,292,7741,2,0,L|232:216,1,70,0|4,1:0|1:2,0:0:0:0:
435,76,8398,5,0,1:2:0:0:
435,76,8617,2,0,P|443:116|443:144,1,62.9999980773927,2|0,0:0|1:2,0:0:0:0:
360,184,9055,2,0,P|344:128|348:48,1,125.999996154785,2|2,0:3|0:3,0:0:0:0:
435,76,9712,1,0,1:2:0:0:
504,140,9931,2,0,L|496:232,1,62.9999980773926,0|0,0:0|1:2,0:0:0:0:
428,264,10369,2,0,L|420:344,1,62.9999980773926,2|0,0:0|1:2,0:0:0:0:
344,384,10807,2,0,P|288:372|264:296,1,125.999996154785,2|2,0:3|0:0,0:0:0:0:
172,284,11463,1,4,1:2:0:0:
292,48,11901,6,0,P|292:92|276:136,1,62.9999980773926,0|2,1:2|0:3,0:0:0:0:
196,140,12339,2,0,P|140:128|96:132,2,94.499997116089,2|2|2,1:2|0:0|0:3,0:0:0:0:
140,216,13215,1,0,1:2:0:0:
164,308,13434,2,0,P|108:304|84:292,1,62.9999980773926,2|0,0:3|1:2,0:0:0:0:
36,236,13872,2,0,L|28:148,1,62.9999980773926,2|0,0:0|1:2,0:0:0:0:
52,44,14310,2,0,P|96:56|136:132,1,125.999996154785,2|2,0:3|0:0,0:0:0:0:
224,164,14967,1,4,1:2:0:0:
426,36,15405,6,0,P|435:84|432:104,1,62.9999980773926,0|2,1:2|0:3,0:0:0:0:
473,183,15843,2,0,P|480:232|467:290,2,94.499997116089,2|2|2,1:2|0:0|0:3,0:0:0:0:
379,169,16719,1,0,1:2:0:0:
320,244,16938,2,0,L|327:332,1,62.9999980773926,2|0,0:3|1:2,0:0:0:0:
220,364,17376,2,0,L|227:276,1,62.9999980773926,2|0,0:0|1:2,0:0:0:0:
132,312,17814,2,0,L|120:168,1,125.999996154785,2|2,0:3|0:0,0:0:0:0:
32,156,18471,1,4,1:2:0:0:
244,8,18909,6,0,L|251:90,1,62.9999980773926,0|2,1:2|0:3,0:0:0:0:
304,148,19347,2,2,P|372:180|440:164,1,125.999996154785,0|0,1:0|1:0,0:1:0:0:
376,88,20004,1,2,0:0:0:0:
452,32,20223,2,2,P|384:0|316:16,1,125.999996154785,0|0,1:0|1:0,0:1:0:0:
197,53,20880,2,0,L|260:64,1,62.9999980773926,2|0,0:0|1:0,0:0:0:0:
120,336,21536,6,0,L|57:325,1,62.9999980773926,2|2,1:0|0:0,0:0:0:0:
32,232,21974,2,2,P|28:168|64:100,1,125.999996154785,4|0,1:2|1:0,0:1:0:0:
148,132,22631,2,2,P|152:196|116:264,1,125.999996154785,2|2,0:1|0:2,0:1:0:0:
120,336,23288,1,2,1:0:0:0:
380,276,23726,6,2,L|224:264,1,125.999996154785,0|0,1:2|1:0,0:1:0:0:
312,184,24383,2,2,L|468:196,1,125.999996154785,2|2,0:1|0:2,0:1:0:0:
500,264,25040,2,0,P|500:316|488:348,1,62.9999980773926,0|2,1:0|0:0,0:0:0:0:
400,348,25478,6,2,P|392:284|428:206,1,125.999996154785,0|2,1:2|1:2,0:1:0:0:
472,112,26135,2,2,P|484:164|472:192,1,62.9999980773926,2|0,0:1|1:0,0:1:0:0:
336,192,26573,2,0,P|324:140|336:112,1,62.9999980773926,2|0,0:2|1:0,0:0:0:0:
344,212,27011,5,2,0:0:0:0:
276,284,27230,1,0,1:0:0:0:
184,244,27449,2,0,P|128:232|96:240,1,62.9999980773926,2|0,0:0|1:0,0:0:0:0:
20,276,27887,1,2,0:0:0:0:
32,36,28325,5,2,3:0:0:0:
92,100,28544,2,0,L|172:88,1,62.9999980773926,4|2,1:3|0:3,0:0:0:0:
264,212,28982,2,0,L|184:200,1,62.9999980773926,4|2,1:2|0:0,0:0:0:0:
256,120,29420,2,0,L|336:132,1,62.9999980773926,0|2,1:2|0:3,0:0:0:0:
440,152,29858,6,0,P|464:112|468:60,2,94.499997116089,2|2|2,1:2|0:0|0:3,0:0:0:0:
364,208,30734,1,0,1:2:0:0:
436,268,30952,2,0,L|444:336,1,62.9999980773926,2|0,0:3|1:2,0:0:0:0:
356,364,31390,2,0,P|308:336|212:336,1,125.999996154785,2|2,0:0|0:3,0:0:0:0:
148,360,32047,1,0,1:2:0:0:
148,360,32266,1,2,0:0:0:0:
168,272,32485,2,0,L|296:284,1,125.999996154785,4|0,1:2|1:2,0:0:0:0:
368,224,33142,2,0,P|376:180|368:144,1,62.9999980773926,2|0,0:2|1:2,0:0:0:0:
264,68,33580,2,0,P|256:112|264:148,1,62.9999980773926,2|0,0:1|1:2,0:0:0:0:
196,244,34018,1,2,0:1:0:0:
168,120,34237,6,0,L|24:136,1,125.999996154785,4|4,0:0|0:0,0:0:0:0:
4,220,34894,1,2,0:0:0:0:
72,296,35113,1,0,1:0:0:0:
72,296,35223,1,0,1:0:0:0:
72,296,35332,2,0,L|128:288,1,31.4999990386963,0|0,1:0|1:0,0:0:0:0:
148,220,35551,1,0,1:0:0:0:
148,220,35661,1,0,1:0:0:0:
148,220,35770,2,0,L|92:212,1,31.4999990386963,2|0,1:0|1:0,0:0:0:0:
76,152,35989,6,0,P|80:96|96:60,1,70,4|4,1:2|3:0,0:0:0:0:
180,36,36427,1,8,1:2:0:0:
284,8,36646,2,0,P|284:60|244:144,1,140,8|4,1:2|3:0,0:0:0:0:
172,216,37303,2,0,P|216:228|272:220,1,70,8|4,1:2|3:0,0:0:0:0:
416,156,37741,2,0,P|372:144|316:152,1,70,2|4,1:2|3:0,0:0:0:0:
248,139,38179,1,8,1:2:0:0:
344,44,38398,2,0,L|492:60,1,140,10|2,1:2|3:2,0:0:0:0:
416,156,39055,2,0,L|512:148,1,70,8|4,1:2|3:0,0:0:0:0:
368,248,39493,6,0,L|448:256,1,70,4|4,1:2|3:0,0:0:0:0:
344,244,39931,1,8,1:2:0:0:
324,132,40150,2,0,P|268:112|192:136,1,140,8|4,1:2|3:0,0:0:0:0:
188,240,40807,2,0,P|244:228|268:208,1,70,8|4,1:2|3:0,0:0:0:0:
116,184,41244,2,0,P|104:240|116:280,1,70,2|4,1:2|3:0,0:0:0:0:
193,134,41682,1,8,1:2:0:0:
140,64,41901,2,0,L|-12:76,1,140,10|2,1:2|3:2,0:0:0:0:
116,184,42558,2,0,L|32:180,1,70,8|4,1:2|1:3,0:0:0:0:
24,184,42887,1,0,1:0:0:0:
24,184,42996,6,0,P|16:236|28:280,1,70,4|4,1:2|3:0,0:0:0:0:
92,316,43434,1,8,1:2:0:0:
184,256,43653,2,0,P|196:192|164:96,1,140,8|4,1:2|3:0,0:0:0:0:
228,32,44310,2,0,L|328:36,1,70,8|4,1:2|3:0,0:0:0:0:
400,136,44748,2,0,L|300:132,1,70,2|4,0:0|3:0,0:0:0:0:
248,188,45186,1,8,1:2:0:0:
372,224,45405,2,0,P|388:288|360:360,1,140,10|2,1:2|3:2,0:0:0:0:
288,284,46062,2,0,P|268:344|276:372,1,70,8|4,1:2|3:0,0:0:0:0:
368,224,46500,6,0,P|328:192|288:188,1,70,4|0,1:2|0:0,0:0:0:0:
252,268,46938,1,8,1:2:0:0:
220,176,47157,2,0,P|168:156|80:156,1,140,8|4,1:2|3:0,0:0:0:0:
16,264,47814,2,0,L|100:248,1,70,8|4,1:2|3:0,0:0:0:0:
172,288,48252,5,2,1:2:0:0:
200,152,48471,1,12,1:2:0:0:
272,216,48690,2,0,L|340:229,1,70,12|4,1:2|3:0,0:0:0:0:
340,229,49018,1,0,1:0:0:0:
340,229,49128,1,0,1:0:0:0:
424,176,49347,1,4,3:0:0:0:
364,96,49566,1,0,1:0:0:0:
340,88,49675,1,0,1:0:0:0:
316,84,49785,1,4,1:3:0:0:
292,80,49894,1,0,1:0:0:0:
264,76,50004,6,0,L|168:88,1,83.9999974365235,12|4,1:2|3:0,0:0:0:0:
244,192,50442,1,4,3:0:0:0:
272,44,50661,2,2,L|176:56,1,83.9999974365235,8|0,1:2|0:0,0:1:0:0:
248,164,51098,1,4,3:0:0:0:
284,12,51317,2,0,L|188:24,1,83.9999974365235,12|2,1:2|1:0,0:0:0:0:
256,132,51755,5,4,1:2:0:0:
344,120,51974,2,0,L|440:108,1,83.9999974365235,2|2,1:0|1:3,0:0:0:0:
512,248,52412,2,0,L|416:236,1,83.9999974365235,10|4,1:0|3:0,0:0:0:0:
356,284,52850,1,2,1:2:0:0:
460,344,53069,1,6,1:2:0:0:
512,236,53288,1,2,1:2:0:0:
460,128,53507,6,0,L|364:116,1,83.9999974365235,12|4,1:2|3:0,0:0:0:0:
300,196,53945,1,4,3:0:0:0:
440,116,54164,2,0,L|344:104,1,83.9999974365235,8|4,1:2|3:0,0:0:0:0:
288,176,54602,1,4,3:0:0:0:
424,76,54821,2,0,L|328:64,1,83.9999974365235,12|2,1:2|1:0,0:0:0:0:
212,112,55259,5,12,1:2:0:0:
232,244,55478,2,0,P|292:264|336:252,1,83.9999974365235,2|2,1:0|1:3,0:0:0:0:
148,240,55916,2,0,P|132:320|140:336,1,83.9999974365235,10|4,1:0|3:0,0:0:0:0:
32,48,56573,6,2,P|76:40|128:52,1,83.9999974365235,4|0,1:2|1:0,0:1:0:0:
144,56,56901,1,0,1:0:0:0:
168,64,57011,2,0,L|160:168,1,83.9999974365235,12|4,1:2|3:0,0:0:0:0:
196,244,57449,1,4,3:0:0:0:
317,163,57668,2,2,P|269:135|149:155,1,167.999994873047,8|4,1:2|3:0,0:1:0:0:
84,232,58325,2,0,L|76:336,1,83.9999974365235,12|2,1:2|1:0,0:0:0:0:
88,208,58763,5,4,1:2:0:0:
156,312,58982,2,0,P|204:332|248:324,1,83.9999974365235,2|2,1:0|1:3,0:0:0:0:
324,364,59420,2,0,P|328:304|300:256,1,83.9999974365235,10|4,1:0|3:0,0:0:0:0:
228,144,59858,2,0,P|224:204|252:252,1,83.9999974365235,2|6,1:1|1:2,0:0:0:0:
316,104,60296,1,2,1:2:0:0:
316,104,60405,1,0,1:2:0:0:
316,104,60515,6,0,L|144:116,1,167.999994873047,12|4,1:2|3:0,0:0:0:0:
232,225,61171,2,2,L|136:233,1,83.9999974365235,8|0,1:2|0:0,0:1:0:0:
200,332,61609,1,4,3:0:0:0:
304,280,61828,2,0,P|336:232|320:124,1,167.999994873047,14|4,1:2|3:0,0:0:0:0:
232,196,62485,1,12,1:2:0:0:
292,124,62704,2,0,L|304:36,1,83.9999974365235,12|4,1:2|3:0,0:0:0:0:
303,40,63033,1,0,1:0:0:0:
303,40,63142,5,0,1:0:0:0:
408,60,63361,1,4,3:0:0:0:
480,124,63580,1,4,1:3:0:0:
488,152,63690,1,0,1:0:0:0:
488,180,63799,1,4,1:3:0:0:
488,208,63909,1,0,1:0:0:0:
484,236,64018,6,0,L|368:232,1,83.9999974365235,12|4,1:2|3:0,0:0:0:0:
332,304,64456,1,4,3:0:0:0:
456,196,64675,2,2,L|340:192,1,83.9999974365235,8|0,1:2|0:0,0:1:0:0:
316,280,65113,1,4,3:0:0:0:
432,164,65332,2,0,L|316:160,1,83.9999974365235,12|2,1:2|1:0,0:0:0:0:
322,70,65770,5,4,1:2:0:0:
432,164,65989,2,0,P|448:224|440:272,1,83.9999974365235,2|2,1:0|1:3,0:0:0:0:
346,384,66427,2,0,P|330:324|338:276,1,83.9999974365235,10|4,1:0|3:0,0:0:0:0:
364,220,66865,1,2,1:2:0:0:
232,304,67084,1,6,1:2:0:0:
248,184,67303,1,2,1:2:0:0:
248,184,67412,1,0,1:2:0:0:
248,184,67522,6,0,L|236:84,1,83.9999974365235,12|4,1:2|3:0,0:0:0:0:
132,156,67960,1,4,3:0:0:0:
284,188,68179,2,0,L|272:88,1,83.9999974365235,8|4,1:2|3:0,0:0:0:0:
156,156,68617,1,4,3:0:0:0:
320,192,68836,2,0,L|308:92,1,83.9999974365235,12|2,1:2|1:0,0:0:0:0:
184,156,69274,5,12,1:2:0:0:
112,240,69493,2,0,P|104:304|116:340,1,83.9999974365235,2|2,1:0|1:3,0:0:0:0:
92,144,69931,2,0,P|32:124|-20:140,1,83.9999974365235,10|0,1:0|1:0,0:0:0:0:
112,240,70369,2,0,P|172:260|224:244,1,83.9999974365235,2|12,1:0|1:2,0:0:0:0:
332,352,70807,1,0,1:0:0:0:
332,352,70916,1,0,1:0:0:0:
332,352,71025,6,0,L|224:364,1,83.9999974365235,12|4,1:2|3:0,0:0:0:0:
116,368,71463,1,4,3:0:0:0:
40,252,71682,2,2,P|100:224|200:268,1,167.999994873047,10|4,1:2|3:0,0:1:0:0:
116,368,72339,2,0,L|12:360,1,83.9999974365235,14|4,1:2|3:0,0:0:0:0:
24,224,72777,5,14,1:2:0:0:
132,280,72996,1,4,3:0:0:0:
208,196,73215,1,6,3:0:0:0:
96,132,73434,2,0,L|-20:144,1,83.9999974365235,10|4,1:0|3:0,0:0:0:0:
132,280,73872,2,0,L|248:292,1,83.9999974365235,2|10,1:0|1:2,0:0:0:0:
352,364,74310,1,0,1:0:0:0:
352,364,74420,1,0,1:0:0:0:
352,364,74529,6,0,P|392:316|380:204,1,167.999994873047,12|4,1:2|3:0,0:0:0:0:
400,100,75186,2,2,L|216:112,1,167.999994873047,10|4,1:2|3:0,0:1:0:0:
152,184,75843,1,14,1:2:0:0:
152,184,76062,1,4,3:0:0:0:
256,224,76281,2,0,L|268:316,1,83.9999974365235,4|12,3:0|1:2,0:0:0:0:
244,132,76719,5,12,1:2:0:0:
344,100,76938,1,4,3:0:0:0:
344,100,77047,1,0,1:0:0:0:
344,100,77157,2,0,L|404:104,1,41.9999987182618,0|0,1:0|1:0,0:0:0:0:
416,176,77376,2,0,L|356:180,1,41.9999987182618,0|0,1:0|1:0,0:0:0:0:
320,244,77595,1,4,1:3:0:0:
320,244,77704,1,8,1:3:0:0:
320,244,77814,1,4,1:3:0:0:
320,244,77923,1,4,3:0:0:0:
320,244,78033,6,0,L|332:340,1,70,12|4,1:2|3:0,0:0:0:0:
428,296,78471,1,4,3:0:0:0:
296,352,78690,2,2,L|276:191,1,140,8|4,1:2|3:0,0:1:0:0:
208,104,79347,2,0,P|156:96|120:104,1,70,12|4,1:2|3:0,0:0:0:0:
208,104,79785,6,0,P|116:84|52:108,1,140,12|4,1:2|3:0,0:0:0:0:
40,180,80442,2,0,P|88:188|128:180,1,70,8|4,1:2|3:0,0:0:0:0:
188,252,80880,1,4,3:0:0:0:
188,252,80989,1,0,1:0:0:0:
188,252,81098,2,0,L|192:304,1,35,4|0,1:3|1:0,0:0:0:0:
276,320,81317,1,0,1:0:0:0:
276,320,81427,1,0,1:0:0:0:
276,320,81536,6,0,L|268:220,1,70,12|4,1:2|3:0,0:0:0:0:
332,204,81974,1,4,3:0:0:0:
190,286,82193,2,2,L|178:134,1,140,8|4,1:2|3:0,0:1:0:0:
256,56,82850,2,0,P|312:44|344:52,1,70,12|4,1:2|3:0,0:0:0:0:
256,56,83288,6,0,P|336:88|412:68,1,140,12|4,1:2|3:0,0:0:0:0:
496,96,83945,2,0,L|484:8,1,70,8|4,1:2|3:0,0:0:0:0:
424,160,84383,2,0,L|436:248,1,70,4|12,3:0|1:2,0:0:0:0:
348,308,84821,1,4,3:0:0:0:
348,308,84931,1,0,1:0:0:0:
348,308,85040,6,0,P|292:292|272:268,1,70,12|4,1:2|3:0,0:0:0:0:
344,216,85478,1,4,3:0:0:0:
372,352,85697,2,2,P|288:340|220:292,1,140,8|4,1:2|3:0,0:1:0:0:
136,300,86354,2,0,P|152:248|184:216,1,70,12|4,1:2|3:0,0:0:0:0:
136,300,86792,6,0,P|128:240|152:148,1,140,12|4,1:2|3:0,0:0:0:0:
92,80,87449,2,0,L|176:68,1,70,8|4,1:2|3:0,0:0:0:0:
304,168,87887,2,0,L|220:156,1,70,4|0,3:0|1:0,0:0:0:0:
220,180,88215,1,0,1:0:0:0:
216,204,88325,1,4,3:0:0:0:
216,228,88434,1,0,1:0:0:0:
220,252,88544,6,0,L|216:332,1,70,12|4,1:2|3:0,0:0:0:0:
124,272,88982,1,4,3:0:0:0:
276,212,89201,2,2,L|268:360,1,140,8|4,1:2|3:0,0:1:0:0:
368,380,89858,2,0,P|376:332|364:292,1,70,12|4,1:2|3:0,0:0:0:0:
368,380,90296,6,0,P|388:288|364:224,1,140,12|4,1:2|3:0,0:0:0:0:
412,156,90952,1,8,1:2:0:0:
412,156,91062,1,0,1:0:0:0:
412,156,91171,2,0,L|500:164,1,70,0|0,1:0|1:0,0:0:0:0:
452,60,91609,1,4,1:3:0:0:
428,57,91719,1,0,1:0:0:0:
404,54,91828,1,4,1:3:0:0:
380,52,91938,1,4,1:3:0:0:
356,49,92047,1,4,1:2:0:0:
256,192,92157,12,0,95551,0:0:0:0:
