osu file format v14

[General]
AudioFilename: audio.mp3
AudioLeadIn: 0
PreviewTime: 143925
Countdown: 0
SampleSet: Soft
StackLeniency: 0.7
Mode: 0
LetterboxInBreaks: 0
WidescreenStoryboard: 0

[Editor]
DistanceSpacing: 0.4
BeatDivisor: 4
GridSize: 32
TimelineZoom: 2

[Metadata]
Title:Pray
TitleUnicode:Pray
Artist:Tommy heavenly6
ArtistUnicode:Tommy heavenly6
Creator:Hishiro Chizuru
Version:Collab Insane
Source:銀魂
Tags:amb1d3x 川瀬智子 tomoko kawase february6 heavy starry japanese rock lasse brasse 劇場版 銀魂 完結篇 万事屋よ永遠なれ Gintama The Final Chapter Be Forever Yorozuya Movie 2
BeatmapID:3800903
BeatmapSetID:1850237

[Difficulty]
HPDrainRate:5
CircleSize:4
OverallDifficulty:7
ApproachRate:8
SliderMultiplier:1.7
SliderTickRate:1

[Events]
//Background and Video events
0,0,"Praybg.jpg",0,0
//Break Periods
2,190201,192813
2,195594,198206
2,200987,203599
//Storyboard Layer 0 (Background)
//Storyboard Layer 1 (Fail)
//Storyboard Layer 2 (Pass)
//Storyboard Layer 3 (Foreground)
//Storyboard Layer 4 (Overlay)
//Storyboard Sound Samples

[TimingPoints]
1100,337.078651685393,4,2,0,70,1,0
23010,-100,4,2,0,60,0,0
65819,-100,4,2,0,75,0,0
90088,-100,4,2,0,70,0,0
101212,-100,4,2,0,65,0,0
144021,-100,4,2,0,75,0,0
168291,-100,4,2,0,70,0,0
193571,-100,4,2,0,55,0,0
206043,-100,4,2,0,60,0,0
211437,-100,4,2,0,50,0,0
222223,-100,4,2,0,75,0,0
246493,-100,4,2,0,70,0,0
268740,-100,4,2,0,5,0,0

[Colours]
Combo1 : 181,255,255
Combo2 : 221,221,238
Combo3 : 255,128,128

[HitObjects]
256,32,1100,6,0,L|446:55,1,170,6|10,1:2|0:2,0:2:0:0:
478,118,1774,1,0,1:2:0:0:
439,194,1942,1,0,0:2:0:0:
467,273,2111,1,10,0:2:0:0:
420,344,2279,1,0,0:2:0:0:
497,377,2448,1,0,1:2:0:0:
266,384,2785,5,10,0:2:0:0:
420,344,3122,1,0,1:2:0:0:
293,222,3459,1,10,0:2:0:0:
44,149,3796,6,0,L|212:123,1,170,0|10,1:2|0:2,0:2:0:0:
293,149,4386,1,0,3:0:0:0:
293,149,4470,1,0,1:2:0:0:
367,191,4639,1,0,0:2:0:0:
442,152,4807,1,8,0:2:0:0:
470,71,4976,1,0,0:2:0:0:
422,0,5144,1,2,1:2:0:0:
378,281,5482,5,8,0:2:0:0:
211,314,5819,1,0,1:2:0:0:
371,369,6156,1,8,0:2:0:0:
512,192,6493,6,0,L|343:166,1,170,2|10,1:2|0:2,0:0:0:0:
293,98,7167,1,2,1:2:0:0:
207,101,7335,1,0,1:2:0:0:
154,167,7504,1,10,0:2:0:0:
69,156,7673,1,0,0:2:0:0:
32,78,7841,1,2,1:2:0:0:
256,192,8178,5,10,0:2:0:0:
417,245,8515,1,0,1:2:0:0:
390,77,8852,1,8,0:2:0:0:
256,384,9189,6,0,L|279:193,1,170,2|10,1:2|0:2,0:2:0:0:
219,152,9779,1,0,3:0:0:0:
219,152,9864,1,0,1:2:0:0:
273,87,10032,1,0,1:2:0:0:
347,127,10201,1,10,0:2:0:0:
431,119,10369,1,0,0:2:0:0:
418,203,10538,1,0,1:2:0:0:
245,380,10875,5,10,0:2:0:0:
167,344,11043,2,0,L|121:355,2,42.5,0|0|0,0:2|1:2|1:2,0:0:0:0:
186,261,11380,1,0,1:2:0:0:
271,261,11549,1,12,0:2:0:0:
255,16,11886,6,0,P|169:68|174:152,1,170,2|10,1:2|0:2,0:2:0:0:
227,186,12560,2,0,L|330:173,3,85,0|0|8|0,1:2|1:2|0:2|0:2,0:0:0:0:
390,228,13234,1,2,1:2:0:0:
441,361,13571,5,10,0:2:0:0:
508,204,13908,1,0,1:2:0:0:
383,88,14246,1,8,0:2:0:0:
256,368,14583,6,0,L|76:340,1,170,6|8,1:2|0:2,0:2:0:0:
50,265,15173,1,0,3:0:0:0:
50,265,15257,2,0,L|37:173,3,85,2|0|10|0,1:2|0:2|0:2|0:2,0:2:0:0:
94,113,15931,2,0,B|180:83|174:168|254:128,3,170,0|10|2|10,1:2|0:2|1:2|0:2,0:0:0:0:
457,26,17279,6,0,P|405:96|441:176,1,170,6|10,1:2|0:2,0:2:0:0:
378,230,17953,2,0,L|282:246,3,85,0|0|10|0,1:2|1:2|0:2|0:2,0:0:0:0:
223,195,18628,1,0,1:2:0:0:
256,384,18965,5,10,0:2:0:0:
108,300,19302,1,2,1:2:0:0:
153,136,19639,1,10,0:2:0:0:
479,191,19976,6,0,P|452:268|372:282,1,170,2|10,1:2|0:2,0:2:0:0:
307,226,20566,1,0,3:0:0:0:
307,226,20650,2,0,L|321:134,3,85,0|0|10|0,1:2|1:2|0:2|0:2,0:0:0:0:
256,85,21324,2,0,B|170:54|176:139|95:99,2,170,0|14|0,1:2|0:2|1:2,0:0:0:0:
323,145,22167,1,8,0:2:0:0:
322,145,22335,2,0,P|353:116|357:75,1,85,10|8,0:2|3:0,0:0:0:0:
230,175,22673,6,0,L|267:352,1,170,12|10,0:2|0:2,0:0:0:0:
343,372,23347,1,2,1:2:0:0:
405,314,23684,1,10,0:2:0:0:
355,244,24021,2,0,L|371:160,1,85,2|0,1:2|0:2,0:2:0:0:
431,99,24358,2,0,P|398:73|357:78,1,85,10|0,0:2|0:2,0:2:0:0:
371,160,24695,2,0,L|355:244,1,85,2|0,1:2|0:2,0:2:0:0:
295,304,25032,2,0,L|211:320,1,85,10|0,0:2|0:2,0:0:0:0:
65,276,25369,6,0,P|32:199|61:121,1,170,0|10,1:2|0:2,0:2:0:0:
143,144,26043,1,2,1:2:0:0:
212,95,26380,1,10,0:2:0:0:
276,149,26717,2,0,L|265:252,3,85,2|0|10|0,1:2|1:2|0:2|1:2,0:0:0:0:
319,300,27392,2,0,P|361:296|392:255,1,85,2|0,1:2|0:2,0:2:0:0:
473,265,27729,2,0,P|490:226|470:179,1,85,10|0,0:2|0:0,0:2:0:0:
478,34,28066,6,0,P|435:103|354:103,1,170,2|10,1:3|0:2,0:0:0:0:
293,44,28740,1,2,1:2:0:0:
208,45,29077,1,10,0:2:0:0:
135,89,29414,2,0,L|120:204,1,85,2|0,1:2|1:2,0:0:0:0:
110,257,29751,2,0,L|95:372,1,85,10|0,0:2|0:0,0:2:0:0:
174,380,30088,1,2,1:2:0:0:
174,380,30257,1,0,1:2:0:0:
253,350,30425,1,10,0:2:0:0:
253,350,30594,1,0,0:2:0:0:
285,271,30762,6,0,L|456:297,1,170,2|10,1:3|0:2,0:0:0:0:
495,222,31437,1,2,1:2:0:0:
456,145,31774,1,10,0:2:0:0:
476,62,32111,6,0,P|375:57|270:256,2,340,2|2|2,1:2|1:2|1:2,0:2:0:0:
476,62,33628,1,0,0:2:0:0:
443,140,33796,2,0,L|469:249,3,85,10|0|2|0,0:2|0:0|1:2|1:2,0:2:0:0:
420,296,34470,2,0,L|304:282,1,85,10|0,0:2|0:2,0:2:0:0:
260,326,34807,5,2,1:2:0:0:
260,326,34976,1,0,1:2:0:0:
260,326,35144,1,10,0:2:0:0:
260,326,35313,1,0,0:2:0:0:
209,257,35482,2,0,L|229:169,1,85,2|0,1:2|1:2,0:0:0:0:
179,103,35819,2,0,L|198:20,2,85,10|0|2,0:2|0:2|1:3,0:2:0:0:
83,329,36493,6,0,P|121:343|160:328,1,85,10|0,0:2|0:0,0:2:0:0:
209,257,36830,2,0,P|247:242|286:257,1,85,0|0,1:2|0:0,0:0:0:0:
351,311,37167,2,0,P|383:285|393:245,1,85,10|0,0:2|0:2,0:0:0:0:
496,192,37504,5,2,1:2:0:0:
256,16,37841,1,10,0:2:0:0:
16,192,38178,1,2,1:2:0:0:
256,368,38515,2,0,L|272:272,2,85,8|0|2,0:2|3:2|1:2,0:0:0:0:
80,240,39189,6,0,P|73:199|104:173,1,85,8|0,0:2|0:2,0:0:0:0:
76,93,39526,2,0,P|125:88|166:120,1,85,2|0,1:2|0:2,0:2:0:0:
229,63,39864,2,0,P|242:130|240:169,1,85,10|0,0:2|0:2,0:2:0:0:
417,318,40201,6,0,P|404:251|406:212,1,85,2|0,1:2|1:2,0:0:0:0:
315,215,40538,2,0,P|327:167|372:140,1,85,10|0,0:2|0:2,0:2:0:0:
330,63,40875,2,0,P|365:42|400:61,1,85,2|0,1:2|0:2,0:2:0:0:
494,66,41212,2,0,P|492:113|477:160,2,85,8|0|0,0:2|3:2|1:2,0:0:0:0:
479,269,41886,6,0,P|445:243|404:234,1,85,10|0,0:2|0:0,0:2:0:0:
334,283,42223,2,0,P|294:332|264:338,1,85,2|0,1:2|0:0,0:0:0:0:
198,299,42560,2,0,L|208:200,1,85,10|0,0:2|0:2,0:0:0:0:
108,109,42897,5,2,1:2:0:0:
108,109,43066,1,0,0:2:0:0:
108,109,43234,1,12,0:2:0:0:
108,109,43403,1,0,0:2:0:0:
108,109,43571,2,0,L|156:119,3,42.5,2|0|0|0,1:2|3:2|3:2|3:2,0:0:0:0:
208,67,43908,2,0,L|256:57,3,42.5,2|0|0|0,1:2|1:2|1:2|1:2,0:0:0:0:
322,86,44246,6,0,L|302:261,1,170,6|10,1:2|0:2,0:2:0:0:
379,291,44920,1,0,1:2:0:0:
113,359,45257,5,10,0:2:0:0:
171,297,45594,2,0,L|131:116,1,170,2|10,1:2|0:2,0:2:0:0:
51,113,46268,1,0,1:2:0:0:
266,17,46605,5,10,0:2:0:0:
341,55,46942,2,0,L|321:238,1,170,2|8,1:2|0:2,0:2:0:0:
396,265,47616,1,0,1:2:0:0:
463,213,47953,1,10,0:2:0:0:
463,213,48122,1,0,0:2:0:0:
448,128,48291,5,2,1:2:0:0:
448,128,48459,1,0,0:2:0:0:
377,79,48628,1,10,0:2:0:0:
377,79,48796,1,0,0:2:0:0:
295,102,48965,1,2,1:3:0:0:
295,102,49133,1,0,1:2:0:0:
224,53,49302,5,10,0:2:0:0:
145,85,49639,2,0,P|95:163|129:260,1,170,2|10,1:2|0:2,0:2:0:0:
182,192,50313,1,0,1:2:0:0:
404,327,50650,5,10,0:2:0:0:
326,367,50987,2,0,P|300:312|324:195,1,170,2|10,1:2|0:2,0:2:0:0:
388,161,51661,1,0,1:2:0:0:
221,12,51998,5,10,0:2:0:0:
289,61,52335,2,0,P|242:128|148:123,1,170,2|8,1:2|0:2,0:2:0:0:
98,70,53010,1,0,1:2:0:0:
51,140,53347,1,10,0:2:0:0:
51,140,53515,1,0,0:2:0:0:
81,219,53684,5,2,1:2:0:0:
81,219,53852,1,0,0:2:0:0:
164,236,54021,1,10,0:2:0:0:
164,236,54189,1,0,0:2:0:0:
208,308,54358,1,2,1:3:0:0:
208,308,54526,1,0,1:2:0:0:
278,260,54695,5,14,0:2:0:0:
153,143,55032,1,2,1:2:0:0:
317,99,55369,1,10,0:2:0:0:
156,276,55706,5,2,1:2:0:0:
213,30,56043,1,10,0:2:0:0:
390,207,56380,1,2,1:2:0:0:
113,139,56717,5,10,0:2:0:0:
290,307,57055,1,2,1:2:0:0:
355,65,57392,1,8,0:2:0:0:
153,19,57729,5,2,1:2:0:0:
227,202,58066,1,10,0:2:0:0:
309,373,58403,1,2,1:2:0:0:
358,306,58740,1,10,0:2:0:0:
112,94,59077,1,2,1:2:0:0:
227,202,59414,2,0,L|320:183,2,85,10|0|0,0:2|0:0|1:2,0:0:0:0:
434,77,60088,5,10,0:2:0:0:
341,26,60425,2,0,L|171:48,1,170,6|10,1:2|0:2,0:2:0:0:
87,311,61099,2,0,L|65:141,1,170,2|10,1:2|0:2,0:0:0:0:
379,362,61774,2,0,L|209:384,1,170,2|10,1:2|0:2,0:2:0:0:
434,77,62448,2,0,L|455:245,1,170,2|10,1:2|0:2,0:2:0:0:
256,192,63122,5,2,1:2:0:0:
256,192,63796,2,0,L|343:231,1,85,2|0,1:2|1:2,0:0:0:0:
256,192,64133,2,0,L|217:279,1,85,8|0,0:2|0:0,0:0:0:0:
256,192,64470,2,0,L|169:153,1,85,10|0,0:2|0:0,0:2:0:0:
256,192,64807,2,0,L|295:105,1,85,4|0,1:2|1:2,0:0:0:0:
96,229,65144,6,0,L|138:223,3,42.5,8|8|8|8,3:3|3:3|3:3|3:3,0:0:0:0:
76,201,65482,1,4,3:3:0:0:
78,179,65566,1,4,3:3:0:0:
80,158,65650,1,4,3:3:0:0:
82,137,65734,1,4,3:3:0:0:
84,116,65819,5,6,1:2:0:0:
158,59,65987,1,0,0:2:0:0:
245,93,66156,2,0,P|303:77|324:34,1,85,10|0,0:2|0:0,0:2:0:0:
506,168,66493,5,0,1:2:0:0:
427,117,66661,1,0,1:2:0:0:
347,166,66830,2,0,P|350:240|373:268,1,85,10|0,0:2|1:2,0:0:0:0:
460,374,67167,6,0,P|341:339|264:355,2,170,2|10|2,1:2|0:2|1:2,0:2:0:0:
500,298,68010,1,0,0:2:0:0:
500,298,68178,2,0,P|488:247|452:227,1,85,10|0,0:2|1:2,0:0:0:0:
347,166,68515,6,0,P|295:218|260:205,1,85,2|0,1:2|0:0,0:2:0:0:
212,185,68852,2,0,L|247:15,2,170,8|0|10,0:2|1:2|0:2,0:0:0:0:
28,372,69864,5,2,1:2:0:0:
92,316,70032,1,0,0:0:0:0:
60,236,70201,2,0,P|57:193|74:155,1,85,8|0,0:2|1:2,0:0:0:0:
312,76,70538,5,2,1:2:0:0:
232,45,70706,1,0,1:2:0:0:
164,97,70875,2,0,L|180:180,1,85,8|0,0:2|0:2,0:2:0:0:
92,316,71212,5,0,1:2:0:0:
168,351,71380,1,0,1:2:0:0:
247,321,71549,1,12,0:2:0:0:
309,254,71886,6,0,L|423:275,1,85,2|0,1:2|1:2,0:0:0:0:
461,218,72223,2,0,P|471:133|391:57,2,170,14|0|8,0:2|1:2|0:2,0:2:0:0:
392,269,73066,1,0,0:2:0:0:
392,269,73234,2,0,L|309:254,1,85,2|0,1:2|0:2,0:2:0:0:
235,211,73571,2,0,L|151:226,1,85,8|0,0:2|1:2,0:0:0:0:
78,181,73908,2,0,P|123:83|207:95,1,170,2|8,1:2|0:2,0:0:0:0:
423,20,74583,6,0,L|400:102,1,85,2|0,1:2|1:2,0:0:0:0:
490,241,74920,2,0,L|430:180,1,85,8|0,0:2|1:2,0:0:0:0:
265,188,75257,2,0,L|347:166,1,85,2|0,1:2|1:2,0:0:0:0:
430,180,75594,2,0,L|490:241,1,85,14|0,0:2|0:2,0:2:0:0:
426,370,75931,6,0,L|413:325,3,42.5,2|0|0|8,1:2|3:0|3:2|3:3,0:2:0:0:
373,316,76268,1,8,3:3:0:0:
330,319,76352,1,0,3:0:0:0:
287,324,76437,1,0,1:2:0:0:
245,330,76521,1,0,1:2:0:0:
202,336,76605,5,6,1:2:0:0:
133,285,76774,1,0,1:2:0:0:
51,307,76942,2,0,P|37:232|65:202,1,85,10|0,0:2|1:2,0:0:0:0:
300,133,77279,5,2,1:2:0:0:
223,95,77448,1,0,0:0:0:0:
140,114,77616,2,0,L|124:208,1,85,8|0,0:2|1:2,0:0:0:0:
312,322,77953,6,0,L|493:288,2,170,2|10|2,1:2|0:2|1:2,0:2:0:0:
243,271,78796,1,0,1:2:0:0:
243,271,78965,2,0,P|226:221|259:182,1,85,10|0,0:2|0:2,0:2:0:0:
446,163,79302,6,0,P|405:172|368:153,1,85,0|0,1:2|1:2,0:0:0:0:
324,80,79639,2,0,L|153:109,2,170,14|0|10,0:2|1:2|0:2,0:0:0:0:
18,32,80650,5,0,1:2:0:0:
78,91,80819,1,0,1:2:0:0:
33,163,80987,1,8,0:2:0:0:
212,293,81324,5,2,1:2:0:0:
190,374,81493,1,0,1:2:0:0:
106,371,81661,1,12,0:2:0:0:
127,288,81830,1,0,1:2:0:0:
127,288,81914,1,0,1:2:0:0:
127,288,81998,2,0,L|159:94,2,170,6|10|2,1:2|0:2|1:2,0:2:0:0:
53,244,82841,1,0,1:2:0:0:
53,244,83010,1,10,0:2:0:0:
256,368,83347,5,0,1:2:0:0:
496,192,83684,1,12,0:2:0:0:
256,16,84021,1,0,1:2:0:0:
16,192,84358,1,14,0:2:0:0:
256,192,84695,6,0,L|430:171,2,170,6|10|0,1:2|0:2|1:2,0:2:0:0:
185,143,85538,1,0,1:2:0:0:
185,143,85706,2,0,P|182:92|214:64,1,85,10|0,0:2|0:2,0:2:0:0:
96,219,86043,6,0,P|175:241|212:315,2,170,6|10|2,1:2|0:2|1:2,0:2:0:0:
32,275,86886,1,0,1:2:0:0:
32,275,87055,1,14,0:2:0:0:
404,383,87392,6,0,L|429:196,1,170,6|10,1:2|0:2,0:0:0:0:
373,154,87897,1,0,0:2:0:0:
373,154,88066,2,0,L|287:166,3,85,0|0|14|0,1:2|1:2|0:2|0:2,0:0:0:0:
215,121,88740,5,6,1:2:0:0:
215,121,88908,1,0,1:2:0:0:
138,157,89077,1,10,0:2:0:0:
138,157,89246,1,0,1:2:0:0:
61,120,89414,1,8,3:3:0:0:
62,109,89498,1,8,3:3:0:0:
64,99,89583,1,8,3:3:0:0:
66,88,89667,1,8,3:3:0:0:
68,78,89751,1,4,3:3:0:0:
70,67,89835,1,4,3:3:0:0:
72,57,89920,1,4,3:3:0:0:
74,46,90004,1,4,3:3:0:0:
75,36,90088,6,0,L|256:10,1,170,6|10,1:2|0:2,0:2:0:0:
322,44,90762,1,0,1:2:0:0:
258,100,90931,1,0,1:2:0:0:
330,144,91099,1,10,0:2:0:0:
256,192,91268,1,0,0:2:0:0:
330,240,91437,1,0,1:2:0:0:
258,284,91774,5,10,0:2:0:0:
400,192,92111,1,0,1:2:0:0:
258,100,92448,1,10,0:2:0:0:
112,192,92785,6,0,P|33:176|22:75,1,170,6|8,1:2|0:2,0:2:0:0:
55,22,93375,1,0,3:0:0:0:
55,22,93459,1,0,1:2:0:0:
136,45,93628,1,0,1:2:0:0:
216,71,93796,1,10,0:2:0:0:
196,153,93965,1,0,1:2:0:0:
171,234,94133,1,2,1:2:0:0:
146,315,94470,5,10,0:2:0:0:
196,153,94807,1,0,1:2:0:0:
358,202,95144,1,10,0:2:0:0:
308,364,95482,6,0,P|382:376|468:309,1,170,6|10,1:2|0:2,0:2:0:0:
495,249,96156,1,0,1:2:0:0:
475,166,96324,1,0,1:2:0:0:
393,143,96493,1,10,0:2:0:0:
321,189,96661,1,0,0:2:0:0:
312,276,96830,1,0,1:2:0:0:
312,276,96998,1,0,1:2:0:0:
244,224,97167,5,10,0:2:0:0:
391,250,97504,1,0,1:2:0:0:
244,224,97841,1,10,0:2:0:0:
328,197,98010,5,0,0:2:0:0:
328,197,98094,1,0,1:2:0:0:
328,197,98178,2,0,L|344:23,1,170,6|10,1:2|0:2,0:2:0:0:
255,6,98768,1,0,3:0:0:0:
255,6,98852,1,0,1:2:0:0:
253,90,99021,1,0,1:2:0:0:
168,78,99189,1,10,0:2:0:0:
167,162,99358,1,0,0:2:0:0:
82,150,99526,5,0,1:2:0:0:
255,6,99864,1,10,0:2:0:0:
399,179,100201,1,8,3:3:0:0:
397,189,100285,1,8,3:3:0:0:
395,199,100369,1,8,3:3:0:0:
393,210,100453,1,8,3:3:0:0:
392,220,100538,1,8,3:3:0:0:
390,231,100622,1,8,3:3:0:0:
388,241,100706,1,8,3:3:0:0:
387,252,100791,1,8,3:3:0:0:
385,262,100875,1,4,1:2:0:0:
256,352,101212,5,10,0:2:0:0:
172,366,101549,1,0,1:2:0:0:
126,293,101886,1,10,0:2:0:0:
210,279,102223,2,0,L|232:196,1,85,0|0,1:2|1:2,0:0:0:0:
66,193,102560,2,0,L|149:215,1,85,10|0,0:2|0:2,0:2:0:0:
152,49,102897,2,0,L|130:132,1,85,0|0,1:2|1:2,0:0:0:0:
296,135,103234,2,0,L|213:113,1,85,10|0,0:2|3:2,0:0:0:0:
213,113,103487,1,0,3:2:0:0:
213,113,103571,1,0,1:2:0:0:
231,196,103740,1,0,0:0:0:0:
369,181,103908,5,10,0:2:0:0:
439,227,104246,1,0,1:2:0:0:
505,174,104583,1,8,0:2:0:0:
451,44,104920,2,0,L|435:128,3,85,2|0|8|0,1:2|0:2|0:2|0:2,0:2:0:0:
256,112,105594,2,0,L|272:28,1,85,0|0,1:2|0:2,0:2:0:0:
351,132,105931,2,0,L|334:215,1,85,8|0,0:2|3:2,0:0:0:0:
334,215,106184,1,0,3:2:0:0:
334,215,106268,2,0,P|241:218|159:160,1,170,2|10,1:2|0:2,0:0:0:0:
66,78,106942,5,0,1:2:0:0:
8,140,107279,1,8,0:2:0:0:
71,197,107616,2,0,L|86:303,1,85,2|0,1:2|1:2,0:0:0:0:
59,363,107953,2,0,P|104:364|151:326,1,85,8|0,0:2|0:2,0:2:0:0:
222,375,108291,1,0,1:2:0:0:
222,375,108459,1,0,1:2:0:0:
361,297,108628,2,0,P|319:295|283:316,2,85,10|0|0,0:2|0:2|1:2,0:2:0:0:
256,164,109302,5,10,0:2:0:0:
335,135,109639,1,2,1:2:0:0:
413,177,109976,1,10,0:2:0:0:
495,155,110313,2,0,P|518:250|472:330,1,170,0|10,1:2|0:2,0:2:0:0:
285,227,110987,2,0,P|255:304|279:384,2,170,0|14|6,1:2|0:2|1:2,0:0:0:0:
464,154,111998,6,0,L|483:47,1,85,8|0,0:2|0:2,0:0:0:0:
319,131,112335,2,0,L|402:200,1,85,0|0,1:2|1:2,0:0:0:0:
412,16,112673,2,0,L|309:53,1,85,10|0,0:2|0:2,0:2:0:0:
240,16,113010,5,0,1:2:0:0:
240,16,113178,1,0,1:2:0:0:
240,16,113347,1,10,0:2:0:0:
240,16,113515,1,0,0:2:0:0:
200,180,113684,2,0,L|219:98,1,85,0|0,1:2|1:2,0:0:0:0:
177,262,114021,2,0,L|158:344,2,85,10|0|0,0:2|0:2|1:2,0:2:0:0:
38,213,114695,6,0,P|79:219|115:197,1,85,10|0,0:2|0:0,0:0:0:0:
254,246,115032,2,0,P|212:239|176:261,1,85,0|0,1:2|1:2,0:0:0:0:
291,166,115369,2,0,P|332:172|368:150,1,85,10|0,0:2|0:2,0:2:0:0:
464,192,115706,5,0,1:2:0:0:
256,0,116043,1,14,0:2:0:0:
48,192,116380,1,0,1:2:0:0:
256,384,116717,2,0,P|273:342|251:204,1,170,14|0,0:2|1:2,0:2:0:0:
127,86,117392,6,0,L|42:73,1,85,10|0,0:2|0:0,0:0:0:0:
211,97,117729,2,0,L|295:109,1,85,0|0,1:2|1:2,0:0:0:0:
463,132,118066,2,0,L|379:120,1,85,14|0,0:2|1:2,0:0:0:0:
451,217,118403,6,0,L|463:132,1,85,2|0,1:2|0:0,0:2:0:0:
295,109,118740,2,0,L|283:194,1,85,8|0,0:2|0:0,0:0:0:0:
366,204,119077,2,0,L|378:119,1,85,0|0,1:2|1:2,0:0:0:0:
211,97,119414,2,0,L|199:182,2,85,10|0|0,0:2|0:2|1:2,0:2:0:0:
64,192,120088,5,8,0:2:0:0:
256,368,120425,1,0,1:2:0:0:
448,192,120762,1,14,0:2:0:0:
256,16,121099,5,0,1:2:0:0:
256,16,121268,1,0,1:2:0:0:
256,16,121437,1,14,0:2:0:0:
256,16,121605,1,0,0:2:0:0:
256,16,121774,1,8,3:3:0:0:
256,192,122111,5,8,3:3:0:0:
256,192,122195,1,8,3:3:0:0:
256,192,122279,1,8,3:3:0:0:
256,192,122364,1,8,3:3:0:0:
256,192,122448,2,0,P|183:224|77:170,1,170,6|8,1:2|0:2,0:2:0:0:
34,250,123122,1,0,1:2:0:0:
97,364,123459,5,8,0:2:0:0:
164,311,123796,2,0,L|183:108,1,170,2|8,1:2|0:2,0:2:0:0:
104,103,124470,1,0,1:2:0:0:
256,16,124807,5,8,0:2:0:0:
332,54,125144,2,0,L|315:223,2,170,2|8|0,1:2|0:2|1:2,0:2:0:0:
406,11,126156,5,10,0:2:0:0:
406,11,126324,1,0,0:2:0:0:
484,54,126493,1,2,1:2:0:0:
484,54,126661,1,0,0:2:0:0:
411,96,126830,1,10,0:2:0:0:
411,96,126998,1,0,0:2:0:0:
486,146,127167,1,2,1:3:0:0:
486,146,127335,1,0,1:2:0:0:
394,224,127504,5,10,0:2:0:0:
325,174,127841,2,0,L|157:147,1,170,2|8,1:2|0:2,0:2:0:0:
91,93,128515,1,0,1:2:0:0:
28,207,128852,5,8,0:2:0:0:
94,261,129189,2,0,L|262:288,1,170,2|8,1:2|0:2,0:2:0:0:
331,338,129864,1,0,1:2:0:0:
512,239,130201,5,8,0:2:0:0:
453,176,130538,2,0,L|285:149,1,170,2|8,1:2|0:2,0:2:0:0:
229,79,131128,1,0,1:2:0:0:
229,79,131212,1,0,1:2:0:0:
155,120,131380,1,0,0:2:0:0:
96,7,131549,6,0,L|74:89,1,85,14|8,0:2|0:2,0:0:0:0:
92,172,131886,2,0,P|50:170|14:150,1,85,2|0,1:2|0:2,0:0:0:0:
155,120,132223,2,0,P|191:99|233:98,1,85,10|0,0:2|0:2,0:0:0:0:
236,263,132560,2,0,L|215:181,1,85,2|0,1:3|1:2,0:0:0:0:
177,19,132897,5,10,0:2:0:0:
92,172,133234,1,6,1:2:0:0:
182,322,133571,1,10,0:2:0:0:
357,319,133908,1,2,1:2:0:0:
441,166,134246,5,10,0:2:0:0:
357,319,134583,1,2,1:2:0:0:
182,322,134920,1,10,0:2:0:0:
92,172,135257,1,2,1:2:0:0:
177,19,135594,5,10,0:2:0:0:
92,172,135931,1,2,1:2:0:0:
182,322,136268,1,10,0:2:0:0:
357,319,136605,1,2,1:2:0:0:
441,166,136942,1,10,0:2:0:0:
351,16,137279,1,2,1:2:0:0:
177,19,137616,2,0,L|161:135,2,85,10|0|0,0:2|0:0|1:2,0:0:0:0:
389,168,138291,5,8,0:2:0:0:
280,325,138628,2,0,L|450:347,1,170,6|10,1:2|0:2,0:2:0:0:
123,216,139302,2,0,L|101:386,1,170,2|10,1:2|0:2,0:0:0:0:
232,59,139976,2,0,L|62:37,1,170,2|10,1:2|0:2,0:0:0:0:
389,168,140650,2,0,L|411:-2,1,170,2|10,1:3|0:2,0:0:0:0:
280,325,141324,2,0,L|450:347,1,170,2|14,1:2|0:2,0:2:0:0:
256,192,141998,6,0,L|341:203,1,85,0|0,1:2|1:2,0:0:0:0:
256,192,142335,2,0,L|267:107,1,85,10|0,0:2|0:0,0:0:0:0:
256,192,142673,2,0,L|171:181,1,85,6|0,1:2|0:0,0:2:0:0:
256,192,143010,2,0,L|245:277,1,85,12|0,0:2|1:2,0:0:0:0:
168,365,143347,5,8,3:3:0:0:
157,368,143431,1,8,3:3:0:0:
147,370,143515,1,8,3:3:0:0:
137,371,143599,1,8,3:3:0:0:
126,371,143684,1,4,3:3:0:0:
115,369,143768,1,4,3:3:0:0:
105,366,143852,1,4,3:3:0:0:
96,361,143937,1,4,3:3:0:0:
87,356,144021,2,0,L|119:258,1,85,6|0,1:2|0:2,0:2:0:0:
74,114,144358,6,0,L|47:194,1,85,10|0,0:2|0:0,0:2:0:0:
221,305,144695,2,0,L|253:207,1,85,0|0,1:2|1:2,0:0:0:0:
495,183,145032,2,0,P|414:145|299:164,3,170,10|2|10|2,0:2|1:2|0:2|1:2,0:0:0:0:
258,186,146212,1,0,0:2:0:0:
205,119,146380,1,10,0:2:0:0:
282,82,146549,1,0,1:2:0:0:
335,149,146717,6,0,L|356:249,1,85,2|0,1:2|0:0,0:2:0:0:
295,358,147055,2,0,P|379:360|454:323,2,170,10|2|10,0:2|1:2|0:2,0:0:0:0:
47,272,148066,5,0,1:2:0:0:
130,258,148234,1,0,1:2:0:0:
213,244,148403,2,0,L|193:150,1,85,10|0,0:2|0:0,0:0:0:0:
361,188,148740,5,0,1:2:0:0:
278,174,148908,1,0,1:2:0:0:
195,160,149077,2,0,L|215:66,1,85,14|0,0:2|0:0,0:0:0:0:
256,0,149414,5,0,3:2:0:0:
314,320,149751,1,0,1:2:0:0:
341,336,149835,1,0,1:2:0:0:
371,345,149920,1,0,1:2:0:0:
403,347,150004,1,0,1:2:0:0:
434,341,150088,2,0,L|446:250,1,85,8|8,3:3|3:3,0:0:0:0:
361,153,150425,2,0,P|441:112|525:149,2,170,14|0|10,0:2|1:2|0:2,0:2:0:0:
302,214,151268,1,0,0:2:0:0:
241,154,151437,2,0,L|248:69,1,85,0|0,1:2|1:2,0:0:0:0:
156,170,151774,2,0,L|148:254,1,85,14|0,0:2|0:2,0:2:0:0:
76,140,152111,2,0,L|83:55,2,85,0|0|10,1:2|1:2|0:2,0:0:0:0:
0,332,152785,6,0,P|49:335|91:308,1,85,2|0,1:2|1:2,0:0:0:0:
155,127,153122,2,0,P|106:124|64:151,1,85,10|0,0:2|1:2,0:0:0:0:
241,372,153459,2,0,P|290:375|332:348,1,85,0|0,1:2|0:0,0:0:0:0:
396,167,153796,2,0,P|347:164|305:191,1,85,12|0,0:2|0:2,0:2:0:0:
483,303,154133,5,0,3:2:0:0:
483,303,154217,1,0,3:2:0:0:
483,303,154302,1,0,3:2:0:0:
483,303,154386,1,0,3:2:0:0:
483,303,154470,1,8,3:3:0:0:
483,303,154555,1,8,3:3:0:0:
483,303,154639,1,8,3:3:0:0:
483,303,154723,1,8,3:3:0:0:
483,303,154807,2,0,L|496:204,1,85,6|0,1:2|0:2,0:2:0:0:
316,179,155144,2,0,L|303:278,1,85,10|2,0:2|1:2,0:0:0:0:
399,233,155482,5,2,1:2:0:0:
399,233,155650,1,0,0:0:0:0:
231,161,155819,2,0,L|242:76,1,85,8|0,0:2|1:2,0:0:0:0:
152,50,156156,2,0,L|338:22,2,170,2|10|2,1:2|0:2|1:2,0:2:0:0:
73,17,156998,1,0,0:2:0:0:
34,93,157167,1,10,0:2:0:0:
229,166,157504,6,0,L|342:148,1,85,2|0,1:2|1:2,0:0:0:0:
407,141,157841,2,0,L|376:323,2,170,10|0|10,0:2|1:2|0:2,0:2:0:0:
296,17,158852,5,0,1:2:0:0:
370,57,159021,1,0,1:2:0:0:
442,13,159189,1,8,0:2:0:0:
282,139,159526,5,2,1:2:0:0:
208,99,159695,1,0,1:2:0:0:
136,143,159864,1,12,0:2:0:0:
217,192,160032,1,0,1:2:0:0:
217,192,160116,1,0,1:2:0:0:
217,192,160201,2,0,P|241:271|226:367,2,170,6|8|2,1:2|0:2|1:2,0:2:0:0:
136,143,161043,1,0,1:2:0:0:
56,192,161212,1,12,0:2:0:0:
456,192,161549,5,6,1:2:0:0:
256,0,161886,1,8,0:2:0:0:
56,192,162223,1,0,1:2:0:0:
256,384,162560,1,8,0:2:0:0:
256,192,162897,6,0,B|236:95|279:125|262:23,2,170,6|8|0,1:2|0:2|1:2,0:2:0:0:
319,256,163740,1,0,1:2:0:0:
319,256,163908,2,0,L|422:239,1,85,10|0,0:2|0:2,0:2:0:0:
262,325,164246,6,0,L|83:297,2,170,2|10|2,1:2|0:2|1:2,0:0:0:0:
330,384,165088,1,0,0:2:0:0:
330,384,165257,1,10,0:2:0:0:
482,302,165594,6,0,P|512:234|487:115,1,170,2|14,1:2|0:2,0:2:0:0:
449,73,166099,1,0,0:0:0:0:
388,132,166268,2,0,L|380:228,1,85,6|0,1:2|0:0,0:0:0:0:
256,128,166605,2,0,L|264:32,1,85,10|2,0:2|1:2,0:0:0:0:
123,115,166942,1,0,3:2:0:0:
122,125,167026,1,0,3:2:0:0:
121,136,167111,1,0,3:2:0:0:
120,146,167195,1,0,3:2:0:0:
119,157,167279,1,8,3:3:0:0:
118,167,167364,1,8,3:3:0:0:
117,178,167448,1,8,3:3:0:0:
116,189,167532,1,8,3:3:0:0:
115,199,167616,2,0,L|71:205,7,42.5,4|4|4|4|4|4|4|4,3:3|3:3|3:3|3:3|3:3|3:3|3:3|3:3,0:0:0:0:
178,260,168291,6,0,L|368:283,1,170,6|8,1:2|0:2,0:2:0:0:
461,225,168796,2,0,L|481:56,1,170,4|0,1:2|1:2,0:2:0:0:
351,151,169302,1,12,0:2:0:0:
170,146,169639,6,0,L|158:38,2,85,0|0|8,1:2|1:2|0:2,0:0:0:0:
181,242,170313,2,0,L|197:350,2,85,0|0|8,1:2|1:2|0:2,0:0:0:0:
464,277,170987,6,0,L|274:300,1,170,6|8,1:2|0:2,0:2:0:0:
181,242,171493,2,0,L|161:73,1,170,4|0,1:2|1:2,0:2:0:0:
291,168,171998,1,8,0:2:0:0:
503,61,172335,6,0,L|419:52,2,85,0|0|8,1:2|1:2|0:2,0:0:0:0:
330,36,173010,2,0,L|245:26,2,85,0|0|8,1:2|1:2|0:2,0:0:0:0:
86,105,173684,6,0,P|29:164|40:245,1,170,6|8,1:2|0:2,0:2:0:0:
152,278,174189,2,0,P|208:218|197:137,1,170,4|0,1:2|0:2,0:2:0:0:
86,105,174695,1,12,0:2:0:0:
77,340,175032,5,0,1:2:0:0:
77,340,175201,1,0,1:2:0:0:
77,340,175369,1,8,0:2:0:0:
203,307,175706,1,0,1:2:0:0:
203,307,175875,1,0,1:2:0:0:
203,307,176043,1,8,0:2:0:0:
479,288,176380,6,0,P|399:297|350:232,1,170,6|8,1:2|0:2,0:2:0:0:
365,141,176886,2,0,P|316:76|235:85,1,170,4|0,1:2|1:2,0:2:0:0:
167,142,177392,1,8,0:2:0:0:
256,352,177729,5,0,3:2:0:0:
256,352,177813,1,0,3:2:0:0:
256,352,177897,1,0,3:3:0:0:
256,352,177982,1,0,3:2:0:0:
256,352,178066,1,8,3:2:0:0:
256,352,178150,1,8,3:2:0:0:
256,352,178234,1,8,3:3:0:0:
256,352,178319,1,8,3:3:0:0:
256,352,178403,2,0,L|314:364,3,42.5,4|4|4|4,3:2|3:2|3:3|3:3,0:0:0:0:
364,317,178740,2,0,L|422:305,3,42.5,8|8|8|8,0:2|0:2|0:2|0:2,0:0:0:0:
479,354,179077,6,0,P|506:275|464:205,1,170,6|8,1:2|0:2,0:2:0:0:
382,87,179583,2,0,P|346:174|270:154,1,170,4|0,1:2|1:2,0:2:0:0:
206,24,180088,2,0,L|182:105,1,85,12|0,0:2|0:2,0:2:0:0:
52,110,180425,5,0,1:2:0:0:
23,190,180594,1,0,1:2:0:0:
52,269,180762,1,8,0:2:0:0:
108,340,180931,1,8,0:2:0:0:
108,340,181015,1,8,0:2:0:0:
108,340,181099,1,8,0:2:0:0:
188,367,181268,1,0,1:2:0:0:
271,350,181437,1,12,0:2:0:0:
328,288,181605,1,0,1:2:0:0:
250,214,181774,6,0,P|290:125|382:144,1,170,6|8,1:2|0:2,0:2:0:0:
150,156,182279,2,0,P|134:80|201:-4,1,170,4|0,1:2|1:2,0:2:0:0:
85,211,182785,2,0,P|21:220|5:205,1,85,0|0,1:2|0:2,0:2:0:0:
100,366,183122,5,0,1:2:0:0:
160,305,183291,1,0,1:2:0:0:
242,286,183459,1,8,0:2:0:0:
324,308,183628,1,8,0:2:0:0:
406,287,183796,1,8,0:2:0:0:
406,287,183880,1,8,0:2:0:0:
440,208,184049,1,8,0:2:0:0:
440,208,184133,1,8,0:2:0:0:
398,133,184302,1,0,1:2:0:0:
315,151,184470,6,0,L|123:125,1,170,6|8,1:2|0:2,0:2:0:0:
116,353,184976,2,0,L|284:375,1,170,4|0,1:2|1:2,0:2:0:0:
393,233,185482,2,0,L|383:317,1,85,8|0,0:2|0:2,0:2:0:0:
221,253,185819,5,0,1:2:0:0:
158,195,185987,1,0,1:2:0:0:
146,110,186156,1,8,0:2:0:0:
197,42,186324,1,0,1:2:0:0:
279,19,186493,1,0,1:2:0:0:
356,54,186661,1,0,1:2:0:0:
382,134,186830,1,8,0:2:0:0:
363,216,186998,1,0,1:2:0:0:
294,165,187167,6,0,P|198:130|124:171,1,170,6|8,1:2|0:2,0:2:0:0:
130,340,187673,2,0,P|226:375|300:334,1,170,4|0,1:2|1:2,0:2:0:0:
294,165,188178,1,12,0:2:0:0:
78,49,188515,5,0,3:2:0:0:
78,49,188599,1,0,3:2:0:0:
78,49,188684,1,0,3:2:0:0:
78,49,188768,1,0,3:2:0:0:
78,49,188852,2,0,L|67:102,3,42.5,0|0|0|0,3:2|3:2|3:2|3:2,0:0:0:0:
122,149,189189,2,0,L|133:202,3,42.5,8|8|8|8,3:3|3:3|3:3|3:3,0:0:0:0:
70,243,189526,2,0,L|59:296,4,42.5,4|4|4|4|4,3:3|3:3|3:3|3:3|1:2,0:0:0:0:
157,82,193571,6,0,L|61:93,1,85,2|0,3:2|0:0,0:2:0:0:
242,71,193908,2,0,L|157:81,1,85,2|0,3:2|0:0,0:0:0:0:
327,60,194246,2,0,L|242:70,1,85,2|0,3:2|0:0,0:0:0:0:
411,50,194583,2,0,L|73:91,1,340,2|0,3:2|3:2,0:0:0:0:
439,240,198965,6,0,P|469:211|478:170,1,85,2|0,3:2|0:0,0:2:0:0:
400,309,199302,2,0,P|440:321|480:309,1,85,2|0,3:2|0:0,0:0:0:0:
313,316,199639,2,0,P|323:356|354:384,1,85,2|0,3:2|0:0,0:0:0:0:
318,228,199976,2,0,P|176:166|96:300,1,340,2|0,3:2|3:2,0:0:0:0:
65,168,204358,6,0,L|53:263,1,85,2|0,3:2|0:0,0:2:0:0:
217,133,204695,2,0,L|121:121,1,85,2|0,3:2|0:0,0:0:0:0:
252,284,205032,2,0,L|263:188,1,85,2|0,3:2|0:0,0:0:0:0:
101,319,205369,2,0,L|196:330,1,85,2|0,3:2|0:0,0:0:0:0:
65,168,205706,1,0,0:0:0:0:
256,0,206043,5,4,1:2:0:0:
256,0,206212,1,8,0:2:0:0:
313,84,207392,5,4,1:2:0:0:
313,84,207560,1,8,0:2:0:0:
140,168,208740,5,4,1:2:0:0:
140,168,208908,1,8,0:2:0:0:
318,353,210088,5,0,1:2:0:0:
400,329,210257,1,8,0:2:0:0:
454,263,210425,1,0,1:2:0:0:
465,178,210594,1,8,0:2:0:0:
413,110,210762,2,0,L|355:125,3,42.5,8|8|8|8,3:3|3:3|3:3|3:3,0:0:0:0:
309,169,211099,2,0,L|251:154,3,42.5,8|8|8|8,3:3|3:3|3:3|3:3,0:0:0:0:
205,97,211437,6,0,P|169:120|156:166,1,85,6|0,1:2|0:0,0:0:0:0:
205,227,211774,2,0,P|248:239|268:358,2,170,8|0|8,0:2|1:2|0:2,0:2:0:0:
408,349,212785,5,0,1:2:0:0:
408,349,212953,1,0,1:2:0:0:
408,349,213122,1,8,0:2:0:0:
470,233,213459,1,0,1:2:0:0:
470,233,213628,1,0,1:2:0:0:
470,233,213796,1,8,0:2:0:0:
344,156,214133,5,0,1:2:0:0:
344,156,214302,1,0,1:2:0:0:
344,156,214470,1,8,0:2:0:0:
282,40,214807,1,0,1:2:0:0:
282,40,214976,1,0,1:2:0:0:
282,40,215144,1,8,0:2:0:0:
68,85,215482,6,0,P|108:72|147:89,1,85,2|0,1:2|0:0,0:2:0:0:
105,163,215819,2,0,L|147:356,2,170,8|0|8,0:2|1:2|0:2,0:0:0:0:
24,352,216830,5,0,1:2:0:0:
24,352,216998,1,0,1:2:0:0:
24,352,217167,1,8,0:2:0:0:
200,285,217504,1,0,1:2:0:0:
200,285,217673,1,0,1:2:0:0:
200,285,217841,1,12,0:2:0:0:
302,233,218178,5,0,1:2:0:0:
302,233,218347,1,0,1:2:0:0:
302,233,218515,1,8,0:2:0:0:
458,289,218852,1,0,1:2:0:0:
458,289,219021,1,0,1:2:0:0:
458,289,219189,1,8,0:2:0:0:
474,68,219526,6,0,P|482:114|451:150,1,85,2|0,1:2|1:2,0:0:0:0:
375,173,219864,2,0,P|305:111|230:113,1,170,12|0,0:2|1:2,0:2:0:0:
150,80,220369,1,0,1:2:0:0:
150,80,220538,2,0,P|131:142|145:178,1,85,12|0,0:2|0:2,0:2:0:0:
208,216,220875,6,0,L|269:228,3,42.5,8|8|8|8,3:3|3:3|3:3|3:3,0:0:0:0:
151,275,221212,2,0,L|90:287,3,42.5,8|8|8|8,3:3|3:3|3:3|3:3,0:0:0:0:
221,321,221549,2,0,L|217:367,2,42.5,4|4|4,3:3|3:3|3:3,0:0:0:0:
304,304,221886,5,4,3:3:0:0:
324,308,221970,1,4,3:3:0:0:
345,312,222055,1,4,3:3:0:0:
365,315,222139,1,4,3:3:0:0:
386,319,222223,2,0,L|368:235,1,85,6|0,1:2|1:2,0:0:0:0:
474,113,222560,6,0,P|474:154|443:181,1,85,10|0,0:2|1:2,0:0:0:0:
281,212,222897,2,0,P|242:196|219:161,1,85,2|0,1:2|0:0,0:2:0:0:
337,69,223234,2,0,L|368:235,3,170,10|2|10|2,0:2|1:2|0:2|1:2,0:0:0:0:
328,311,224414,5,0,1:2:0:0:
249,344,224583,1,8,0:2:0:0:
164,333,224751,1,0,1:2:0:0:
98,278,224920,2,0,P|85:205|105:183,1,85,2|0,1:2|0:2,0:2:0:0:
138,131,225257,2,0,L|318:162,2,170,10|0|10,0:2|1:2|0:2,0:2:0:0:
414,25,226268,6,0,P|373:34|352:69,1,85,2|0,1:2|1:2,0:0:0:0:
401,139,226605,1,12,0:2:0:0:
401,231,226774,1,0,1:2:0:0:
401,231,226858,1,0,1:2:0:0:
401,231,226942,1,2,1:2:0:0:
321,262,227111,1,0,1:2:0:0:
246,222,227279,1,14,0:2:0:0:
165,250,227448,1,0,0:2:0:0:
256,384,227616,5,6,1:2:0:0:
512,192,227953,1,10,0:2:0:0:
256,0,228291,1,2,1:2:0:0:
0,192,228628,1,14,0:2:0:0:
256,384,228965,5,2,1:2:0:0:
330,344,229133,1,0,1:2:0:0:
402,299,229302,2,0,P|411:246|398:215,1,85,10|0,0:2|0:2,0:2:0:0:
294,247,229639,5,0,1:2:0:0:
220,207,229807,1,0,1:2:0:0:
148,162,229976,2,0,P|139:109|152:78,1,85,10|0,0:2|1:2,0:0:0:0:
150,81,230229,1,0,1:2:0:0:
150,81,230313,5,2,1:2:0:0:
231,107,230482,1,0,0:2:0:0:
307,70,230650,2,0,P|345:46|406:68,1,85,14|0,0:2|0:2,0:2:0:0:
456,94,230987,2,0,L|444:196,3,85,0|0|10|0,1:2|1:2|0:2|1:2,0:0:0:0:
503,259,231661,6,0,P|493:329|378:349,1,170,2|12,1:2|0:2,0:2:0:0:
338,313,232167,1,0,1:2:0:0:
262,350,232335,1,8,3:3:0:0:
249,346,232420,1,8,3:3:0:0:
236,343,232504,1,8,3:3:0:0:
223,341,232588,1,8,3:3:0:0:
210,338,232673,1,4,3:3:0:0:
198,335,232757,1,4,3:3:0:0:
185,332,232841,1,4,3:3:0:0:
172,330,232925,1,4,3:3:0:0:
159,328,233010,6,0,P|115:329|65:351,1,85,6|0,1:2|1:2,0:0:0:0:
243,224,233347,2,0,P|285:223|325:208,1,85,10|0,0:2|1:2,0:0:0:0:
172,49,233684,2,0,P|128:120|133:203,4,170,2|10|2|14|2,1:2|0:2|1:2|0:2|1:2,0:2:0:0:
247,9,235201,1,0,1:2:0:0:
309,66,235369,1,10,0:2:0:0:
234,106,235538,1,0,0:2:0:0:
316,194,235706,6,0,L|429:176,1,85,2|0,1:2|0:2,0:2:0:0:
493,115,236043,2,0,B|477:212|527:184|502:292,2,170,10|0|10,0:2|1:2|0:2,0:2:0:0:
347,0,237055,5,2,1:2:0:0:
281,55,237223,1,0,0:2:0:0:
201,25,237392,1,14,0:2:0:0:
191,194,237729,5,2,1:2:0:0:
111,164,237897,1,0,0:2:0:0:
52,224,238066,1,10,0:2:0:0:
138,262,238234,1,0,0:0:0:0:
138,262,238319,1,0,0:0:0:0:
138,262,238403,2,0,P|222:244|319:243,2,170,2|12|2,1:2|0:2|1:2,0:2:0:0:
52,224,239246,1,0,1:2:0:0:
1,303,239414,1,10,0:2:0:0:
87,341,239583,1,0,1:2:0:0:
142,266,239751,5,0,1:2:0:0:
142,266,239920,1,0,1:2:0:0:
256,342,240088,1,14,0:2:0:0:
256,342,240257,1,0,0:2:0:0:
370,266,240425,1,0,1:2:0:0:
370,266,240594,1,0,1:2:0:0:
256,190,240762,6,0,P|250:134|283:13,3,170,14|2|14|2,0:2|1:2|0:2|1:2,0:2:0:0:
365,16,241942,1,0,0:0:0:0:
365,16,242111,2,0,L|472:32,1,85,10|0,0:2|0:2,0:0:0:0:
332,116,242448,2,0,L|163:90,2,170,6|10|0,1:2|0:2|1:2,0:2:0:0:
392,176,243291,1,0,1:2:0:0:
313,203,243459,1,8,0:2:0:0:
313,203,243628,1,0,1:2:0:0:
253,145,243796,6,0,P|184:191|174:273,1,170,6|10,1:2|0:2,0:0:0:0:
207,351,244302,1,0,1:2:0:0:
294,333,244470,2,0,L|382:325,1,85,2|0,1:2|1:2,0:0:0:0:
428,222,244807,2,0,L|512:214,1,85,14|0,0:2|0:2,0:2:0:0:
348,136,245144,1,8,3:3:0:0:
347,126,245229,1,8,3:3:0:0:
346,115,245313,1,8,3:3:0:0:
345,105,245397,1,8,3:3:0:0:
344,94,245482,1,8,3:3:0:0:
343,84,245566,1,8,3:3:0:0:
342,73,245650,1,8,3:3:0:0:
341,62,245734,1,8,3:3:0:0:
339,51,245819,2,0,L|283:38,7,42.5,4|4|4|4|4|4|4|4,3:3|3:3|3:3|3:3|3:3|3:3|3:3|3:3,0:0:0:0:
277,28,246493,6,0,P|234:79|122:65,1,170,6|10,1:2|0:2,0:2:0:0:
59,115,247167,1,0,1:2:0:0:
130,161,247335,1,0,1:2:0:0:
56,203,247504,1,8,0:2:0:0:
127,249,247673,1,0,0:2:0:0:
57,297,247841,1,2,1:2:0:0:
128,343,248178,5,10,0:2:0:0:
256,192,248515,1,2,1:2:0:0:
384,343,248852,1,10,0:2:0:0:
472,252,249189,6,0,L|500:69,1,170,2|10,1:2|0:2,0:2:0:0:
454,5,249779,1,0,3:0:0:0:
454,5,249864,1,0,1:2:0:0:
373,28,250032,1,0,1:2:0:0:
293,54,250201,1,8,0:2:0:0:
313,136,250369,1,0,0:2:0:0:
338,217,250538,1,2,1:2:0:0:
358,299,250875,5,10,0:2:0:0:
293,54,251212,1,2,1:2:0:0:
48,119,251549,1,14,0:2:0:0:
122,183,251886,6,0,L|150:0,2,170,6|10|0,1:2|0:2|1:2,0:2:0:0:
48,226,252729,1,0,1:2:0:0:
66,309,252897,1,10,0:2:0:0:
150,317,253066,1,0,0:2:0:0:
183,239,253234,1,0,1:2:0:0:
183,239,253403,1,0,1:2:0:0:
122,183,253571,5,10,0:2:0:0:
150,317,253908,1,0,1:2:0:0:
284,289,254246,1,10,0:2:0:0:
384,357,254414,5,0,3:0:0:0:
384,357,254498,1,0,3:0:0:0:
384,357,254583,2,0,P|450:355|502:251,1,170,2|8,1:2|0:2,0:0:0:0:
461,196,255173,1,0,3:0:0:0:
461,196,255257,1,0,1:2:0:0:
381,225,255425,1,0,1:2:0:0:
344,147,255594,1,10,0:2:0:0:
261,166,255762,1,0,0:2:0:0:
220,91,255931,5,0,3:2:0:0:
204,77,256015,1,0,3:2:0:0:
185,66,256099,1,0,3:2:0:0:
166,58,256184,1,0,3:2:0:0:
145,54,256268,1,0,3:2:0:0:
123,54,256352,1,0,3:2:0:0:
103,58,256437,1,0,3:2:0:0:
83,65,256521,1,0,3:2:0:0:
64,76,256605,2,0,L|69:149,3,42.5,8|8|8|8,3:3|3:3|3:3|3:3,0:0:0:0:
34,188,256942,2,0,L|39:261,3,42.5,4|4|4|4,3:3|3:3|3:3|3:3,0:0:0:0:
1,298,257279,5,12,1:2:0:0:
256,192,257364,12,0,268740,0:2:0:0:
