osu file format v14

[General]
AudioFilename: audio.mp3
AudioLeadIn: 0
PreviewTime: 143925
Countdown: 0
SampleSet: Soft
StackLeniency: 0.6
Mode: 0
LetterboxInBreaks: 0
WidescreenStoryboard: 1

[Editor]
DistanceSpacing: 0.4
BeatDivisor: 4
GridSize: 16
TimelineZoom: 4.299998

[Metadata]
Title:Pray
TitleUnicode:Pray
Artist:Tommy heavenly6
ArtistUnicode:Tommy heavenly6
Creator:Hishiro Chizuru
Version:Beginning
Source:銀魂
Tags:amb1d3x 川瀬智子 tomoko kawase february6 heavy starry japanese rock lasse brasse 劇場版 銀魂 完結篇 万事屋よ永遠なれ Gintama The Final Chapter Be Forever Yorozuya Movie 2
BeatmapID:3800902
BeatmapSetID:1850237

[Difficulty]
HPDrainRate:5
CircleSize:4
OverallDifficulty:8
ApproachRate:9
SliderMultiplier:1.7
SliderTickRate:1

[Events]
//Background and Video events
0,0,"Praybg.jpg",0,0
//Break Periods
2,190201,192813
2,195594,198206
2,200987,203599
//Storyboard Layer 0 (Background)
//Storyboard Layer 1 (Fail)
//Storyboard Layer 2 (Pass)
//Storyboard Layer 3 (Foreground)
//Storyboard Layer 4 (Overlay)
//Storyboard Sound Samples

[TimingPoints]
1100,337.078651685393,4,2,0,70,1,0
1100,-100,4,2,0,70,0,0
23010,-133.333333333333,4,2,0,60,0,0
65819,-90.9090909090909,4,2,0,75,0,0
90088,-100,4,2,0,70,0,0
101212,-133.333333333333,4,2,0,65,0,0
144021,-90.9090909090909,4,2,0,75,0,0
168291,-100,4,2,0,70,0,0
193571,-133.333333333333,4,2,0,55,0,0
206043,-133.333333333333,4,2,0,60,0,0
211437,-133.333333333333,4,2,0,50,0,0
222223,-90.9090909090909,4,2,0,75,0,0
246493,-100,4,2,0,70,0,0
268740,-100,4,2,0,5,0,0

[Colours]
Combo1 : 181,255,255
Combo2 : 221,221,238
Combo3 : 255,128,128

[HitObjects]
46,102,425,5,2,0:2:0:0:
46,102,594,1,0,0:2:0:0:
126,134,762,1,2,0:2:0:0:
126,134,931,1,0,0:2:0:0:
201,93,1100,2,0,P|219:33|199:12,1,85,6|0,1:2|0:2,0:2:0:0:
25,216,1437,6,0,P|118:239|161:304,1,170,10|0,0:2|1:2,0:2:0:0:
250,296,1942,1,0,0:2:0:0:
250,296,2111,2,0,P|245:341|216:367,1,85,10|0,0:2|0:2,0:2:0:0:
255,204,2448,5,0,1:2:0:0:
323,253,2616,1,0,1:2:0:0:
400,217,2785,2,0,P|412:168|385:116,1,85,10|0,0:2|0:2,0:2:0:0:
272,29,3122,2,0,L|259:134,1,85,0|0,1:2|0:2,0:2:0:0:
117,198,3459,2,0,P|105:149|132:97,1,85,10|0,0:2|0:2,0:2:0:0:
309,356,3796,6,0,L|404:344,1,85,0|0,1:2|0:2,0:2:0:0:
512,217,4133,2,0,P|465:145|380:165,1,170,10|0,0:2|1:2,0:2:0:0:
371,240,4639,1,0,0:2:0:0:
222,124,4807,1,8,0:2:0:0:
222,124,4976,1,0,0:2:0:0:
322,32,5144,6,0,L|284:216,2,170,2|8|0,1:2|0:2|1:2,0:2:0:0:
222,124,5987,1,0,1:2:0:0:
390,87,6156,1,8,0:2:0:0:
186,19,6324,5,0,1:2:0:0:
186,19,6408,1,0,1:2:0:0:
186,19,6493,1,2,1:2:0:0:
121,116,6661,1,0,1:2:0:0:
204,214,6830,2,0,L|298:196,1,85,10|0,0:2|0:2,0:2:0:0:
97,328,7167,5,2,1:2:0:0:
97,328,7335,1,0,1:2:0:0:
255,370,7504,1,10,0:2:0:0:
255,370,7673,1,0,0:2:0:0:
477,287,7841,5,2,1:2:0:0:
417,373,8010,1,0,1:2:0:0:
299,216,8178,2,0,L|124:239,2,170,10|0|8,0:2|1:2|0:2,0:2:0:0:
373,272,9021,1,0,0:2:0:0:
463,27,9189,6,0,P|491:59|500:101,1,85,2|0,1:2|0:2,0:2:0:0:
383,191,9526,2,0,L|205:165,1,170,10|0,0:2|1:2,0:2:0:0:
154,97,10032,1,0,1:2:0:0:
154,97,10201,2,0,P|120:135|123:185,1,85,10|0,0:2|0:2,0:2:0:0:
251,25,10538,5,0,1:2:0:0:
251,25,10706,1,0,1:2:0:0:
333,77,10875,2,0,L|313:174,1,85,10|0,0:2|0:2,0:2:0:0:
315,160,11128,1,0,1:2:0:0:
315,160,11212,1,0,1:2:0:0:
240,216,11380,1,0,1:2:0:0:
405,376,11549,1,12,0:2:0:0:
405,376,11886,6,0,P|448:306|436:282,1,85,2|0,1:2|0:2,0:2:0:0:
320,262,12223,2,0,L|151:281,1,170,10|0,0:2|1:2,0:2:0:0:
101,354,12729,1,0,1:2:0:0:
28,251,12897,2,0,P|16:210|29:170,1,85,8|0,0:2|0:2,0:2:0:0:
172,41,13234,5,2,1:2:0:0:
234,99,13403,1,0,1:2:0:0:
313,70,13571,2,0,P|343:40|339:-10,1,85,10|0,0:2|0:2,0:2:0:0:
154,132,13908,2,0,P|164:172|210:194,1,85,0|0,1:2|0:2,0:2:0:0:
250,13,14246,1,8,0:2:0:0:
329,245,14414,5,0,1:2:0:0:
329,245,14498,1,0,1:2:0:0:
329,245,14583,2,0,P|391:280|467:208,1,170,6|8,1:2|0:2,0:2:0:0:
313,70,15088,1,0,0:2:0:0:
313,70,15257,2,0,L|292:166,1,85,2|0,1:2|0:2,0:2:0:0:
216,280,15594,2,0,L|197:196,1,85,10|0,0:2|0:2,0:2:0:0:
26,36,15931,5,0,1:2:0:0:
26,36,16268,2,0,L|210:61,2,170,10|2|10,0:2|1:2|0:2,0:2:0:0:
84,125,17111,1,0,0:2:0:0:
41,314,17279,6,0,P|4:296|0:256,1,85,6|0,1:2|0:2,0:2:0:0:
109,378,17616,2,0,P|163:316|245:318,1,170,10|0,0:2|1:2,0:2:0:0:
415,376,18122,1,0,1:2:0:0:
361,232,18291,2,0,L|340:314,1,85,10|0,0:2|0:2,0:2:0:0:
237,130,18628,5,0,1:2:0:0:
237,130,18796,1,0,1:2:0:0:
332,69,18965,2,0,L|158:26,2,170,10|2|10,0:2|1:2|0:2,0:2:0:0:
403,22,19807,1,0,0:2:0:0:
477,238,19976,6,0,P|498:202|498:160,1,85,2|0,1:2|0:2,0:2:0:0:
411,338,20313,2,0,P|374:265|293:261,1,170,10|0,0:2|1:2,0:2:0:0:
94,344,20819,1,0,1:2:0:0:
189,384,20987,2,0,L|210:271,1,85,10|0,0:2|0:2,0:2:0:0:
242,38,21324,5,0,1:2:0:0:
242,38,21493,1,0,1:2:0:0:
165,148,21661,2,0,P|97:152|55:56,1,170,14|0,0:2|1:2,0:2:0:0:
352,114,22167,5,8,0:2:0:0:
352,114,22251,1,8,0:2:0:0:
352,114,22335,1,10,0:2:0:0:
439,310,22504,1,8,3:0:0:0:
507,221,22673,1,12,0:2:0:0:
507,221,23010,6,0,P|478:207|447:199,1,63.7500024318696,10|0,0:2|0:2,0:2:0:0:
308,277,23347,2,0,P|334:258|357:236,1,63.7500024318696,2|0,1:2|0:2,0:2:0:0:
361,71,23684,2,0,P|363:103|371:133,1,63.7500024318696,10|0,0:2|0:2,0:2:0:0:
447,199,24021,6,0,P|478:207|507:221,1,63.7500024318696,2|0,1:2|0:2,0:2:0:0:
356,236,24358,2,0,P|333:258|308:277,1,63.7500024318696,10|0,0:2|0:2,0:2:0:0:
371,133,24695,2,0,P|362:102|361:71,1,63.7500024318696,2|0,1:2|0:2,0:2:0:0:
426,13,25032,1,10,0:2:0:0:
426,13,25201,1,0,0:2:0:0:
281,125,25369,6,0,P|222:99|159:94,1,127.500004863739,0|10,1:2|0:2,0:2:0:0:
82,142,25875,1,0,0:2:0:0:
82,142,26043,2,0,P|53:114|48:78,1,63.7500024318696,2|0,1:2|0:2,0:2:0:0:
138,239,26380,2,0,P|167:211|172:175,1,63.7500024318696,10|0,0:2|0:2,0:2:0:0:
0,328,26717,5,2,1:2:0:0:
81,312,26886,1,0,1:2:0:0:
152,353,27055,1,10,0:2:0:0:
231,329,27223,1,0,1:2:0:0:
231,329,27392,2,0,P|250:281|247:259,1,63.7500024318696,2|0,1:2|0:2,0:2:0:0:
172,189,27729,2,0,L|298:173,2,127.500004863739,10|2|10,0:2|1:3|0:2,0:2:0:0:
94,143,28571,5,0,0:2:0:0:
94,143,28740,2,0,L|105:58,1,63.7500024318696,2|0,1:2|0:2,0:2:0:0:
197,83,29077,2,0,L|208:-2,1,63.7500024318696,10|0,0:2|0:2,0:2:0:0:
287,130,29414,1,2,1:2:0:0:
287,130,29583,1,0,1:2:0:0:
287,130,29751,2,0,P|366:129|405:72,1,127.500004863739,10|2,0:2|1:2,0:2:0:0:
485,84,30257,1,0,1:2:0:0:
485,84,30425,2,0,P|456:33|431:20,1,63.7500024318696,10|0,0:2|0:2,0:2:0:0:
433,252,30762,5,2,1:3:0:0:
433,252,31099,2,0,L|288:279,2,127.500004863739,10|2|10,0:2|1:2|0:2,0:2:0:0:
373,346,31942,1,0,1:2:0:0:
231,220,32111,2,0,L|77:192,1,127.500004863739,2|8,1:2|0:2,0:2:0:0:
47,255,32616,1,0,3:2:0:0:
47,255,32701,1,0,3:2:0:0:
47,255,32785,1,2,1:2:0:0:
19,177,32953,1,0,1:2:0:0:
44,97,33122,1,8,0:2:0:0:
9,21,33291,1,0,1:2:0:0:
128,101,33459,6,0,L|207:88,1,63.7500024318696,2|0,1:2|0:2,0:2:0:0:
323,41,33796,2,0,P|282:87|290:148,1,127.500004863739,10|2,0:2|1:2,0:2:0:0:
365,195,34302,1,0,1:2:0:0:
365,195,34470,2,0,L|445:187,1,63.7500024318696,10|0,0:2|0:2,0:2:0:0:
379,344,34807,5,2,1:2:0:0:
379,344,34976,1,0,1:2:0:0:
379,344,35144,2,0,P|358:319|349:289,1,63.7500024318696,10|0,0:2|0:2,0:2:0:0:
278,238,35482,1,2,1:2:0:0:
278,238,35651,1,0,1:2:0:0:
278,238,35819,2,0,P|266:267|245:291,1,63.7500024318696,10|0,0:2|0:2,0:2:0:0:
94,355,36156,5,2,1:3:0:0:
94,355,36493,2,0,L|69:201,2,127.500004863739,10|0|10,0:2|1:2|0:2,0:2:0:0:
172,284,37335,1,0,0:2:0:0:
119,140,37504,6,0,P|140:163|171:167,1,63.7500024318696,2|0,1:2|0:2,0:2:0:0:
229,57,37841,2,0,P|198:63|179:88,1,63.7500024318696,10|0,0:2|0:2,0:2:0:0:
245,193,38178,2,0,P|254:163|242:134,2,63.7500024318696,2|0|8,1:2|0:2|0:2,0:2:0:0:
313,331,38684,5,0,3:2:0:0:
313,331,38768,1,0,3:2:0:0:
313,331,38852,2,0,P|363:350|444:326,1,127.500004863739,2|8,1:2|0:2,0:2:0:0:
484,268,39358,1,0,0:2:0:0:
484,268,39526,2,0,L|472:205,1,63.7500024318696,2|0,1:2|0:2,0:2:0:0:
396,88,39864,2,0,L|384:150,1,63.7500024318696,10|0,0:2|0:2,0:2:0:0:
223,216,40201,5,2,1:2:0:0:
223,216,40369,1,0,1:2:0:0:
223,216,40538,2,0,P|270:190|309:191,1,63.7500024318696,10|0,0:2|0:2,0:2:0:0:
136,162,40875,2,0,P|89:134|71:100,2,63.7500024318696,2|0|8,1:2|0:2|0:2,0:2:0:0:
137,276,41380,1,0,3:2:0:0:
137,276,41465,1,0,3:2:0:0:
137,276,41549,1,0,1:2:0:0:
137,276,41886,6,0,P|195:247|282:248,2,127.500004863739,10|2|10,0:2|1:2|0:2,0:2:0:0:
102,354,42729,1,0,0:2:0:0:
25,238,42897,2,0,L|39:167,1,63.7500024318696,2|0,1:2|0:2,0:2:0:0:
68,29,43234,1,12,0:2:0:0:
68,29,43403,1,0,0:2:0:0:
104,134,43571,5,2,1:2:0:0:
127,130,43656,1,0,3:2:0:0:
150,126,43739,1,0,3:2:0:0:
174,122,43823,1,0,3:2:0:0:
197,118,43908,1,2,1:2:0:0:
221,114,43992,1,0,1:2:0:0:
244,110,44076,1,0,1:2:0:0:
268,106,44160,1,0,1:2:0:0:
293,100,44246,6,0,P|334:127|341:157,1,63.7500024318696,6|0,1:2|0:2,0:2:0:0:
303,213,44583,2,0,L|161:202,1,127.500004863739,10|0,0:2|1:2,0:2:0:0:
176,203,45088,1,0,1:2:0:0:
176,203,45257,1,10,0:2:0:0:
482,379,45594,6,0,P|512:344|502:303,1,63.7500024318696,2|0,1:2|0:2,0:2:0:0:
463,261,45931,2,0,L|323:285,1,127.500004863739,10|0,0:2|1:2,0:2:0:0:
337,282,46437,1,0,1:2:0:0:
337,282,46605,1,10,0:2:0:0:
404,117,46942,6,0,P|379:97|370:67,2,63.7500024318696,2|0|8,1:2|0:2|0:2,0:2:0:0:
445,25,47448,1,0,3:2:0:0:
445,25,47532,1,0,3:2:0:0:
445,25,47616,2,0,P|469:44|478:74,2,63.7500024318696,0|0|10,1:2|0:2|0:2,0:2:0:0:
404,117,48122,1,0,0:2:0:0:
321,126,48291,5,2,1:2:0:0:
293,203,48459,1,0,0:2:0:0:
210,215,48628,1,10,0:2:0:0:
178,291,48796,1,0,0:2:0:0:
94,292,48965,1,2,1:3:0:0:
52,363,49133,1,0,1:2:0:0:
52,363,49302,1,10,0:2:0:0:
77,68,49639,6,0,P|46:75|34:112,1,63.7500024318696,2|0,1:2|0:2,0:2:0:0:
83,169,49976,2,0,L|229:155,1,127.500004863739,10|0,0:2|1:2,0:2:0:0:
209,156,50482,1,0,1:2:0:0:
209,156,50650,1,10,0:2:0:0:
462,13,50987,6,0,P|492:20|505:57,1,63.7500024318696,2|0,1:2|0:2,0:2:0:0:
456,114,51324,2,0,L|310:100,1,127.500004863739,10|0,0:2|1:2,0:2:0:0:
329,101,51830,1,0,1:2:0:0:
329,101,51998,1,10,0:2:0:0:
404,267,52335,6,0,P|379:287|370:317,2,63.7500024318696,2|0|8,1:2|0:2|0:2,0:2:0:0:
445,359,52841,1,0,3:2:0:0:
445,359,52925,1,0,3:2:0:0:
445,359,53010,2,0,P|469:340|478:310,2,63.7500024318696,0|0|10,1:2|0:2|0:2,0:2:0:0:
404,267,53515,1,0,0:2:0:0:
321,258,53684,5,2,1:2:0:0:
293,181,53852,1,0,0:2:0:0:
210,169,54021,1,10,0:2:0:0:
178,93,54189,1,0,0:2:0:0:
94,92,54358,1,2,1:3:0:0:
52,21,54526,1,0,1:2:0:0:
52,21,54695,1,14,0:2:0:0:
33,304,55032,6,0,L|158:325,3,127.500004863739,2|10|2|10,1:2|0:2|1:2|0:2,0:2:0:0:
229,282,56212,1,0,0:2:0:0:
229,282,56380,2,0,L|213:209,1,63.7500024318696,2|0,1:2|0:2,0:2:0:0:
281,123,56717,2,0,L|294:185,1,63.7500024318696,10|0,0:2|0:2,0:2:0:0:
369,90,57055,2,0,L|355:27,2,63.7500024318696,2|0|8,1:2|0:2|0:2,0:2:0:0:
223,63,57729,6,0,L|69:35,3,127.500004863739,2|10|2|10,1:2|0:2|1:2|0:2,0:2:0:0:
30,88,58908,1,0,0:2:0:0:
89,146,59077,5,2,1:2:0:0:
129,218,59246,1,0,1:2:0:0:
65,270,59414,1,10,0:2:0:0:
244,342,59751,5,0,1:2:0:0:
180,290,59920,1,0,1:2:0:0:
220,218,60088,1,10,0:2:0:0:
426,352,60425,6,0,L|453:203,3,127.500004863739,6|10|2|10,1:2|0:2|1:2|0:2,0:2:0:0:
406,154,61605,1,0,0:2:0:0:
406,154,61774,2,0,L|336:173,1,63.7500024318696,2|0,1:2|0:2,0:2:0:0:
216,122,62111,2,0,L|277:105,1,63.7500024318696,10|0,0:2|0:2,0:2:0:0:
263,219,62448,2,0,L|201:235,1,63.7500024318696,2|0,1:2|0:2,0:2:0:0:
62,178,62785,2,0,L|123:161,1,63.7500024318696,10|0,0:2|0:2,0:2:0:0:
42,341,63122,5,2,1:2:0:0:
114,301,63291,1,0,1:2:0:0:
177,354,63459,1,8,0:2:0:0:
344,221,63796,5,2,1:2:0:0:
386,291,63965,1,0,1:2:0:0:
467,277,64133,1,8,0:2:0:0:
254,46,64470,6,0,L|231:192,1,127.500004863739,10|4,0:2|1:2,0:2:0:0:
157,205,64976,1,0,1:2:0:0:
222,376,65144,1,8,3:3:0:0:
238,373,65228,1,8,3:3:0:0:
253,371,65312,1,8,3:3:0:0:
269,368,65396,1,8,3:3:0:0:
285,366,65481,1,4,3:3:0:0:
301,363,65565,1,4,3:3:0:0:
316,361,65649,1,4,3:3:0:0:
332,358,65733,1,4,3:3:0:0:
348,356,65819,6,0,P|385:330|386:285,1,93.5000028533936,6|0,1:2|0:2,0:2:0:0:
286,97,66156,2,0,L|260:282,1,187.000005706787,10|0,0:2|1:2,0:2:0:0:
97,307,66661,1,0,1:2:0:0:
22,249,66830,1,10,0:2:0:0:
33,156,66998,1,0,1:2:0:0:
133,20,67167,6,0,P|159:57|203:68,1,93.5000028533936,2|0,1:2|0:2,0:2:0:0:
432,111,67504,2,0,P|386:115|355:147,1,93.5000028533936,10|0,0:2|0:2,0:2:0:0:
203,324,67841,2,0,P|222:282|209:239,1,93.5000028533936,2|0,1:2|0:2,0:2:0:0:
256,154,68178,1,10,0:2:0:0:
256,154,68347,1,0,1:2:0:0:
329,361,68515,6,0,L|512:324,2,187.000005706787,2|8|0,1:2|0:2|1:2,0:2:0:0:
181,325,69358,1,0,1:2:0:0:
181,325,69526,2,0,P|169:270|193:232,1,93.5000028533936,10|0,0:2|0:2,0:2:0:0:
318,34,69864,6,0,L|359:219,1,187.000005706787,2|8,1:2|0:2,0:2:0:0:
453,260,70369,1,0,1:2:0:0:
453,260,70453,1,0,1:2:0:0:
453,260,70538,1,2,1:2:0:0:
260,194,70706,1,0,1:2:0:0:
182,265,70875,2,0,P|179:312|202:352,1,93.5000028533936,8|0,0:2|0:2,0:2:0:0:
0,161,71212,5,0,1:2:0:0:
83,201,71380,1,0,1:2:0:0:
164,155,71549,1,12,0:2:0:0:
468,103,71886,5,2,1:2:0:0:
407,33,72054,1,0,1:2:0:0:
315,50,72223,2,0,L|349:253,1,187.000005706787,14|0,0:2|1:2,0:2:0:0:
433,267,72729,1,0,1:2:0:0:
243,366,72897,2,0,P|198:357|174:318,1,93.5000028533936,8|0,0:2|0:2,0:2:0:0:
129,120,73234,6,0,L|100:209,1,93.5000028533936,2|0,1:2|0:2,0:2:0:0:
39,75,73571,1,8,0:2:0:0:
277,37,73740,1,0,1:2:0:0:
277,37,73824,1,0,1:2:0:0:
277,37,73908,1,2,1:2:0:0:
369,86,74077,1,0,1:2:0:0:
355,271,74246,6,0,L|161:322,1,187.000005706787,8|2,0:2|1:2,0:2:0:0:
34,64,74751,1,0,1:2:0:0:
120,27,74920,1,8,0:2:0:0:
184,94,75088,1,0,1:2:0:0:
136,174,75257,1,2,1:2:0:0:
86,253,75425,1,0,1:2:0:0:
175,365,75594,6,0,L|267:348,1,93.5000028533936,14|0,0:2|0:2,0:2:0:0:
372,227,75931,2,0,L|279:243,1,93.5000028533936,2|0,1:2|0:2,0:2:0:0:
279,243,76184,1,8,3:3:0:0:
279,243,76268,1,8,3:3:0:0:
458,330,76437,5,0,1:2:0:0:
458,330,76521,1,0,1:2:0:0:
458,330,76605,1,6,1:2:0:0:
498,245,76774,1,0,1:2:0:0:
446,167,76942,1,10,0:2:0:0:
478,79,77111,1,0,1:2:0:0:
412,12,77279,2,0,L|208:45,1,187.000005706787,2|8,1:2|0:2,0:2:0:0:
138,12,77785,1,0,1:2:0:0:
34,175,77953,6,0,P|120:155|175:224,2,187.000005706787,2|10|2,1:2|0:2|1:2,0:2:0:0:
130,292,78796,1,0,1:2:0:0:
55,349,78965,2,0,P|83:383|129:384,1,93.5000028533936,10|0,0:2|0:2,0:2:0:0:
372,287,79302,5,0,1:2:0:0:
289,242,79470,1,0,1:2:0:0:
220,305,79639,1,14,0:2:0:0:
381,183,79976,5,0,1:2:0:0:
336,100,80144,1,0,1:2:0:0:
399,31,80313,2,0,L|502:50,1,93.5000028533936,10|0,0:2|0:2,0:2:0:0:
228,143,80650,5,0,1:2:0:0:
159,78,80819,1,0,1:2:0:0:
66,88,80987,2,0,L|49:200,1,93.5000028533936,8|0,0:2|0:2,0:2:0:0:
51,180,81240,1,0,1:2:0:0:
51,180,81324,1,2,1:2:0:0:
187,302,81493,1,0,1:2:0:0:
269,236,81661,1,12,0:2:0:0:
415,360,81830,5,0,1:2:0:0:
415,360,81914,1,0,1:2:0:0:
415,360,81998,2,0,L|452:172,2,187.000005706787,6|10|2,1:2|0:2|1:2,0:2:0:0:
252,251,82841,1,0,1:2:0:0:
252,251,83010,2,0,L|347:232,1,93.5000028533936,10|0,0:2|0:2,0:2:0:0:
184,81,83347,5,0,1:2:0:0:
184,81,83515,1,0,1:2:0:0:
184,81,83684,2,0,L|54:59,1,93.5000028533936,12|0,0:2|0:2,0:2:0:0:
46,305,84021,1,0,1:2:0:0:
46,305,84189,1,0,1:2:0:0:
15,117,84358,1,14,0:2:0:0:
292,41,84695,6,0,L|384:30,1,93.5000028533936,6|0,1:2|0:2,0:2:0:0:
418,271,85032,2,0,L|464:85,1,187.000005706787,10|0,0:2|1:2,0:2:0:0:
512,248,85538,1,0,1:2:0:0:
359,163,85706,2,0,L|245:180,1,93.5000028533936,10|0,0:2|0:2,0:2:0:0:
30,217,86043,6,0,P|34:304|118:331,2,187.000005706787,6|10|2,1:2|0:2|1:2,0:2:0:0:
14,124,86886,1,0,1:2:0:0:
100,160,87055,1,14,0:2:0:0:
188,130,87223,1,0,1:2:0:0:
405,277,87392,5,6,1:2:0:0:
404,277,87729,2,0,P|444:254|459:211,1,93.5000028533936,10|0,0:2|0:2,0:2:0:0:
347,128,88066,1,0,1:2:0:0:
347,128,88234,1,0,1:2:0:0:
348,128,88403,2,0,P|307:150|292:193,1,93.5000028533936,14|0,0:2|0:2,0:2:0:0:
371,370,88740,5,6,1:2:0:0:
87,287,88908,1,0,1:2:0:0:
168,367,89077,1,10,0:2:0:0:
296,197,89246,1,0,1:2:0:0:
167,45,89414,5,8,3:3:0:0:
164,56,89498,1,8,3:3:0:0:
162,67,89582,1,8,3:3:0:0:
160,79,89666,1,8,3:3:0:0:
158,90,89751,1,4,3:3:0:0:
156,102,89835,1,4,3:3:0:0:
154,113,89919,1,4,3:3:0:0:
151,125,90003,1,4,3:3:0:0:
149,136,90088,6,0,P|183:159|225:157,1,85,6|0,1:2|0:2,0:2:0:0:
419,38,90425,2,0,P|344:70|331:150,1,170,10|0,0:2|1:2,0:2:0:0:
286,242,90931,1,0,1:2:0:0:
352,315,91099,2,0,P|405:287|400:242,1,85,10|0,0:2|0:2,0:2:0:0:
149,359,91437,5,0,1:2:0:0:
149,359,91605,1,0,1:2:0:0:
149,359,91774,2,0,L|167:257,1,85,10|0,0:2|0:2,0:2:0:0:
35,298,92111,1,0,1:2:0:0:
35,298,92279,1,0,1:2:0:0:
35,298,92448,2,0,L|53:196,1,85,10|0,0:2|0:2,0:2:0:0:
15,143,92701,5,0,1:2:0:0:
15,143,92785,2,0,P|72:105|161:140,2,170,6|8|0,1:2|0:2|1:2,0:2:0:0:
90,194,93628,1,0,1:2:0:0:
217,74,93796,1,10,0:2:0:0:
307,132,93965,1,0,1:2:0:0:
379,83,94133,6,0,L|354:-11,1,85,2|0,1:2|0:2,0:2:0:0:
478,120,94470,2,0,L|457:222,1,85,10|0,0:2|0:2,0:2:0:0:
460,203,94723,1,0,1:2:0:0:
460,203,94807,1,0,1:2:0:0:
509,286,94976,1,0,1:2:0:0:
341,359,95144,1,10,0:2:0:0:
57,287,95482,6,0,P|43:241|64:202,1,85,6|0,1:2|0:2,0:2:0:0:
96,88,95819,2,0,P|148:150|230:143,1,170,10|0,0:2|1:2,0:2:0:0:
327,172,96324,1,0,1:2:0:0:
327,172,96493,2,0,P|327:117|303:83,1,85,10|0,0:2|0:2,0:2:0:0:
159,287,96830,5,0,1:2:0:0:
159,287,96998,1,0,1:2:0:0:
159,287,97167,2,0,L|257:268,1,85,10|0,0:2|0:2,0:2:0:0:
279,384,97504,1,0,1:2:0:0:
279,384,97672,1,0,1:2:0:0:
279,384,97841,2,0,L|377:365,1,85,10|0,0:2|0:2,0:2:0:0:
424,315,98094,5,0,1:2:0:0:
424,315,98178,2,0,P|436:268|426:226,1,85,6|0,1:2|0:2,0:2:0:0:
342,134,98515,2,0,L|172:122,1,170,10|0,0:2|1:2,0:2:0:0:
85,74,99021,1,0,1:2:0:0:
85,74,99189,2,0,L|134:-13,1,85,10|0,0:2|0:2,0:2:0:0:
46,178,99526,5,0,1:2:0:0:
103,241,99695,1,0,1:2:0:0:
86,324,99864,1,10,0:2:0:0:
287,359,100201,5,8,3:3:0:0:
287,359,100285,1,8,3:3:0:0:
287,359,100369,2,0,L|269:293,1,42.5,8|0,3:3|0:2,0:2:0:0:
335,226,100538,1,8,3:3:0:0:
335,226,100622,1,8,3:3:0:0:
335,226,100706,2,0,L|353:292,1,42.5,8|0,3:3|0:2,0:2:0:0:
428,308,100875,1,4,1:2:0:0:
477,36,101212,6,0,P|436:84|374:85,1,127.500004863739,10|0,0:2|1:2,0:2:0:0:
310,33,101717,1,0,1:2:0:0:
228,51,101886,1,10,0:2:0:0:
27,178,102223,5,0,1:2:0:0:
81,240,102392,1,0,1:2:0:0:
163,230,102560,2,0,P|187:162|182:148,1,63.7500024318696,10|0,0:2|0:2,0:2:0:0:
232,289,102897,1,0,1:2:0:0:
301,243,103066,1,0,1:2:0:0:
383,243,103234,1,10,0:2:0:0:
458,298,103403,1,0,3:2:0:0:
458,298,103487,1,0,3:2:0:0:
458,298,103571,1,0,1:2:0:0:
421,25,103908,6,0,L|408:87,1,63.7500024318696,10|0,0:2|0:2,0:2:0:0:
305,111,104246,2,0,L|317:48,1,63.7500024318696,0|0,1:2|0:2,0:2:0:0:
209,76,104583,2,0,L|196:138,1,63.7500024318696,8|0,0:2|0:2,0:2:0:0:
47,231,104920,6,0,L|109:218,1,63.7500024318696,2|0,1:2|0:2,0:2:0:0:
115,308,105257,2,0,L|177:295,1,63.7500024318696,8|0,0:2|0:2,0:2:0:0:
181,384,105594,2,0,L|243:371,2,63.7500024318696,0|0|8,1:2|0:2|0:2,0:2:0:0:
271,284,106099,1,0,3:2:0:0:
271,284,106184,1,0,3:2:0:0:
271,284,106268,1,2,1:2:0:0:
447,368,106605,6,0,P|490:307|473:236,1,127.500004863739,10|0,0:2|1:2,0:2:0:0:
430,194,107111,1,0,1:2:0:0:
468,121,107279,1,8,0:2:0:0:
250,72,107616,5,2,1:2:0:0:
190,129,107785,1,0,1:2:0:0:
109,110,107953,2,0,P|94:56|110:36,1,63.7500024318696,8|0,0:2|0:2,0:2:0:0:
40,166,108291,1,0,1:2:0:0:
40,166,108459,1,0,1:2:0:0:
40,166,108628,2,0,L|25:228,1,63.7500024318696,10|0,0:2|0:2,0:2:0:0:
83,292,108965,1,0,1:2:0:0:
256,368,109302,6,0,L|382:353,2,127.500004863739,10|2|10,0:2|1:2|0:2,0:2:0:0:
188,320,110144,1,0,0:2:0:0:
188,320,110313,2,0,L|210:236,1,63.7500024318696,0|0,1:2|0:2,0:2:0:0:
241,135,110650,2,0,P|260:192|320:203,1,127.500004863739,10|0,0:2|1:2,0:2:0:0:
384,149,111156,1,0,1:2:0:0:
203,64,111324,1,14,0:2:0:0:
442,16,111661,6,0,L|473:147,1,127.500004863739,6|8,1:2|0:2,0:2:0:0:
441,217,112167,1,0,0:2:0:0:
471,293,112335,1,0,1:2:0:0:
402,340,112504,1,0,1:2:0:0:
402,340,112673,2,0,L|325:329,1,63.7500024318696,10|0,0:2|0:2,0:2:0:0:
200,281,113010,5,0,1:2:0:0:
200,281,113178,1,0,1:2:0:0:
200,281,113347,2,0,P|220:304|225:336,1,63.7500024318696,10|0,0:2|0:2,0:2:0:0:
138,371,113684,1,0,1:2:0:0:
138,371,113852,1,0,1:2:0:0:
138,371,114021,2,0,P|117:347|112:315,1,63.7500024318696,10|0,0:2|0:2,0:2:0:0:
143,160,114358,6,0,P|113:208|36:196,2,127.500004863739,0|10|0,1:2|0:2|1:2,0:2:0:0:
161,79,115201,1,0,1:2:0:0:
161,79,115369,2,0,L|136:20,1,63.7500024318696,10|0,0:2|0:2,0:2:0:0:
233,143,115706,5,0,1:2:0:0:
301,190,115875,1,0,1:2:0:0:
374,152,116043,2,0,P|368:96|355:81,1,63.7500024318696,14|0,0:2|0:2,0:2:0:0:
364,91,116296,1,0,1:2:0:0:
364,91,116380,1,0,1:2:0:0:
455,190,116549,1,0,1:2:0:0:
455,190,116717,2,0,L|534:169,1,63.7500024318696,14|0,0:2|0:2,0:2:0:0:
485,325,117055,5,0,1:2:0:0:
410,361,117223,1,0,1:2:0:0:
336,321,117392,1,10,0:2:0:0:
196,261,117729,5,0,1:2:0:0:
122,221,117898,1,0,1:2:0:0:
47,257,118066,1,14,0:2:0:0:
121,303,118234,1,0,1:2:0:0:
175,137,118403,6,0,P|161:74|143:13,2,127.500004863739,2|8|0,1:2|0:2|1:2,0:2:0:0:
69,73,119246,1,0,1:2:0:0:
69,73,119414,2,0,P|80:105|93:161,1,63.7500024318696,10|0,0:2|0:2,0:2:0:0:
251,45,119751,5,0,1:2:0:0:
251,45,119920,1,0,1:2:0:0:
251,45,120088,2,0,L|327:55,1,63.7500024318696,8|0,0:2|0:2,0:2:0:0:
457,129,120425,1,0,1:2:0:0:
457,129,120594,1,0,1:2:0:0:
457,129,120762,2,0,L|381:119,1,63.7500024318696,14|0,0:2|0:2,0:2:0:0:
213,229,121099,5,0,1:2:0:0:
140,270,121268,1,0,1:2:0:0:
77,215,121437,2,0,P|64:186|68:154,1,63.7500024318696,14|0,0:2|0:2,0:2:0:0:
218,43,121774,5,8,3:3:0:0:
218,43,121858,1,8,3:3:0:0:
218,43,121942,2,0,L|227:94,1,31.8750012159348,8|0,1:3|0:2,0:2:0:0:
310,136,122111,1,8,3:3:0:0:
310,136,122195,1,8,3:3:0:0:
310,136,122279,2,0,L|301:85,1,31.8750012159348,8|0,3:3|0:2,0:2:0:0:
356,32,122448,6,0,P|425:27|474:65,2,127.500004863739,6|8|0,1:2|0:2|1:2,0:2:0:0:
399,117,123291,1,0,1:2:0:0:
399,117,123459,1,8,0:2:0:0:
415,345,123796,6,0,L|429:270,1,63.7500024318696,2|0,1:2|0:2,0:2:0:0:
369,222,124133,2,0,P|338:210|258:248,1,127.500004863739,8|0,0:2|1:2,0:2:0:0:
176,237,124639,1,0,1:2:0:0:
176,237,124807,1,8,0:2:0:0:
108,117,125144,6,0,P|133:97|142:67,2,63.7500024318696,2|0|8,1:2|0:2|0:2,0:2:0:0:
67,25,125650,1,0,3:2:0:0:
67,25,125734,1,0,3:2:0:0:
67,25,125819,2,0,P|43:44|34:74,2,63.7500024318696,0|0|10,1:2|0:2|0:2,0:2:0:0:
108,117,126324,1,0,0:2:0:0:
191,126,126493,5,2,1:2:0:0:
219,203,126661,1,0,0:2:0:0:
302,215,126830,1,10,0:2:0:0:
334,291,126998,1,0,0:2:0:0:
418,292,127167,1,2,1:3:0:0:
460,363,127335,1,0,1:2:0:0:
460,363,127504,1,10,0:2:0:0:
457,120,127841,6,0,P|432:187|371:199,2,127.500004863739,2|8|0,1:2|0:2|1:2,0:2:0:0:
367,111,128684,1,0,1:2:0:0:
367,111,128852,1,8,0:2:0:0:
156,0,129189,6,0,L|173:74,1,63.7500024318696,2|0,1:2|0:2,0:2:0:0:
226,123,129526,2,0,P|168:172|101:157,1,127.500004863739,8|0,0:2|1:2,0:2:0:0:
59,111,130032,1,0,1:2:0:0:
59,111,130201,1,8,0:2:0:0:
108,267,130538,6,0,P|133:287|142:317,2,63.7500024318696,2|0|8,1:2|0:2|0:2,0:2:0:0:
67,359,131044,1,0,1:2:0:0:
67,359,131128,1,0,1:2:0:0:
67,359,131212,2,0,P|43:340|34:310,2,63.7500024318696,0|0|14,1:2|0:2|0:2,0:2:0:0:
108,267,131718,5,8,0:2:0:0:
108,267,131802,1,8,0:2:0:0:
108,267,131886,1,2,1:2:0:0:
191,258,132055,1,0,0:2:0:0:
219,181,132223,1,10,0:2:0:0:
302,169,132392,1,0,0:2:0:0:
334,93,132560,1,2,1:3:0:0:
418,92,132729,1,0,1:2:0:0:
418,92,132897,1,10,0:2:0:0:
460,21,133066,5,0,1:2:0:0:
460,21,133150,1,0,1:2:0:0:
460,21,133234,2,0,L|478:147,3,127.500004863739,6|10|2|10,1:2|0:2|1:2|0:2,0:2:0:0:
440,221,134414,1,0,3:2:0:0:
495,283,134583,5,2,1:2:0:0:
423,324,134751,1,0,1:2:0:0:
341,309,134920,1,10,0:2:0:0:
341,309,135088,1,0,3:2:0:0:
279,252,135257,1,2,1:2:0:0:
196,244,135425,1,0,3:2:0:0:
123,285,135594,1,10,0:2:0:0:
123,285,135762,1,0,3:2:0:0:
59,231,135931,6,0,P|54:179|120:122,3,127.500004863739,2|10|2|10,1:2|0:2|1:2|0:2,0:2:0:0:
62,53,137111,1,0,3:2:0:0:
135,14,137279,5,2,1:2:0:0:
201,63,137448,1,0,1:2:0:0:
283,55,137616,1,10,0:2:0:0:
478,136,137953,5,0,1:2:0:0:
395,129,138122,1,0,1:2:0:0:
340,192,138291,1,8,0:2:0:0:
432,215,138459,5,0,3:2:0:0:
432,215,138543,1,0,3:2:0:0:
432,215,138628,2,0,P|444:280|410:328,3,127.500004863739,6|10|2|10,1:2|0:2|1:2|0:2,0:2:0:0:
342,374,139807,1,0,3:2:0:0:
286,311,139976,5,2,1:2:0:0:
216,266,140144,1,0,1:2:0:0:
133,271,140313,1,10,0:2:0:0:
133,271,140482,1,0,3:2:0:0:
82,205,140650,1,2,1:3:0:0:
115,128,140819,1,0,1:2:0:0:
190,94,140987,1,10,0:2:0:0:
237,25,141156,5,0,3:2:0:0:
237,25,141240,1,0,3:2:0:0:
237,25,141324,2,0,L|313:37,1,63.7500024318696,2|0,1:2|0:2,0:2:0:0:
458,58,141661,2,0,L|395:48,1,63.7500024318696,14|0,0:2|0:2,0:2:0:0:
395,48,141914,1,0,1:2:0:0:
395,48,141998,1,0,1:2:0:0:
338,121,142167,1,0,1:2:0:0:
405,277,142335,1,10,0:2:0:0:
234,365,142673,6,0,L|98:343,1,127.500004863739,6|12,1:2|0:2,0:2:0:0:
44,143,143178,1,0,1:2:0:0:
110,58,143347,1,8,3:3:0:0:
126,61,143431,1,8,3:3:0:0:
141,63,143515,1,8,3:3:0:0:
157,66,143599,1,8,3:3:0:0:
173,68,143684,1,4,3:3:0:0:
189,71,143768,1,4,3:3:0:0:
204,73,143852,1,4,3:3:0:0:
220,76,143936,1,4,3:3:0:0:
236,78,144021,6,0,P|273:104|274:149,1,93.5000028533936,6|0,1:2|0:2,0:2:0:0:
179,384,144358,2,0,L|141:200,1,187.000005706787,10|0,0:2|1:2,0:2:0:0:
64,257,144864,1,0,1:2:0:0:
273,326,145032,1,10,0:2:0:0:
273,326,145201,1,0,1:2:0:0:
409,243,145369,6,0,P|422:198|407:155,1,93.5000028533936,2|0,1:2|0:2,0:2:0:0:
252,52,145706,2,0,P|283:85|328:94,1,93.5000028533936,10|0,0:2|0:2,0:2:0:0:
495,11,146043,2,0,P|450:21|419:56,1,93.5000028533936,2|0,1:2|0:2,0:2:0:0:
409,243,146380,1,10,0:2:0:0:
409,243,146549,1,0,1:2:0:0:
188,156,146717,6,0,B|106:131|99:201|7:179,2,187.000005706787,2|10|2,1:2|0:2|1:2,0:2:0:0:
133,78,147561,1,0,1:2:0:0:
59,348,147729,2,0,L|29:251,1,93.5000028533936,10|0,0:2|0:2,0:2:0:0:
313,229,148066,5,0,1:2:0:0:
312,359,148234,1,0,1:2:0:0:
199,294,148403,1,10,0:2:0:0:
343,66,148740,5,0,1:2:0:0:
391,156,148908,1,0,1:2:0:0:
494,156,149077,1,14,0:2:0:0:
211,45,149414,5,0,3:2:0:0:
211,45,149498,1,0,3:2:0:0:
211,45,149583,2,0,L|200:93,1,46.7500014266968,0|0,3:2|0:2,0:2:0:0:
110,123,149751,1,0,1:2:0:0:
110,123,149835,1,0,1:2:0:0:
110,123,149920,2,0,L|121:75,1,46.7500014266968,0|0,1:2|0:2,0:2:0:0:
45,24,150088,1,8,3:3:0:0:
45,24,150173,1,8,3:3:0:0:
45,24,150257,2,0,L|34:72,1,46.7500014266968,8|0,3:3|0:2,0:2:0:0:
36,252,150425,6,0,B|96:214|96:214|160:239,1,140.25000428009,14|0,0:2|0:2,0:2:0:0:
183,258,150762,2,0,P|164:349|165:357,1,93.5000028533936,0|0,1:2|0:2,0:2:0:0:
348,348,151099,6,0,P|345:301|329:258,1,93.5000028533936,10|0,0:2|0:2,0:2:0:0:
379,127,151437,1,0,1:2:0:0:
379,127,151606,1,0,1:2:0:0:
379,127,151774,2,0,P|388:175|419:223,1,93.5000028533936,14|0,0:2|0:2,0:2:0:0:
252,39,152111,5,0,1:2:0:0:
175,107,152279,1,0,1:2:0:0:
74,84,152448,2,0,P|42:52|49:7,1,93.5000028533936,10|0,0:2|0:2,0:2:0:0:
216,220,152785,5,2,1:2:0:0:
62,309,152953,1,0,1:2:0:0:
94,187,153122,1,10,0:2:0:0:
184,342,153292,1,0,1:2:0:0:
440,308,153459,5,0,1:2:0:0:
440,308,153796,2,0,P|454:259|430:216,1,93.5000028533936,12|0,0:2|0:2,0:2:0:0:
308,101,154133,1,0,3:2:0:0:
284,102,154217,1,0,3:2:0:0:
261,103,154301,1,0,3:2:0:0:
238,105,154385,1,0,3:2:0:0:
214,106,154470,1,8,3:3:0:0:
191,108,154554,1,8,3:3:0:0:
168,109,154638,1,8,3:3:0:0:
144,111,154722,1,8,3:3:0:0:
121,112,154807,6,0,P|90:146|88:192,1,93.5000028533936,6|0,1:2|0:2,0:2:0:0:
359,384,155144,1,10,0:2:0:0:
404,291,155313,1,2,1:2:0:0:
324,225,155482,2,0,L|131:250,1,187.000005706787,2|8,1:2|0:2,0:2:0:0:
76,318,155987,1,0,1:2:0:0:
4,101,156156,6,0,L|96:113,1,93.5000028533936,2|0,1:2|0:2,0:2:0:0:
233,35,156493,2,0,L|140:22,1,93.5000028533936,10|0,0:2|0:2,0:2:0:0:
227,132,156830,2,0,L|319:144,1,93.5000028533936,2|0,1:2|0:2,0:2:0:0:
449,53,157167,2,0,L|356:40,1,93.5000028533936,10|0,0:2|0:2,0:2:0:0:
465,265,157504,5,2,1:2:0:0:
465,265,157673,1,0,1:2:0:0:
464,265,157841,2,0,P|484:223|473:178,1,93.5000028533936,10|0,0:2|0:2,0:2:0:0:
340,317,158178,1,0,1:2:0:0:
340,317,158347,1,0,1:2:0:0:
340,317,158515,2,0,P|296:301|272:262,1,93.5000028533936,10|0,0:2|0:2,0:2:0:0:
418,75,158852,5,0,1:2:0:0:
365,152,159021,1,0,1:2:0:0:
271,147,159189,1,8,0:2:0:0:
16,265,159526,5,2,1:2:0:0:
50,351,159695,1,0,1:2:0:0:
143,344,159864,1,12,0:2:0:0:
340,367,160032,5,0,1:2:0:0:
340,367,160116,1,0,1:2:0:0:
340,367,160201,2,0,L|371:176,1,187.000005706787,6|8,1:2|0:2,0:2:0:0:
445,127,160706,1,0,1:2:0:0:
404,42,160875,1,2,1:2:0:0:
314,68,161043,1,0,1:2:0:0:
225,36,161212,2,0,L|244:136,1,93.5000028533936,12|0,0:2|0:2,0:2:0:0:
53,209,161549,6,0,P|149:190|215:282,2,187.000005706787,6|8|0,1:2|0:2|1:2,0:2:0:0:
117,295,162392,1,0,1:2:0:0:
59,384,162560,2,0,P|23:355|17:310,1,93.5000028533936,8|0,0:2|0:2,0:2:0:0:
210,348,162897,6,0,L|398:371,1,187.000005706787,6|8,1:2|0:2,0:2:0:0:
456,299,163403,1,0,1:2:0:0:
404,221,163571,1,0,1:2:0:0:
433,131,163740,1,0,1:2:0:0:
367,64,163908,2,0,L|270:56,1,93.5000028533936,10|0,0:2|0:2,0:2:0:0:
29,206,164246,5,2,1:2:0:0:
29,206,164414,1,0,1:2:0:0:
125,169,164583,1,10,0:2:0:0:
125,169,164751,1,0,1:2:0:0:
216,219,164920,2,0,P|250:193|262:134,1,93.5000028533936,2|0,1:2|0:2,0:2:0:0:
104,283,165257,2,0,P|149:287|183:318,1,93.5000028533936,10|0,0:2|0:2,0:2:0:0:
426,372,165594,6,0,P|493:313|478:225,3,187.000005706787,2|14|6|10,1:2|0:2|1:2|0:2,0:2:0:0:
391,275,166774,1,2,1:2:0:0:
297,193,166942,1,0,3:2:0:0:
273,194,167026,1,0,3:2:0:0:
250,195,167110,1,0,3:2:0:0:
227,197,167194,1,0,3:2:0:0:
203,198,167279,1,8,3:3:0:0:
180,200,167363,1,8,3:3:0:0:
157,201,167447,1,8,3:3:0:0:
133,203,167531,1,8,3:3:0:0:
106,179,167616,1,4,3:3:0:0:
130,177,167700,1,4,3:3:0:0:
153,176,167784,1,4,3:3:0:0:
176,174,167868,1,4,3:3:0:0:
200,173,167953,1,4,3:3:0:0:
223,171,168037,1,4,3:3:0:0:
246,170,168121,1,4,3:3:0:0:
270,169,168205,1,4,3:3:0:0:
297,193,168291,6,0,B|333:265|333:265|282:338,1,170,6|8,1:2|0:2,0:2:0:0:
91,324,168796,2,0,B|55:252|55:252|105:178,1,170,4|0,1:2|1:2,0:2:0:0:
186,372,169302,1,12,0:2:0:0:
101,40,169639,5,0,1:2:0:0:
101,40,169807,1,0,1:2:0:0:
101,40,169976,1,8,0:2:0:0:
399,109,170313,1,0,1:2:0:0:
399,109,170482,1,0,1:2:0:0:
399,109,170650,1,8,0:2:0:0:
163,254,170987,6,0,P|160:335|230:376,1,170,6|8,1:2|0:2,0:2:0:0:
305,182,171493,2,0,P|374:223|372:304,1,170,4|0,1:2|1:2,0:2:0:0:
195,153,171998,1,8,0:2:0:0:
471,44,172335,5,0,1:2:0:0:
398,89,172504,1,0,1:2:0:0:
316,63,172673,1,8,0:2:0:0:
194,135,173010,5,0,1:2:0:0:
118,97,173178,1,0,1:2:0:0:
34,115,173347,1,8,0:2:0:0:
101,232,173515,5,0,1:2:0:0:
101,232,173599,1,0,1:2:0:0:
102,231,173684,2,0,P|183:235|225:305,1,170,6|8,1:2|0:2,0:2:0:0:
405,156,174189,2,0,P|334:196|329:277,1,170,4|0,1:2|0:2,0:2:0:0:
237,148,174695,1,12,0:2:0:0:
511,370,175032,5,0,1:2:0:0:
435,330,175201,1,0,1:2:0:0:
357,364,175369,1,8,0:2:0:0:
277,332,175538,1,0,1:2:0:0:
277,332,175622,1,0,1:2:0:0:
277,332,175706,1,0,1:2:0:0:
197,363,175875,1,0,1:2:0:0:
119,328,176043,1,8,0:2:0:0:
41,363,176212,1,0,1:2:0:0:
41,165,176380,6,0,L|209:190,1,170,6|8,1:2|0:2,0:2:0:0:
305,122,176886,2,0,L|473:96,1,170,4|0,1:2|1:2,0:2:0:0:
218,75,177392,1,8,0:2:0:0:
484,225,177729,5,0,3:2:0:0:
484,225,177813,1,0,3:2:0:0:
484,225,177897,2,0,L|494:278,1,42.5,0|0,3:3|0:2,0:2:0:0:
415,337,178066,1,8,3:2:0:0:
415,337,178150,1,8,3:2:0:0:
415,337,178234,2,0,L|405:284,1,42.5,8|0,3:3|0:2,0:2:0:0:
308,243,178403,1,4,3:2:0:0:
308,243,178487,1,4,3:2:0:0:
308,243,178571,2,0,L|318:296,1,42.5,4|0,3:3|0:2,0:2:0:0:
242,364,178740,1,8,0:2:0:0:
242,364,178824,1,8,0:2:0:0:
242,364,178908,2,0,L|232:311,1,42.5,8|0,0:2|0:2,0:2:0:0:
139,264,179077,6,0,P|74:229|85:114,1,170,6|8,1:2|0:2,0:2:0:0:
135,33,179583,2,0,B|221:14|220:79|298:57,1,170,4|0,1:2|1:2,0:2:0:0:
402,111,180088,2,0,P|428:79|425:38,1,85,12|0,0:2|0:2,0:2:0:0:
304,159,180425,5,0,1:2:0:0:
220,140,180594,1,0,1:2:0:0:
147,183,180762,1,8,0:2:0:0:
146,275,180931,1,8,0:2:0:0:
146,275,181015,1,8,0:2:0:0:
146,275,181099,1,8,0:2:0:0:
202,338,181268,1,0,1:2:0:0:
287,336,181437,1,12,0:2:0:0:
367,361,181605,1,0,1:2:0:0:
480,253,181774,6,0,P|474:151|395:118,1,170,6|8,1:2|0:2,0:2:0:0:
321,40,182279,2,0,P|297:114|210:127,1,170,4|0,1:2|1:2,0:2:0:0:
107,33,182785,2,0,L|87:115,1,85,0|0,1:2|0:2,0:2:0:0:
120,293,183122,5,0,1:2:0:0:
190,245,183291,1,0,1:2:0:0:
273,229,183459,1,8,0:2:0:0:
352,259,183628,1,8,0:2:0:0:
435,244,183796,1,8,0:2:0:0:
435,244,183880,1,8,0:2:0:0:
479,171,184049,1,8,0:2:0:0:
479,171,184133,1,8,0:2:0:0:
454,89,184302,1,0,1:2:0:0:
319,10,184470,6,0,B|237:0|245:64|156:44,1,170,6|8,1:2|0:2,0:2:0:0:
54,2,184976,2,0,B|11:75|11:75|68:137,1,170,4|0,1:2|1:2,0:2:0:0:
180,231,185482,2,0,L|163:133,1,85,8|0,0:2|0:2,0:2:0:0:
31,306,185819,5,0,1:2:0:0:
110,275,185987,1,0,1:2:0:0:
180,322,186156,1,8,0:2:0:0:
259,351,186324,1,0,1:2:0:0:
337,318,186493,1,0,1:2:0:0:
391,253,186661,1,0,1:2:0:0:
371,170,186830,1,8,0:2:0:0:
296,130,186998,1,0,1:2:0:0:
149,194,187167,6,0,P|68:142|109:61,1,170,6|8,1:2|0:2,0:2:0:0:
190,11,187673,2,0,L|377:37,1,170,4|0,1:2|1:2,0:2:0:0:
452,103,188178,2,0,P|476:69|474:27,1,85,12|0,0:2|0:2,0:2:0:0:
337,185,188515,5,0,3:2:0:0:
338,195,188599,1,0,3:2:0:0:
340,205,188683,1,0,3:2:0:0:
342,216,188767,1,0,3:2:0:0:
344,226,188852,1,0,3:2:0:0:
345,237,188936,1,0,3:2:0:0:
347,247,189020,1,0,3:2:0:0:
349,258,189104,1,0,3:2:0:0:
351,268,189189,1,8,3:3:0:0:
352,279,189273,1,8,3:3:0:0:
354,289,189357,1,8,3:3:0:0:
356,300,189441,1,8,3:3:0:0:
358,310,189526,1,4,3:3:0:0:
359,321,189610,1,4,3:3:0:0:
361,331,189694,1,4,3:3:0:0:
363,342,189779,1,4,3:3:0:0:
365,352,189863,1,4,1:2:0:0:
154,101,193571,6,0,L|288:128,3,127.500004863739,2|2|2|2,3:2|3:2|3:2|3:2,0:2:0:0:
206,199,195257,1,0,3:2:0:0:
427,318,198965,6,0,P|484:254|474:192,3,127.500004863739,2|2|2|2,3:2|3:2|3:2|3:2,0:2:0:0:
388,228,200650,1,0,3:2:0:0:
149,357,204358,6,0,B|126:329|126:329|157:224,3,127.500004863739,2|2|2|2,3:2|3:2|3:2|3:2,0:2:0:0:
256,16,206043,5,4,1:2:0:0:
256,16,206212,1,8,0:2:0:0:
256,192,207392,5,4,1:2:0:0:
256,192,207560,1,8,0:2:0:0:
256,368,208740,5,4,1:2:0:0:
256,368,208909,1,8,0:2:0:0:
480,192,209920,5,0,3:2:0:0:
480,192,210004,1,0,3:2:0:0:
480,192,210087,1,0,1:2:0:0:
401,148,210257,1,8,0:2:0:0:
343,215,210425,1,0,1:2:0:0:
263,173,210594,1,8,0:2:0:0:
190,224,210762,1,8,3:3:0:0:
190,224,210847,1,8,3:3:0:0:
190,224,210931,2,0,L|143:211,1,31.8750012159348,8|0,3:3|0:2,0:2:0:0:
91,176,211099,1,8,3:3:0:0:
91,176,211184,1,8,3:3:0:0:
91,176,211268,2,0,L|44:189,1,31.8750012159348,8|0,3:3|0:2,0:2:0:0:
4,254,211437,5,6,1:2:0:0:
128,336,211774,2,0,L|272:319,2,127.500004863739,8|0|8,0:2|1:2|0:2,0:2:0:0:
4,254,212785,5,0,1:2:0:0:
4,254,212953,1,0,1:2:0:0:
4,254,213122,1,8,0:2:0:0:
80,107,213459,1,0,1:2:0:0:
80,107,213628,1,0,1:2:0:0:
80,107,213796,1,8,0:2:0:0:
194,27,214133,5,0,1:2:0:0:
194,27,214302,1,0,1:2:0:0:
194,27,214470,1,8,0:2:0:0:
248,221,214807,1,0,1:2:0:0:
248,221,214976,1,0,1:2:0:0:
248,221,215144,1,8,0:2:0:0:
386,64,215482,6,0,P|404:110|495:113,3,127.500004863739,2|8|0|8,1:2|0:2|1:2|0:2,0:2:0:0:
309,134,216830,5,0,1:2:0:0:
309,134,216998,1,0,1:2:0:0:
309,134,217167,1,8,0:2:0:0:
358,278,217504,1,0,1:2:0:0:
358,278,217673,1,0,1:2:0:0:
358,278,217841,1,12,0:2:0:0:
144,354,218178,5,0,1:2:0:0:
144,354,218346,1,0,1:2:0:0:
144,354,218515,1,8,0:2:0:0:
193,210,218852,1,0,1:2:0:0:
193,210,219021,1,0,1:2:0:0:
193,210,219189,1,8,0:2:0:0:
65,50,219526,5,2,1:2:0:0:
65,50,219695,1,0,1:2:0:0:
65,50,219864,2,0,P|106:103|182:105,1,127.500004863739,12|0,0:2|1:2,0:2:0:0:
231,52,220369,1,0,1:2:0:0:
231,52,220538,2,0,P|288:45|313:60,1,63.7500024318696,12|0,0:2|0:2,0:2:0:0:
425,28,220875,5,8,3:3:0:0:
425,28,220959,1,8,3:3:0:0:
425,28,221043,2,0,L|412:79,1,31.8750012159348,8|0,3:3|0:2,0:2:0:0:
470,136,221212,1,8,3:3:0:0:
470,136,221296,1,8,3:3:0:0:
470,136,221380,2,0,L|457:187,1,31.8750012159348,8|0,3:3|0:2,0:2:0:0:
512,246,221549,1,4,3:3:0:0:
512,246,221633,1,4,3:3:0:0:
512,246,221717,1,4,3:3:0:0:
407,360,221886,5,4,3:3:0:0:
386,347,221970,1,4,3:3:0:0:
364,338,222054,1,4,3:3:0:0:
341,331,222138,1,4,3:3:0:0:
317,328,222223,5,6,1:2:0:0:
221,367,222392,1,0,1:2:0:0:
144,299,222560,1,10,0:2:0:0:
240,262,222729,1,0,1:2:0:0:
86,184,222897,6,0,P|48:105|125:31,4,187.000005706787,2|10|2|10|2,1:2|0:2|1:2|0:2|1:2,0:2:0:0:
167,120,224413,1,0,1:2:0:0:
258,166,224583,1,8,0:2:0:0:
382,100,224751,5,0,1:2:0:0:
382,100,224835,1,0,1:2:0:0:
382,100,224920,2,0,P|380:48|343:16,1,93.5000028533936,2|0,1:2|0:2,0:2:0:0:
469,170,225257,2,0,P|392:190|400:303,1,187.000005706787,10|0,0:2|1:2,0:2:0:0:
190,344,225762,1,0,1:2:0:0:
271,377,225931,2,0,L|289:270,1,93.5000028533936,10|0,0:2|0:2,0:2:0:0:
197,102,226268,5,2,1:2:0:0:
144,190,226437,1,0,1:2:0:0:
41,194,226605,1,12,0:2:0:0:
91,101,226774,5,0,1:2:0:0:
91,101,226858,1,0,1:2:0:0:
91,101,226942,1,2,1:2:0:0:
288,164,227111,1,0,1:2:0:0:
365,100,227279,2,0,P|360:53|323:14,1,93.5000028533936,14|0,0:2|0:2,0:2:0:0:
460,232,227616,6,0,P|392:239|364:349,3,187.000005706787,6|10|2|14,1:2|0:2|1:2|0:2,0:2:0:0:
456,336,228796,1,0,0:2:0:0:
258,206,228965,5,2,1:2:0:0:
168,255,229133,1,0,1:2:0:0:
70,221,229302,2,0,P|45:148|75:106,1,93.5000028533936,10|0,0:2|0:2,0:2:0:0:
204,31,229639,5,0,1:2:0:0:
292,83,229807,1,0,1:2:0:0:
390,51,229976,1,10,0:2:0:0:
459,126,230144,5,0,1:2:0:0:
459,126,230229,1,0,1:2:0:0:
459,126,230313,2,0,L|488:226,1,93.5000028533936,2|0,1:2|0:2,0:2:0:0:
392,333,230650,2,0,L|365:243,1,93.5000028533936,14|0,0:2|0:2,0:2:0:0:
365,243,230903,1,0,1:2:0:0:
365,243,230987,1,0,1:2:0:0:
504,312,231156,1,0,1:2:0:0:
293,291,231324,1,10,0:2:0:0:
369,142,231493,5,0,1:2:0:0:
369,142,231577,1,0,1:2:0:0:
369,142,231661,2,0,P|324:74|221:84,1,187.000005706787,2|12,1:2|0:2,0:2:0:0:
159,157,232167,1,0,1:2:0:0:
63,22,232335,1,8,3:3:0:0:
60,39,232419,1,8,3:3:0:0:
57,56,232503,1,8,3:3:0:0:
54,73,232587,1,8,3:3:0:0:
51,91,232672,1,4,3:3:0:0:
49,108,232756,1,4,3:3:0:0:
46,125,232840,1,4,3:3:0:0:
43,143,232924,1,4,3:3:0:0:
40,160,233010,5,6,1:2:0:0:
95,247,233178,1,0,1:2:0:0:
46,337,233347,1,10,0:2:0:0:
141,373,233515,1,0,1:2:0:0:
345,285,233684,6,0,P|384:200|337:106,4,187.000005706787,2|10|2|14|2,1:2|0:2|1:2|0:2|1:2,0:2:0:0:
254,237,235201,1,0,1:2:0:0:
167,291,235369,1,10,0:2:0:0:
259,336,235538,1,0,0:2:0:0:
410,204,235706,6,0,P|453:190|495:209,1,93.5000028533936,2|0,1:2|0:2,0:2:0:0:
371,354,236043,2,0,P|342:265|290:187,1,187.000005706787,10|0,0:2|1:2,0:2:0:0:
205,129,236549,1,0,1:2:0:0:
306,17,236717,1,10,0:2:0:0:
306,17,237055,6,0,L|400:35,1,93.5000028533936,2|0,1:2|0:2,0:2:0:0:
209,133,237392,2,0,L|191:41,1,93.5000028533936,14|0,0:2|0:2,0:2:0:0:
6,104,237729,2,0,L|100:122,1,93.5000028533936,2|0,1:2|0:2,0:2:0:0:
331,158,238066,1,10,0:2:0:0:
73,370,238403,6,0,P|60:283|135:237,1,187.000005706787,2|12,1:2|0:2,0:2:0:0:
212,290,238908,1,0,1:2:0:0:
302,265,239077,1,2,1:2:0:0:
368,331,239246,1,0,1:2:0:0:
451,290,239414,1,10,0:2:0:0:
390,66,239583,5,0,1:2:0:0:
390,66,239667,1,0,1:2:0:0:
390,66,239751,1,0,1:2:0:0:
466,120,239920,1,0,1:2:0:0:
403,189,240088,2,0,L|301:172,1,93.5000028533936,14|0,0:2|0:2,0:2:0:0:
112,0,240425,5,0,1:2:0:0:
36,54,240594,1,0,1:2:0:0:
99,123,240762,2,0,L|201:106,1,93.5000028533936,14|0,0:2|0:2,0:2:0:0:
470,255,241099,6,0,P|468:333|369:366,3,187.000005706787,2|14|2|10,1:2|0:2|1:2|0:2,0:2:0:0:
370,265,242279,1,0,0:2:0:0:
162,348,242448,6,0,L|259:360,1,93.5000028533936,6|0,1:2|0:2,0:2:0:0:
189,246,242785,2,0,L|96:234,1,93.5000028533936,10|0,0:2|0:2,0:2:0:0:
56,139,243122,1,0,1:2:0:0:
104,47,243291,1,0,1:2:0:0:
205,61,243459,1,8,0:2:0:0:
205,61,243628,1,0,1:2:0:0:
448,202,243796,5,6,1:2:0:0:
479,84,243965,1,0,1:2:0:0:
362,53,244133,1,10,0:2:0:0:
330,170,244302,1,0,1:2:0:0:
474,308,244470,5,2,1:2:0:0:
297,349,244639,1,0,1:2:0:0:
207,308,244807,2,0,P|183:243|220:202,1,93.5000028533936,14|0,0:2|0:2,0:2:0:0:
362,53,245144,5,8,3:3:0:0:
363,64,245228,1,8,3:3:0:0:
365,76,245312,1,8,3:3:0:0:
367,87,245396,1,8,3:3:0:0:
368,99,245481,1,8,3:3:0:0:
370,110,245565,1,8,3:3:0:0:
372,122,245649,1,8,3:3:0:0:
373,133,245733,1,8,3:3:0:0:
375,145,245818,1,4,3:3:0:0:
377,157,245902,1,4,3:3:0:0:
378,168,245986,1,4,3:3:0:0:
380,180,246070,1,4,3:3:0:0:
382,191,246155,1,4,3:3:0:0:
384,203,246239,1,4,3:3:0:0:
385,214,246323,1,4,3:3:0:0:
387,226,246408,1,4,3:3:0:0:
389,238,246493,6,0,P|333:265|300:248,1,85,6|0,1:2|0:2,0:2:0:0:
229,173,246830,2,0,P|145:156|119:242,1,170,10|0,0:2|1:2,0:2:0:0:
195,372,247335,1,0,1:2:0:0:
195,372,247504,2,0,L|215:264,1,85,8|0,0:2|0:2,0:2:0:0:
31,130,247841,5,2,1:2:0:0:
31,130,248010,1,0,1:2:0:0:
31,130,248178,2,0,L|208:94,2,170,10|2|10,0:2|1:2|0:2,0:2:0:0:
393,56,249189,6,0,L|375:139,1,85,2|0,1:2|0:2,0:2:0:0:
467,224,249526,2,0,L|484:140,1,85,10|0,0:2|0:2,0:2:0:0:
360,237,249864,1,0,1:2:0:0:
360,237,250032,1,0,1:2:0:0:
360,237,250201,2,0,L|342:320,1,85,8|0,0:2|0:2,0:2:0:0:
146,361,250538,6,0,P|99:322|102:277,1,85,2|0,1:2|0:2,0:2:0:0:
220,289,250875,2,0,P|206:250|170:230,1,85,10|0,0:2|0:2,0:2:0:0:
169,229,251128,1,0,1:2:0:0:
169,229,251212,1,2,1:2:0:0:
83,216,251380,1,0,1:2:0:0:
140,40,251549,1,14,0:2:0:0:
140,40,251886,6,0,L|243:65,1,85,6|0,1:2|0:2,0:2:0:0:
346,19,252223,2,0,P|407:31|420:136,1,170,10|0,0:2|1:2,0:2:0:0:
315,219,252729,1,0,1:2:0:0:
315,219,252897,2,0,L|290:127,1,85,10|0,0:2|0:2,0:2:0:0:
512,322,253234,5,0,1:2:0:0:
421,297,253403,1,0,1:2:0:0:
343,348,253571,1,10,0:2:0:0:
200,284,253908,5,0,1:2:0:0:
109,309,254077,1,0,1:2:0:0:
31,258,254245,1,10,0:2:0:0:
266,40,254583,5,2,1:2:0:0:
266,40,254751,1,0,1:2:0:0:
266,40,254920,2,0,P|308:101|290:198,1,170,8|0,0:2|1:2,0:2:0:0:
223,252,255425,1,0,1:2:0:0:
280,326,255594,2,0,L|382:306,1,85,10|0,0:2|0:2,0:2:0:0:
465,190,255931,5,0,3:2:0:0:
465,190,256015,1,0,3:2:0:0:
465,190,256099,2,0,L|454:141,1,42.5,0|0,3:2|0:2,0:2:0:0:
361,101,256268,1,0,3:2:0:0:
361,101,256352,1,0,3:2:0:0:
361,101,256436,2,0,L|372:150,1,42.5,0|0,3:2|0:2,0:2:0:0:
294,191,256605,1,8,3:3:0:0:
278,187,256689,1,8,3:3:0:0:
262,184,256773,1,8,3:3:0:0:
247,181,256857,1,8,3:3:0:0:
231,178,256942,1,4,3:3:0:0:
215,175,257026,1,4,3:3:0:0:
200,172,257110,1,4,3:3:0:0:
184,169,257194,1,4,3:3:0:0:
168,166,257279,1,12,1:2:0:0:
256,192,257364,12,0,268740,0:2:0:0:
