osu file format v14

[General]
AudioFilename: audio.ogg
AudioLeadIn: 0
PreviewTime: 187690
Countdown: 0
SampleSet: Soft
StackLeniency: 0.4
Mode: 0
LetterboxInBreaks: 0
WidescreenStoryboard: 0

[Editor]
Bookmarks: 14824,38421,50129,79214,90921,114519,126226,155312,161348,187690,199397,211104,240190,248970,261409
DistanceSpacing: 1.2
BeatDivisor: 4
GridSize: 4
TimelineZoom: 1.3

[Metadata]
Title:PAPERMOON
TitleUnicode:PAPERMOON
Artist:Tommy heavenly6
ArtistUnicode:Tommy heavenly6
Creator:aishiteiru-
Version:Insane
Source:ソウルイーター
Tags:soul eater anime j-rock jrock rock female vocals japanese full ver february6 the brilliant green semfi
BeatmapID:3908684
BeatmapSetID:1896584

[Difficulty]
HPDrainRate:7
CircleSize:4
OverallDifficulty:8
ApproachRate:8
SliderMultiplier:1.4
SliderTickRate:1

[Events]
//Background and Video events
0,0,"bg2112.jpg",0,0
//Break Periods
//Storyboard Layer 0 (Background)
//Storyboard Layer 1 (Fail)
//Storyboard Layer 2 (Pass)
//Storyboard Layer 3 (Foreground)
//Storyboard Layer 4 (Overlay)
//Storyboard Sound Samples

[TimingPoints]
381,365.853658536585,4,2,1,65,1,0
3124,-66.6666666666667,4,2,1,70,0,0
14832,-83.3333333333333,4,2,1,60,0,0
38338,-83.3333333333333,4,2,1,65,0,0
44283,-83.3333333333333,4,2,1,70,0,0
50137,-66.6666666666667,4,2,1,80,0,1
79222,-66.6666666666667,4,2,1,70,0,0
90929,-83.3333333333333,4,2,1,60,0,0
114435,-83.3333333333333,4,2,1,65,0,0
120380,-83.3333333333333,4,2,1,70,0,0
126234,-66.6666666666667,4,2,1,80,0,1
155228,-66.6666666666667,4,2,1,75,0,0
161356,-83.3333333333333,4,2,1,65,0,0
173063,-83.3333333333333,4,2,1,70,0,0
178917,-83.3333333333333,4,2,1,75,0,0
184771,-83.3333333333333,4,2,1,65,0,0
187606,-83.3333333333333,4,2,1,75,0,0
199405,-66.6666666666667,4,2,1,80,0,1
240198,-66.6666666666667,4,2,1,75,0,0
248978,-1000,4,2,1,75,0,0
249070,-1000,4,2,1,75,0,0
252088,-1000,4,2,1,65,0,0
253551,-1000,4,2,1,55,0,0
254649,-1000,4,2,1,55,0,0
255015,-1000,4,2,1,45,0,0
256478,-1000,4,2,1,35,0,0
257941,-1000,4,2,1,25,0,0
259405,-1000,4,2,1,15,0,0
261417,-1000,4,2,1,5,0,0

[Colours]
Combo1 : 202,202,202
Combo2 : 201,185,255
Combo3 : 247,176,176
Combo4 : 254,188,252

[HitObjects]
249,90,381,5,14,3:2:0:0:
301,25,563,1,0,3:0:0:0:
202,22,746,1,10,3:1:0:0:
197,13,929,1,0,3:0:0:0:
369,111,1112,6,0,P|379:61|387:26,1,70,12|0,3:2|3:0,0:0:0:0:
136,114,1478,2,0,P|129:80|122:46,1,70,10|0,3:1|3:0,0:0:0:0:
323,196,1844,5,10,3:1:0:0:
323,196,2027,1,0,3:0:0:0:
191,258,2210,5,10,3:1:0:0:
253,351,2393,5,0,3:0:0:0:
261,358,2484,1,0,3:0:0:0:
270,359,2576,1,8,3:2:0:0:
276,355,2667,1,8,0:0:0:0:
273,349,2759,1,0,3:0:0:0:
266,349,2850,1,8,3:0:0:0:
264,352,2941,1,8,0:0:0:0:
264,355,3124,6,0,P|276:287|398:229,1,210.000008010865,4|0,3:2|3:0,0:0:0:0:
495,360,3673,2,0,B|447:376|447:376|387:335,1,105.000004005432,10|0,3:1|3:0,0:0:0:0:
455,122,4039,1,10,3:1:0:0:
455,122,4405,5,10,3:1:0:0:
239,74,4588,1,0,3:0:0:0:
51,148,4771,2,0,B|21:249|21:249|79:343,1,210.000008010865,10|10,3:1|3:1,0:0:0:0:
155,272,5320,1,0,3:0:0:0:
41,61,5502,5,8,3:2:0:0:
130,84,5685,1,8,0:0:0:0:
323,210,5868,5,8,3:2:0:0:
447,242,6051,2,0,P|436:156|419:23,1,210.000008010865,4|0,3:2|3:0,0:0:0:0:
342,20,6600,1,10,3:1:0:0:
279,66,6783,1,0,3:0:0:0:
205,39,6966,2,0,P|138:31|43:21,1,157.500006008148,10|0,3:1|0:0,0:0:0:0:
29,38,7332,2,0,B|7:86|7:86|47:147,1,105.000004005432,10|0,3:1|3:0,0:0:0:0:
302,276,7698,6,0,P|277:199|154:159,1,210.000008010865,10|10,3:1|3:1,0:0:0:0:
94,186,8246,1,0,0:0:0:0:
343,129,8429,1,8,3:2:0:0:
343,129,8521,1,8,3:2:0:0:
343,129,8612,1,0,3:0:0:0:
439,94,8795,1,8,0:0:0:0:
184,86,8978,6,0,P|195:154|219:313,1,210.000008010865,4|0,3:2|3:0,0:0:0:0:
476,172,9527,2,0,P|470:205|458:285,1,105.000004005432,8|0,3:1|3:0,0:0:0:0:
101,121,9893,2,0,P|85:224|68:328,1,210.000008010865,8|8,3:1|3:1,0:0:0:0:
132,374,10441,1,0,3:0:0:0:
365,60,10624,6,0,P|370:93|382:173,1,105.000004005432,10|0,3:1|0:0,0:0:0:0:
101,35,10990,1,8,3:2:0:0:
101,35,11173,1,0,3:0:0:0:
199,235,11356,1,8,3:1:0:0:
135,339,11539,1,8,3:1:0:0:
71,157,11722,1,8,0:0:0:0:
17,209,11905,6,0,P|90:210|247:221,1,210.000008010865,4|0,3:2|3:0,0:0:0:0:
452,258,12454,2,0,B|477:211|477:211|456:154,1,105.000004005432,10|0,3:1|3:0,0:0:0:0:
252,8,12820,2,0,P|181:43|169:172,1,210.000008010865,8|8,3:1|0:0,0:0:0:0:
232,206,13368,1,0,3:0:0:0:
504,284,13551,5,8,3:2:0:0:
478,209,13734,1,0,3:0:0:0:
405,349,13917,5,8,0:0:0:0:
366,240,14100,1,0,3:0:0:0:
341,248,14191,1,8,0:0:0:0:
316,256,14282,1,8,0:0:0:0:
291,264,14374,1,8,0:0:0:0:
287,273,14466,5,8,3:0:0:0:
251,284,14557,1,8,3:0:0:0:
216,295,14649,1,4,3:0:0:0:
180,306,14740,1,4,3:0:0:0:
145,317,14832,6,0,P|122:261|138:151,1,167.999994873047,6|0,3:2|3:0,0:0:0:0:
419,122,15380,2,0,B|381:137|381:137|329:129,1,83.9999974365235,8|2,0:0|0:0,0:0:0:0:
169,60,15746,1,2,3:0:0:0:
251,2,15929,2,0,P|255:43|259:87,1,83.9999974365235,0|0,3:0|0:0,0:0:0:0:
289,287,16295,5,8,3:0:0:0:
361,217,16478,2,0,P|422:229|457:236,1,83.9999974365235,2|0,3:2|3:0,0:0:0:0:
235,218,16844,5,10,0:0:0:0:
368,228,17027,2,0,P|429:240|464:247,1,83.9999974365235,0|2,3:0|3:0,0:0:0:0:
181,151,17393,5,8,0:0:0:0:
341,352,17576,2,0,P|382:343|423:335,1,83.9999974365235,2|8,3:0|3:0,0:0:0:0:
311,87,17941,5,6,3:2:0:0:
295,168,18124,1,0,3:0:0:0:
477,77,18307,1,8,0:0:0:0:
450,234,18490,1,2,3:0:0:0:
395,147,18673,1,2,3:0:0:0:
395,147,18856,1,8,3:0:0:0:
395,147,19222,5,0,3:0:0:0:
216,122,19405,2,0,P|164:133|126:140,1,83.9999974365235,2|8,3:0|3:0,0:0:0:0:
37,88,19771,2,0,P|30:154|23:220,1,125.999996154785,10|0,3:2|0:0,0:0:0:0:
1,235,20137,2,0,P|9:290|15:328,1,83.9999974365235,2|8,3:0|0:0,0:0:0:0:
61,379,20502,1,2,3:0:0:0:
230,210,20685,1,8,0:0:0:0:
152,189,20868,5,6,3:2:0:0:
308,183,21051,1,0,3:0:0:0:
440,344,21234,1,8,0:0:0:0:
361,376,21417,2,0,P|368:326|375:281,1,83.9999974365235,0|0,3:0|3:0,0:0:0:0:
320,93,21783,2,0,P|408:75|492:56,1,167.999994873047,10|2,3:0|3:0,0:0:0:0:
242,152,22332,6,0,P|198:142|156:133,1,83.9999974365235,0|8,3:0|3:0,0:0:0:0:
36,69,22698,1,8,0:0:0:0:
16,146,22880,1,0,3:0:0:0:
22,157,23063,1,0,3:0:0:0:
8,283,23246,1,10,0:0:0:0:
42,364,23429,1,2,3:0:0:0:
143,343,23612,1,10,3:0:0:0:
141,213,23795,6,0,P|103:243|100:288,1,83.9999974365235,6|0,3:2|3:0,0:0:0:0:
294,374,24161,1,10,0:0:0:0:
294,374,24344,1,2,3:0:0:0:
367,339,24527,2,0,P|416:314|420:202,1,167.999994873047,8|10,3:0|0:0,0:0:0:0:
364,164,25076,1,0,3:0:0:0:
227,59,25259,6,0,P|234:126|241:200,1,125.999996154785,2|0,3:2|0:0,0:0:0:0:
215,261,25624,2,0,B|205:304|205:304|227:355,1,83.9999974365235,8|8,0:0|3:0,0:0:0:0:
247,359,25899,1,8,3:0:0:0:
216,368,25990,1,0,3:0:0:0:
142,209,26173,1,10,0:0:0:0:
326,254,26356,1,8,3:0:0:0:
322,268,26539,1,10,3:2:0:0:
128,302,26722,6,0,P|80:295|34:288,1,83.9999974365235,4|0,3:2|3:0,0:0:0:0:
163,89,27088,2,0,P|216:112|250:234,1,167.999994873047,10|0,0:0|3:0,0:0:0:0:
203,17,27637,2,0,B|284:53|285:-31|386:16,1,167.999994873047,0|8,3:0|3:0,0:0:0:0:
483,130,28185,6,0,B|487:175|487:175|474:213,1,83.9999974365235,2|0,3:0|3:0,0:0:0:0:
353,344,28551,1,10,0:0:0:0:
434,324,28734,1,0,3:0:0:0:
512,338,28917,1,2,3:0:0:0:
277,322,29100,1,8,0:0:0:0:
201,346,29283,1,2,3:0:0:0:
127,320,29466,1,0,3:0:0:0:
15,360,29649,6,0,P|7:312|11:166,1,167.999994873047,6|8,3:2|0:0,0:0:0:0:
43,126,30198,1,2,3:0:0:0:
15,360,30380,2,0,P|7:312|11:166,1,167.999994873047,2|0,3:0|3:0,0:0:0:0:
43,126,30929,1,0,3:0:0:0:
43,126,31112,5,2,3:0:0:0:
121,154,31295,1,0,3:0:0:0:
291,53,31478,1,10,0:0:0:0:
215,20,31844,5,2,3:0:0:0:
287,229,32027,1,8,0:0:0:0:
426,162,32210,1,2,3:0:0:0:
335,151,32393,1,8,0:0:0:0:
410,333,32576,6,0,B|374:354|374:354|316:346,1,83.9999974365235,4|0,3:2|3:0,0:0:0:0:
170,208,32941,1,8,0:0:0:0:
355,265,33124,1,0,3:0:0:0:
178,215,33490,5,2,3:0:0:0:
178,215,33582,1,0,3:0:0:0:
178,215,33673,1,8,3:0:0:0:
251,180,33856,1,0,3:0:0:0:
107,351,34039,5,0,3:0:0:0:
32,271,34222,1,8,3:0:0:0:
86,92,34405,2,0,P|92:141|98:181,1,83.9999974365235,8|0,0:0|3:0,0:0:0:0:
23,365,34771,1,0,3:0:0:0:
237,178,34954,2,0,P|230:219|225:261,1,83.9999974365235,10|0,0:0|3:0,0:0:0:0:
16,189,35320,1,10,0:0:0:0:
198,3,35502,6,0,P|259:25|281:133,1,167.999994873047,4|8,3:2|0:0,0:0:0:0:
237,178,36051,1,2,3:0:0:0:
313,345,36234,2,0,B|353:354|353:354|406:333,1,83.9999974365235,0|10,3:0|3:0,0:0:0:0:
493,213,36600,2,0,P|491:168|474:125,1,83.9999974365235,0|2,3:0|3:0,0:0:0:0:
363,223,36966,5,8,0:0:0:0:
363,223,37149,1,0,3:0:0:0:
138,184,37332,1,14,0:0:0:0:
186,295,37515,1,10,3:0:0:0:
220,279,37606,1,8,3:0:0:0:
247,253,37697,1,8,3:2:0:0:
262,219,37789,1,8,0:0:0:0:
265,181,37880,1,8,3:0:0:0:
254,145,37972,1,8,0:0:0:0:
274,117,38063,5,10,3:2:0:0:
223,120,38154,1,8,3:0:0:0:
176,102,38245,1,10,0:0:0:0:
140,68,38337,1,8,0:0:0:0:
120,21,38429,6,0,P|107:106|94:204,2,167.999994873047,4|8|0,3:2|0:0|3:0,0:0:0:0:
234,65,39344,1,2,3:0:0:0:
217,141,39527,1,8,0:0:0:0:
1,141,39710,6,0,P|14:226|27:324,1,167.999994873047,6|2,3:2|3:0,0:0:0:0:
98,358,40259,2,0,B|132:335|132:335|201:354,1,83.9999974365235,8|2,0:0|3:0,0:0:0:0:
341,303,40624,1,0,3:0:0:0:
274,338,40807,1,2,3:0:0:0:
456,372,40990,1,8,0:0:0:0:
456,372,41173,1,2,3:0:0:0:
512,169,41356,6,0,B|437:121|426:250|339:233,1,167.999994873047,4|8,3:2|0:0,0:0:0:0:
304,200,41905,1,0,3:0:0:0:
304,200,42271,1,2,3:0:0:0:
79,248,42454,1,8,0:0:0:0:
14,201,42637,6,0,P|8:148|104:60,1,167.999994873047,6|0,3:2|3:0,0:0:0:0:
196,10,43185,2,0,P|242:22|295:34,1,83.9999974365235,8|0,0:0|3:0,0:0:0:0:
389,186,43551,1,8,0:0:0:0:
400,181,43643,1,8,0:0:0:0:
398,173,43734,1,2,3:0:0:0:
294,215,43917,1,8,0:0:0:0:
417,299,44100,1,2,3:0:0:0:
497,184,44283,6,0,P|477:98|453:0,1,167.999994873047,4|8,3:2|0:0,0:0:0:0:
339,115,44832,1,0,3:0:0:0:
497,184,45015,2,0,P|501:139|505:90,1,83.9999974365235,0|2,3:0|3:0,0:0:0:0:
282,57,45380,1,8,0:0:0:0:
105,159,45563,6,0,P|101:209|138:337,1,167.999994873047,6|0,3:2|3:0,0:0:0:0:
281,371,46112,2,0,P|323:365|367:346,1,83.9999974365235,8|0,0:0|3:0,0:0:0:0:
366,340,46478,1,0,3:0:0:0:
274,160,46661,1,2,3:0:0:0:
217,229,46844,1,8,0:0:0:0:
301,253,47027,1,2,3:0:0:0:
337,59,47210,6,0,P|256:41|133:17,1,167.999994873047,4|8,3:2|0:0,0:0:0:0:
97,44,47759,1,0,3:0:0:0:
13,210,47941,2,0,P|11:259|28:298,1,83.9999974365235,0|2,3:0|3:0,0:0:0:0:
219,361,48307,1,8,0:0:0:0:
148,238,48490,6,0,P|139:308|127:393,1,125.999996154785,6|0,3:2|0:0,0:0:0:0:
121,372,48856,1,0,3:0:0:0:
266,263,49039,1,8,0:0:0:0:
166,87,49222,1,0,3:0:0:0:
157,92,49313,1,0,3:0:0:0:
152,102,49405,1,10,3:2:0:0:
161,122,49496,1,8,0:0:0:0:
189,132,49588,1,8,0:0:0:0:
226,113,49679,1,8,0:0:0:0:
264,92,49771,1,8,3:2:0:0:
310,98,49862,1,8,0:0:0:0:
341,130,49954,1,8,0:0:0:0:
351,172,50045,1,8,0:0:0:0:
331,209,50137,6,0,P|321:109|311:-10,1,210.000008010865,6|10,3:2|0:0,0:0:0:0:
427,103,50685,1,2,0:0:0:0:
216,147,50868,1,0,3:0:0:0:
141,167,51051,1,2,3:0:0:0:
3,197,51234,1,8,0:0:0:0:
208,354,51417,6,0,P|233:293|365:260,1,210.000008010865,6|2,3:2|3:0,0:0:0:0:
401,324,51966,1,8,0:0:0:0:
505,180,52149,2,0,B|451:167|451:167|402:207,1,105.000004005432,2|0,3:0|3:0,0:0:0:0:
323,357,52515,1,2,3:0:0:0:
336,88,52698,1,8,0:0:0:0:
311,162,52880,1,2,3:0:0:0:
332,237,53063,6,0,P|244:231|105:220,1,210.000008010865,4|8,3:2|0:0,0:0:0:0:
122,221,53795,1,0,3:0:0:0:
49,249,53978,1,2,3:0:0:0:
70,326,54161,1,8,0:0:0:0:
224,359,54344,5,6,3:2:0:0:
249,283,54527,1,0,0:0:0:0:
231,207,54710,1,2,3:0:0:0:
242,128,54893,1,8,0:0:0:0:
402,290,55076,5,2,0:0:0:0:
380,210,55259,1,8,0:0:0:0:
380,210,55350,1,8,0:0:0:0:
380,210,55441,1,2,3:0:0:0:
399,128,55624,1,8,0:0:0:0:
371,53,55807,1,2,3:0:0:0:
371,53,55899,1,0,3:0:0:0:
371,53,55990,6,0,P|312:47|153:53,1,210.000008010865,4|8,3:2|0:0,0:0:0:0:
98,96,56539,1,0,0:0:0:0:
30,240,56722,2,0,B|0:198|0:198|27:125,1,105.000004005432,0|2,3:0|3:0,0:0:0:0:
217,247,57088,1,8,0:0:0:0:
135,302,57271,6,0,P|123:240|93:70,1,210.000008010865,6|2,3:2|3:0,0:0:0:0:
324,124,57820,2,0,P|315:176|306:227,1,105.000004005432,8|2,0:0|0:0,0:0:0:0:
239,17,58185,1,0,3:0:0:0:
165,32,58368,1,2,3:0:0:0:
183,109,58551,1,8,0:0:0:0:
439,218,58734,1,2,3:0:0:0:
472,144,58917,6,0,P|451:89|293:57,1,210.000008010865,4|8,3:2|0:0,0:0:0:0:
318,46,59649,1,0,3:0:0:0:
354,118,59832,1,2,3:0:0:0:
176,248,60015,1,8,0:0:0:0:
8,176,60198,6,0,P|32:140|190:142,1,210.000008010865,6|0,3:2|3:0,0:0:0:0:
172,360,60746,1,8,0:0:0:0:
105,321,60929,1,2,3:0:0:0:
291,250,61112,1,8,0:2:0:0:
324,234,61204,1,8,0:0:0:0:
362,220,61295,1,0,3:0:0:0:
399,207,61387,1,8,0:0:0:0:
404,197,61478,1,10,3:2:0:0:
413,200,61570,1,0,3:0:0:0:
424,202,61661,1,8,0:0:0:0:
433,204,61752,1,8,0:0:0:0:
442,206,61844,6,0,P|450:116|426:-4,1,210.000008010865,6|10,3:2|0:0,0:0:0:0:
203,113,62393,2,0,P|199:158|211:218,1,105.000004005432,2|0,0:0|3:0,0:0:0:0:
242,288,62759,1,2,3:0:0:0:
335,152,62941,1,8,0:0:0:0:
176,24,63124,6,0,P|69:40|12:141,1,210.000008010865,6|2,3:2|3:0,0:0:0:0:
127,326,63673,2,0,B|158:283|158:283|132:227,1,105.000004005432,8|2,0:0|0:0,0:0:0:0:
36,268,64039,1,0,3:0:0:0:
39,277,64222,1,2,3:0:0:0:
214,180,64405,1,8,0:0:0:0:
142,148,64588,1,2,3:2:0:0:
211,350,64771,6,0,P|280:338|433:311,2,210.000008010865,4|8|0,3:2|0:0|3:2,0:0:0:0:
143,309,65685,1,2,3:0:0:0:
306,372,65868,1,8,0:0:0:0:
427,250,66051,6,0,P|426:182|366:37,1,210.000008010865,6|0,3:2|3:0,0:0:0:0:
216,194,66600,1,8,0:0:0:0:
292,216,66783,1,0,3:0:0:0:
140,39,66966,1,8,3:2:0:0:
158,87,67057,1,8,0:0:0:0:
142,136,67148,1,10,0:0:0:0:
99,164,67240,1,0,3:0:0:0:
122,187,67332,1,8,3:2:0:0:
80,189,67423,1,8,0:0:0:0:
43,209,67514,1,10,0:0:0:0:
19,243,67606,1,8,0:0:0:0:
11,284,67698,6,0,B|91:305|91:305|121:348|121:348|216:357,1,210.000008010865,4|8,3:2|0:0,0:0:0:0:
195,356,68429,1,0,3:0:0:0:
288,334,68612,1,2,3:0:0:0:
441,363,68795,1,8,0:0:0:0:
505,280,68978,6,0,P|492:209|364:125,1,210.000008010865,6|0,3:2|3:0,0:0:0:0:
202,237,69527,2,0,B|247:264|247:264|310:239,1,105.000004005432,8|0,0:0|0:0,0:0:0:0:
336,181,69893,1,0,3:0:0:0:
362,293,70076,1,2,3:0:0:0:
139,298,70259,1,8,0:0:0:0:
121,222,70442,1,2,3:0:0:0:
124,315,70624,6,0,P|140:203|156:94,2,210.000008010865,4|8|0,3:2|0:0|3:2,0:0:0:0:
179,363,71539,1,2,3:0:0:0:
47,219,71722,1,8,0:0:0:0:
89,152,71905,6,0,B|200:103|191:252|271:258,1,210.000008010865,6|0,3:2|3:0,0:0:0:0:
438,153,72454,1,8,0:0:0:0:
394,28,72637,1,0,3:0:0:0:
284,68,72820,1,8,0:0:0:0:
284,68,72911,1,8,0:0:0:0:
284,68,73002,1,0,3:0:0:0:
297,273,73185,1,8,0:0:0:0:
97,302,73368,1,8,3:2:0:0:
32,226,73551,6,0,P|113:211|151:204,1,105.000004005432,6|0,3:2|0:0,0:0:0:0:
293,182,73917,1,10,0:0:0:0:
11,214,74100,2,0,P|92:199|230:170,1,210.000008010865,2|2,3:0|3:0,0:0:0:0:
386,217,74649,1,8,0:0:0:0:
277,311,74832,1,2,3:0:0:0:
263,102,75015,6,0,P|252:49|238:-7,1,105.000004005432,4|0,3:2|0:0,0:0:0:0:
175,172,75380,1,10,0:0:0:0:
368,143,75563,1,2,3:0:0:0:
290,202,75746,1,8,0:0:0:0:
129,83,75929,1,10,0:0:0:0:
38,256,76112,1,8,0:0:0:0:
198,364,76295,6,0,P|210:294|217:246,1,105.000004005432,6|0,3:2|0:0,0:0:0:0:
129,303,76661,1,0,3:0:0:0:
365,347,76844,2,0,P|347:202|337:119,1,210.000008010865,8|0,0:0|3:0,0:0:0:0:
126,18,77393,1,2,3:0:0:0:
94,110,77576,1,10,0:0:0:0:
178,141,77759,1,2,3:0:0:0:
323,0,77941,5,10,0:0:0:0:
394,36,78124,1,0,3:0:0:0:
473,206,78307,5,8,0:0:0:0:
323,271,78490,1,0,3:0:0:0:
481,358,78673,5,10,3:2:0:0:
494,307,78764,1,8,0:0:0:0:
492,255,78855,1,8,0:0:0:0:
473,206,78947,1,8,0:0:0:0:
439,166,79038,1,0,3:0:0:0:
394,139,79130,1,8,0:0:0:0:
343,128,79222,6,0,P|251:145|111:173,1,210.000008010865,4|0,3:2|3:0,0:0:0:0:
21,29,79771,2,0,B|68:10|68:10|116:47,1,105.000004005432,10|0,3:1|3:0,0:0:0:0:
42,258,80137,1,10,3:1:0:0:
42,258,80502,5,10,3:1:0:0:
232,369,80685,1,0,3:0:0:0:
408,238,80868,1,10,3:1:0:0:
408,238,81234,1,10,3:1:0:0:
408,238,81600,5,8,3:2:0:0:
232,369,81783,1,8,0:0:0:0:
42,258,81966,1,8,3:2:0:0:
214,122,82149,6,0,P|277:148|297:286,1,210.000008010865,4|0,3:2|3:0,0:0:0:0:
141,357,82698,2,0,B|124:307|124:307|165:257,1,105.000004005432,10|0,3:1|3:0,0:0:0:0:
309,356,83063,1,10,3:1:0:0:
309,356,83429,1,10,3:1:0:0:
181,192,83612,1,0,3:0:0:0:
281,17,83795,6,0,P|305:78|311:237,1,210.000008010865,10|10,3:1|3:1,0:0:0:0:
267,283,84344,1,0,3:0:0:0:
402,226,84527,1,8,3:2:0:0:
402,226,84618,1,8,3:2:0:0:
402,226,84710,1,0,3:0:0:0:
170,115,84893,1,8,0:0:0:0:
25,306,85076,6,0,P|94:322|236:357,1,210.000008010865,12|0,3:2|3:0,0:0:0:0:
359,289,85624,2,0,P|428:271|471:259,1,105.000004005432,8|0,3:1|3:0,0:0:0:0:
155,177,85990,2,0,P|143:248|136:296,1,105.000004005432,8|0,3:1|0:0,0:0:0:0:
342,177,86356,2,0,P|336:120|330:62,1,105.000004005432,8|0,3:1|3:0,0:0:0:0:
140,189,86722,6,0,P|128:260|121:308,1,105.000004005432,2|0,3:1|0:0,0:0:0:0:
355,167,87088,2,0,P|409:180|474:196,1,105.000004005432,8|0,3:2|3:0,0:0:0:0:
244,31,87454,1,8,3:1:0:0:
387,93,87637,1,8,3:1:0:0:
305,230,87820,1,8,0:0:0:0:
156,232,88002,6,0,P|142:133|124:9,1,210.000008010865,4|0,3:2|3:1,0:0:0:0:
392,135,88551,2,0,P|384:186|377:238,1,105.000004005432,10|0,3:1|3:0,0:0:0:0:
272,176,88917,1,8,3:1:0:0:
272,176,89283,5,8,0:0:0:0:
313,245,89466,1,0,3:0:0:0:
259,298,89649,1,0,3:0:0:0:
294,366,89832,1,0,3:0:0:0:
101,314,90015,1,12,0:0:0:0:
180,179,90198,5,0,3:0:0:0:
207,166,90289,1,8,0:0:0:0:
239,182,90380,1,8,0:0:0:0:
268,162,90472,1,8,0:0:0:0:
298,180,90563,1,8,3:0:0:0:
331,149,90655,1,8,3:0:0:0:
362,181,90746,1,0,3:0:0:0:
388,147,90838,1,0,3:0:0:0:
425,182,90929,6,0,P|446:289|448:370,1,167.999994873047,6|0,3:2|3:0,0:0:0:0:
448,347,91478,2,0,P|397:338|342:327,1,83.9999974365235,8|2,0:0|0:0,0:0:0:0:
316,273,91844,1,2,3:0:0:0:
287,360,92027,1,0,3:0:0:0:
233,295,92393,5,8,3:0:0:0:
447,242,92576,1,2,3:2:0:0:
377,206,92759,1,0,3:0:0:0:
363,366,92941,1,10,0:0:0:0:
433,331,93124,2,0,P|477:346|529:362,1,83.9999974365235,0|2,3:0|3:0,0:0:0:0:
288,236,93490,1,8,0:0:0:0:
446,161,93673,2,0,P|458:105|467:63,1,83.9999974365235,2|8,3:0|3:0,0:0:0:0:
222,170,94039,5,6,3:2:0:0:
201,96,94222,1,0,3:0:0:0:
361,196,94405,1,8,0:0:0:0:
357,118,94588,1,2,3:0:0:0:
474,266,94771,1,2,3:0:0:0:
506,192,94954,1,8,3:0:0:0:
506,192,95320,5,0,3:0:0:0:
365,285,95502,1,2,3:0:0:0:
252,243,95685,1,8,3:0:0:0:
105,333,95868,1,10,3:2:0:0:
32,275,96051,1,0,0:0:0:0:
114,239,96234,1,2,3:0:0:0:
273,336,96417,1,8,0:0:0:0:
340,282,96600,1,2,3:0:0:0:
503,312,96783,1,8,0:0:0:0:
424,356,96966,6,0,P|417:276|415:253,1,83.9999974365235,6|0,3:2|3:0,0:0:0:0:
398,88,97332,1,8,0:0:0:0:
359,164,97698,5,0,3:0:0:0:
464,136,97880,1,10,3:0:0:0:
354,158,98246,5,2,3:0:0:0:
427,210,98429,1,0,3:0:0:0:
392,79,98612,1,8,3:0:0:0:
186,144,98795,5,8,0:0:0:0:
178,224,98978,1,0,3:0:0:0:
250,192,99161,1,0,3:0:0:0:
109,174,99344,1,10,0:0:0:0:
22,292,99527,1,2,3:0:0:0:
173,327,99710,1,10,3:0:0:0:
250,192,99893,6,0,P|225:133|112:103,1,167.999994873047,6|8,3:2|0:0,0:0:0:0:
74,49,100441,1,2,3:0:0:0:
13,229,100624,2,0,P|23:281|45:327,1,83.9999974365235,0|8,3:0|3:0,0:0:0:0:
96,359,100990,1,10,0:0:0:0:
96,359,101173,1,0,3:0:0:0:
192,255,101356,5,2,3:2:0:0:
118,230,101539,1,8,3:0:0:0:
256,191,101722,1,12,0:0:0:0:
256,191,102088,5,0,3:0:0:0:
386,276,102271,1,10,0:0:0:0:
447,227,102454,1,8,3:0:0:0:
447,227,102545,1,0,0:0:0:0:
447,227,102637,1,10,3:2:0:0:
364,197,102820,6,0,P|352:266|334:381,1,167.999994873047,4|10,3:2|0:0,0:0:0:0:
165,170,103368,2,0,P|170:204|180:262,1,83.9999974365235,0|0,3:0|0:0,0:0:0:0:
197,330,103734,1,0,3:0:0:0:
197,330,104100,5,8,3:0:0:0:
254,268,104283,1,2,3:0:0:0:
116,299,104466,1,0,3:0:0:0:
92,209,104649,1,10,0:0:0:0:
230,178,104832,5,0,3:0:0:0:
176,236,105015,1,2,3:0:0:0:
93,193,105198,1,8,0:0:0:0:
108,89,105380,1,2,3:0:0:0:
224,61,105563,1,8,3:0:0:0:
309,195,105746,6,0,P|341:185|398:166,1,83.9999974365235,6|0,3:2|3:0,0:0:0:0:
405,354,106112,2,0,P|392:292|462:217,1,167.999994873047,8|2,0:0|3:0,0:0:0:0:
510,269,106661,1,4,3:0:0:0:
510,269,107027,5,0,3:0:0:0:
462,207,107210,1,2,3:0:0:0:
430,135,107393,1,0,3:0:0:0:
352,19,107576,5,10,0:0:0:0:
278,49,107759,1,8,3:0:0:0:
289,85,107850,1,8,3:0:0:0:
299,125,107941,1,2,3:0:0:0:
352,276,108124,5,8,0:0:0:0:
257,379,108307,1,2,3:0:0:0:
196,333,108490,1,8,3:0:0:0:
244,271,108673,6,0,P|299:284|354:380,2,167.999994873047,4|8|0,3:2|0:0|3:0,0:0:0:0:
196,333,109588,2,0,P|152:321|97:306,2,83.9999974365235,2|8|2,3:0|3:0|3:0,0:0:0:0:
361,261,110137,5,0,3:0:0:0:
328,190,110320,1,8,3:0:0:0:
270,52,110502,1,8,0:0:0:0:
270,52,110685,1,0,3:0:0:0:
336,96,110868,1,0,3:0:0:0:
189,62,111051,1,10,0:0:0:0:
111,74,111234,1,0,3:0:0:0:
43,34,111417,1,10,0:0:0:0:
53,25,111600,6,0,B|102:98|24:108|38:188,1,167.999994873047,4|10,3:2|0:0,0:0:0:0:
86,282,112149,2,0,P|136:301|249:285,1,167.999994873047,2|10,3:0|3:0,0:0:0:0:
326,51,112880,1,2,3:0:0:0:
257,0,113063,6,0,P|247:54|241:89,1,83.9999974365235,4|0,3:2|3:0,0:0:0:0:
359,216,113429,1,14,0:0:0:0:
264,300,113612,1,6,3:0:0:0:
256,297,113704,1,8,3:0:0:0:
256,289,113795,1,8,3:2:0:0:
266,286,113887,1,8,0:0:0:0:
273,293,113978,1,8,3:0:0:0:
279,336,114070,1,8,0:0:0:0:
223,352,114161,1,10,3:2:0:0:
179,323,114252,1,8,3:0:0:0:
167,271,114344,1,10,0:0:0:0:
190,221,114435,1,8,0:0:0:0:
243,201,114527,6,0,B|334:184|311:288|401:294,1,167.999994873047,4|8,3:2|0:0,0:0:0:0:
435,245,115076,1,0,0:0:0:0:
252,283,115259,2,0,P|243:332|235:375,1,83.9999974365235,0|2,3:0|3:0,0:0:0:0:
429,236,115624,1,8,0:0:0:0:
282,75,115807,6,0,B|223:81|223:81|208:131|208:131|120:163,1,167.999994873047,6|2,3:2|3:0,0:0:0:0:
14,46,116356,2,0,P|66:33|105:23,1,83.9999974365235,8|2,0:0|3:0,0:0:0:0:
119,217,116722,1,0,3:0:0:0:
139,347,116905,1,2,3:0:0:0:
26,175,117088,1,8,0:0:0:0:
172,133,117271,1,2,3:0:0:0:
307,215,117454,6,0,P|358:202|394:80,1,167.999994873047,4|8,3:2|0:0,0:0:0:0:
402,103,118185,1,0,3:0:0:0:
257,131,118368,1,2,3:0:0:0:
109,93,118551,1,8,0:0:0:0:
36,118,118734,6,0,P|32:171|54:318,1,167.999994873047,6|0,3:2|3:0,0:0:0:0:
254,362,119283,2,0,B|216:341|216:341|171:356,1,83.9999974365235,8|0,0:0|0:0,0:0:0:0:
79,350,119649,1,8,0:0:0:0:
76,358,119740,1,8,0:0:0:0:
86,353,119832,1,2,3:0:0:0:
72,353,119923,1,8,0:0:0:0:
86,360,120015,1,8,0:0:0:0:
282,231,120198,1,2,3:0:0:0:
282,231,120289,1,8,0:0:0:0:
282,231,120380,6,0,B|206:202|196:285|104:260,1,167.999994873047,4|8,3:2|0:0,0:0:0:0:
58,229,120929,1,0,0:0:0:0:
235,317,121112,2,0,P|282:335|316:347,1,83.9999974365235,0|2,3:0|3:0,0:0:0:0:
476,243,121478,1,8,0:0:0:0:
407,202,121661,6,0,P|396:255|411:373,1,167.999994873047,6|0,3:2|3:0,0:0:0:0:
271,186,122210,2,0,P|311:218|314:267,1,83.9999974365235,8|0,0:0|3:0,0:0:0:0:
271,309,122576,1,0,3:0:0:0:
327,363,122759,1,2,3:0:0:0:
376,189,122941,1,8,0:0:0:0:
250,57,123124,1,2,3:0:0:0:
187,106,123307,6,0,P|183:152|85:228,1,167.999994873047,4|8,3:2|0:0,0:0:0:0:
25,197,123856,1,0,3:0:0:0:
192,277,124039,2,0,B|233:274|240:304|282:311,1,83.9999974365235,0|2,3:0|3:0,0:0:0:0:
409,204,124405,1,8,0:0:0:0:
338,166,124588,6,0,P|338:113|322:-5,1,167.999994873047,6|0,3:2|3:0,0:0:0:0:
173,122,125137,1,12,0:0:0:0:
246,151,125320,1,0,3:0:0:0:
273,143,125411,1,0,3:0:0:0:
302,132,125502,1,10,3:2:0:0:
315,136,125594,1,8,0:0:0:0:
325,139,125685,1,8,0:0:0:0:
334,144,125777,1,8,0:0:0:0:
345,148,125868,1,8,3:2:0:0:
388,148,125960,1,8,0:0:0:0:
416,109,126051,1,8,0:0:0:0:
393,65,126143,1,8,0:0:0:0:
340,61,126234,6,0,P|348:143|360:285,1,210.000008010865,6|10,3:2|0:0,0:0:0:0:
210,220,126783,2,0,P|153:241|100:261,1,105.000004005432,2|0,0:0|3:0,0:0:0:0:
189,94,127149,1,2,3:0:0:0:
117,123,127332,1,8,0:0:0:0:
43,147,127515,6,0,P|35:229|23:371,1,210.000008010865,6|2,3:2|3:0,0:0:0:0:
271,263,128063,1,8,0:0:0:0:
174,242,128246,1,2,3:0:0:0:
189,319,128429,1,0,3:0:0:0:
326,165,128612,1,2,3:0:0:0:
437,296,128795,1,8,0:0:0:0:
505,139,128978,1,2,3:0:0:0:
422,207,129161,6,0,P|411:136|389:-3,2,210.000008010865,4|8|0,3:2|0:0|3:0,0:0:0:0:
402,282,130076,1,2,3:0:0:0:
219,360,130259,1,8,0:0:0:0:
168,300,130441,6,0,B|139:257|139:257|159:199,1,105.000004005432,6|0,3:2|0:0,0:0:0:0:
297,60,130807,2,0,P|307:129|317:202,1,105.000004005432,2|8,3:0|0:0,0:0:0:0:
287,235,131173,1,2,3:0:0:0:
190,98,131356,1,8,0:0:0:0:
190,98,131448,1,8,0:0:0:0:
190,98,131539,1,2,3:0:0:0:
263,144,131722,1,8,0:0:0:0:
149,222,131905,1,2,3:0:0:0:
149,222,131996,1,0,3:0:0:0:
149,222,132088,6,0,P|96:203|65:48,1,210.000008010865,4|8,3:2|0:0,0:0:0:0:
55,67,132820,1,0,3:0:0:0:
90,136,133002,1,2,3:0:0:0:
52,289,133185,1,8,0:0:0:0:
114,362,133368,6,0,P|193:365|328:370,1,210.000008010865,6|2,3:2|3:0,0:0:0:0:
156,285,133917,2,0,P|211:252|267:220,1,105.000004005432,8|2,0:0|3:0,0:0:0:0:
97,226,134283,2,0,P|78:160|66:108,2,105.000004005432,0|2|8,3:0|3:0|0:0,0:0:0:0:
232,302,134832,1,2,3:0:0:0:
287,159,135015,6,0,P|270:96|116:20,2,210.000008010865,4|8|0,3:2|0:0|3:0,0:0:0:0:
249,225,135929,1,2,3:0:0:0:
330,372,136112,1,8,0:0:0:0:
366,303,136295,1,6,3:2:0:0:
366,303,136661,5,0,3:0:0:0:
333,110,136844,1,8,0:0:0:0:
276,54,137027,1,2,3:0:0:0:
168,34,137210,1,8,0:2:0:0:
166,43,137301,1,8,0:0:0:0:
164,52,137392,1,0,3:0:0:0:
163,61,137484,1,8,0:0:0:0:
161,70,137576,5,10,3:2:0:0:
168,106,137667,1,8,3:0:0:0:
176,143,137758,1,8,0:0:0:0:
182,180,137850,1,8,0:0:0:0:
190,217,137941,6,0,P|181:290|173:348,1,105.000004005432,6|0,3:2|0:0,0:0:0:0:
361,109,138307,1,10,0:0:0:0:
328,184,138490,6,0,P|337:257|345:315,1,105.000004005432,2|0,0:0|3:0,0:0:0:0:
185,65,138856,1,2,3:0:0:0:
245,111,139039,1,8,0:0:0:0:
271,37,139222,6,0,P|190:46|32:60,1,210.000008010865,6|2,3:2|3:0,0:0:0:0:
189,286,139771,2,0,B|222:245|222:245|182:189,1,105.000004005432,8|2,0:0|3:0,0:0:0:0:
18,250,140137,1,0,3:0:0:0:
109,284,140320,1,2,3:0:0:0:
101,298,140502,1,8,0:0:0:0:
12,233,140685,1,2,3:2:0:0:
170,196,140868,6,0,B|242:270|242:270|176:378,2,210.000008010865,4|8|0,3:2|0:0|3:2,0:0:0:0:
108,149,141783,1,2,3:0:0:0:
146,17,141966,1,8,0:0:0:0:
221,19,142149,6,0,P|234:103|255:258,1,210.000008010865,6|0,3:2|3:0,0:0:0:0:
453,208,142698,2,0,P|445:288|436:359,1,105.000004005432,8|0,0:0|3:0,0:0:0:0:
422,328,142972,1,0,3:0:0:0:
449,353,143063,1,8,3:2:0:0:
451,363,143155,1,8,0:0:0:0:
443,372,143246,1,10,0:0:0:0:
432,370,143338,1,0,3:0:0:0:
424,363,143429,1,8,3:2:0:0:
398,343,143521,1,8,0:0:0:0:
353,331,143612,1,10,3:0:0:0:
308,339,143704,1,4,3:0:0:0:
275,367,143795,6,0,P|186:382|98:280,1,210.000008010865,4|8,3:2|0:0,0:0:0:0:
103,305,144527,2,0,B|88:257|88:257|100:188,1,105.000004005432,0|2,3:0|3:0,0:0:0:0:
279,147,144893,1,8,0:0:0:0:
191,241,145076,2,0,P|185:169|173:15,1,210.000008010865,6|0,3:2|3:0,0:0:0:0:
382,102,145624,2,0,P|377:154|373:206,1,105.000004005432,8|0,0:0|3:0,0:0:0:0:
342,279,145990,1,0,3:0:0:0:
361,356,146173,1,2,3:0:0:0:
462,251,146356,1,8,0:0:0:0:
256,222,146539,1,2,3:0:0:0:
201,281,146722,6,0,P|142:269|81:257,1,105.000004005432,4|2,3:2|0:0,0:0:0:0:
263,138,147088,2,0,P|204:150|143:162,1,105.000004005432,8|2,0:0|0:0,0:0:0:0:
48,199,147454,1,0,3:2:0:0:
48,199,147637,1,2,3:0:0:0:
256,222,147820,1,8,0:0:0:0:
333,194,148002,6,0,P|352:110|301:-5,1,210.000008010865,6|0,3:2|3:0,0:0:0:0:
189,271,148551,2,0,B|171:323|171:323|217:376,1,105.000004005432,8|0,0:0|3:0,0:0:0:0:
306,304,148917,1,8,0:0:0:0:
321,308,149009,1,8,0:0:0:0:
337,313,149100,1,0,3:0:0:0:
350,317,149191,1,0,0:0:0:0:
363,321,149283,1,8,0:0:0:0:
441,310,149466,1,8,3:2:0:0:
493,144,149649,6,0,P|443:150|368:160,1,105.000004005432,6|0,3:2|3:0,0:0:0:0:
257,153,150015,1,10,0:0:0:0:
307,216,150198,1,2,3:0:0:0:
273,42,150380,2,0,P|223:48|148:58,1,105.000004005432,0|2,3:0|3:0,0:0:0:0:
263,289,150746,2,0,P|213:295|138:305,1,105.000004005432,8|2,0:0|3:0,0:0:0:0:
30,244,151112,6,0,P|-3:190|31:53,1,210.000008010865,4|10,3:2|0:0,0:0:0:0:
243,8,151661,1,2,3:0:0:0:
177,161,151844,1,8,0:0:0:0:
119,39,152027,1,10,0:0:0:0:
274,131,152210,1,8,0:0:0:0:
146,238,152393,6,0,P|287:224|372:218,1,210.000008010865,6|0,3:2|3:0,0:0:0:0:
425,245,152941,1,8,0:0:0:0:
361,145,153124,1,0,3:0:0:0:
391,318,153307,2,0,P|460:346|514:369,1,105.000004005432,0|2,3:0|3:0,0:0:0:0:
411,76,153673,2,0,P|480:104|534:127,1,105.000004005432,10|2,0:0|3:0,0:0:0:0:
301,280,154039,5,10,0:0:0:0:
191,142,154222,1,0,3:0:0:0:
321,40,154405,5,8,0:0:0:0:
430,171,154588,1,0,3:0:0:0:
301,280,154771,5,10,3:2:0:0:
264,286,154862,1,8,0:0:0:0:
228,292,154953,1,8,0:0:0:0:
211,288,155045,1,8,0:0:0:0:
182,292,155136,1,0,3:0:0:0:
152,298,155228,1,8,0:0:0:0:
123,303,155320,6,0,P|132:219|147:62,1,210.000008010865,6|0,3:2|3:0,0:0:0:0:
346,72,155868,6,0,P|307:89|235:121,1,105.000004005432,8|0,3:2|3:0,0:0:0:0:
106,309,156234,6,0,P|110:266|118:188,1,105.000004005432,8|0,3:2|3:0,0:0:0:0:
153,17,156600,1,8,3:2:0:0:
121,10,156783,1,0,3:0:0:0:
235,200,156966,6,0,P|284:217|335:236,1,105.000004005432,8|0,3:2|3:0,0:0:0:0:
226,204,157332,2,0,P|275:221|326:240,1,105.000004005432,8|0,3:2|3:0,0:0:0:0:
408,222,157698,1,8,3:2:0:0:
368,60,157880,1,8,3:2:0:0:
209,21,158063,1,8,0:0:0:0:
95,137,158246,6,0,P|192:149|316:164,1,210.000008010865,4|0,3:2|3:0,0:0:0:0:
360,362,158795,6,0,P|340:316|316:259,1,105.000004005432,8|0,3:2|3:0,0:0:0:0:
85,127,159161,6,0,P|133:132|195:140,1,105.000004005432,0|0,3:2|0:0,0:0:0:0:
443,126,159527,1,8,3:2:0:0:
416,223,159710,1,0,3:0:0:0:
328,151,159893,5,8,0:0:0:0:
328,151,160076,1,0,3:0:0:0:
510,268,160259,1,8,0:0:0:0:
369,363,160441,5,0,3:0:0:0:
356,338,160533,1,8,0:0:0:0:
328,317,160624,1,8,0:0:0:0:
297,308,160716,1,8,0:0:0:0:
266,317,160807,5,0,3:2:0:0:
176,361,160990,1,10,3:0:0:0:
84,315,161173,1,4,3:0:0:0:
80,215,161356,6,0,P|151:202|259:200,1,167.999994873047,6|0,3:2|0:0,0:0:0:0:
302,148,161905,1,2,3:0:0:0:
378,338,162088,2,0,B|412:289|412:289|369:218,1,125.999996154785,8|0,0:0|0:0,0:0:0:0:
370,226,162454,2,0,P|425:220|478:216,1,83.9999974365235,2|0,0:0|3:0,0:0:0:0:
370,226,163002,6,2,P|425:220|478:216,2,83.9999974365235,8|0|2,0:0|3:0|3:0,0:0:0:0:
258,284,163551,2,0,B|177:259|163:333|88:320,1,167.999994873047,12|2,0:0|0:0,0:0:0:0:
33,291,164100,1,0,3:0:0:0:
227,202,164283,6,0,P|220:156|244:12,1,167.999994873047,6|0,3:2|0:0,0:0:0:0:
302,3,164832,1,0,3:0:0:0:
145,81,165015,2,0,P|90:77|45:69,1,83.9999974365235,8|0,0:0|0:0,0:0:0:0:
267,172,165380,1,2,0:0:0:0:
335,93,165563,1,0,3:0:0:0:
326,82,165746,5,2,3:0:0:0:
174,172,165929,1,8,0:0:0:0:
311,262,166112,1,0,3:0:0:0:
267,191,166295,1,2,3:0:0:0:
233,342,166478,2,0,P|296:350|345:357,1,83.9999974365235,12|0,0:0|0:0,0:0:0:0:
381,313,166844,1,2,3:0:0:0:
484,347,167027,1,8,0:0:0:0:
391,324,167210,6,0,P|378:274|396:140,1,167.999994873047,6|0,3:2|0:0,0:0:0:0:
440,104,167759,1,2,3:0:0:0:
391,324,167941,2,0,P|378:274|396:140,1,167.999994873047,12|2,0:0|0:0,0:0:0:0:
440,104,168490,1,0,3:0:0:0:
223,35,168673,5,2,0:0:0:0:
257,163,168856,1,8,0:0:0:0:
324,123,169039,1,0,3:0:0:0:
193,111,169222,1,2,3:0:0:0:
65,96,169405,2,0,P|54:142|69:275,1,167.999994873047,12|10,0:0|3:0,0:0:0:0:
119,313,169954,1,0,3:0:0:0:
339,229,170137,6,0,B|268:206|258:284|174:260,2,167.999994873047,4|0|12,3:2|3:0|0:0,0:0:0:0:
339,229,171417,1,2,3:0:0:0:
266,199,171600,6,0,P|261:274|260:303,2,83.9999974365235,0|8|0,0:0|0:0|3:0,0:0:0:0:
367,139,172149,1,2,3:0:0:0:
294,108,172332,1,8,0:0:0:0:
424,74,172515,1,0,3:0:0:0:
450,106,172606,1,8,0:0:0:0:
466,145,172697,1,10,3:2:0:0:
500,169,172789,1,8,0:0:0:0:
452,182,172880,1,8,0:0:0:0:
416,217,172971,1,8,0:0:0:0:
400,264,173063,6,0,P|383:322|272:353,1,167.999994873047,6|0,3:2|0:0,0:0:0:0:
171,219,173612,1,2,3:0:0:0:
140,304,173795,2,0,P|188:297|236:294,1,83.9999974365235,8|0,0:0|0:0,0:0:0:0:
198,131,174161,1,2,0:0:0:0:
198,131,174344,6,0,P|150:138|102:141,1,83.9999974365235,2|2,3:0|0:0,0:0:0:0:
171,219,174710,1,8,3:2:0:0:
140,304,174893,2,0,P|188:297|236:294,1,83.9999974365235,2|0,3:0|3:0,0:0:0:0:
198,131,175259,2,0,P|150:138|102:141,1,83.9999974365235,8|0,0:0|0:0,0:0:0:0:
39,120,175624,1,2,3:0:0:0:
84,214,175807,1,0,3:0:0:0:
110,39,175990,6,0,P|197:46|287:54,1,167.999994873047,6|0,3:2|0:0,0:0:0:0:
348,16,176539,1,2,3:0:0:0:
170,144,176722,2,0,P|211:140|253:136,2,83.9999974365235,8|0|2,0:0|0:0|0:0,0:0:0:0:
409,208,177271,1,0,3:0:0:0:
345,334,177454,5,2,0:0:0:0:
274,358,177637,2,0,B|232:282|232:282|296:210,1,167.999994873047,8|2,3:2|3:0,0:0:0:0:
269,200,178094,1,8,0:0:0:0:
309,210,178185,1,8,3:2:0:0:
352,201,178277,1,8,0:0:0:0:
378,167,178368,1,8,0:0:0:0:
364,121,178460,1,8,0:0:0:0:
324,99,178551,1,10,3:2:0:0:
314,55,178643,1,8,0:0:0:0:
343,19,178734,1,8,0:0:0:0:
387,15,178826,1,8,0:0:0:0:
420,47,178917,6,0,B|406:89|406:89|436:122,1,83.9999974365235,6|0,3:2|3:0,0:0:0:0:
495,235,179283,1,8,0:0:0:0:
479,310,179466,1,0,3:0:0:0:
345,337,179649,2,2,B|359:298|359:298|328:259,1,83.9999974365235,8|2,0:0|3:0,0:0:0:0:
190,301,180015,1,0,3:0:0:0:
345,337,180198,6,0,P|349:247|354:134,1,167.999994873047,10|8,0:0|0:0,0:0:0:0:
142,115,180746,2,0,P|144:156|146:198,1,83.9999974365235,0|0,3:0|3:0,0:0:0:0:
323,97,181112,1,8,0:0:0:0:
240,267,181295,1,2,3:0:0:0:
337,329,181478,1,8,3:2:0:0:
296,336,181570,1,8,0:0:0:0:
252,344,181661,1,10,0:0:0:0:
209,352,181752,1,8,0:0:0:0:
167,361,181844,5,4,3:2:0:0:
88,347,182027,1,0,3:0:0:0:
183,233,182210,5,8,0:0:0:0:
40,277,182393,1,0,3:0:0:0:
41,137,182576,5,8,0:0:0:0:
95,208,182759,1,0,3:0:0:0:
158,137,182941,1,0,3:0:0:0:
167,361,183124,6,0,B|226:349|226:349|243:311|243:311|329:284,1,167.999994873047,10|8,0:0|0:0,0:0:0:0:
381,307,183673,1,0,3:0:0:0:
453,278,183856,1,0,3:0:0:0:
438,273,183948,1,8,0:0:0:0:
423,266,184039,1,10,0:0:0:0:
409,231,184130,1,8,0:0:0:0:
399,192,184222,1,0,3:0:0:0:
387,152,184313,1,0,3:0:0:0:
376,108,184405,1,8,3:2:0:0:
324,91,184496,1,8,0:0:0:0:
270,76,184588,1,8,0:0:0:0:
217,61,184679,1,8,0:0:0:0:
165,47,184771,5,4,3:2:0:0:
151,124,184954,1,0,3:0:0:0:
404,285,185137,5,8,0:0:0:0:
275,170,185320,1,0,3:0:0:0:
211,329,185502,1,12,0:0:0:0:
3,136,185777,5,8,0:0:0:0:
8,153,185868,1,0,3:0:0:0:
213,221,186051,1,12,0:0:0:0:
213,221,186356,6,0,P|211:243|209:265,1,27.9999991455078,0|8,0:0|0:0,0:0:0:0:
401,174,186600,1,0,3:0:0:0:
369,142,186691,1,8,0:0:0:0:
392,104,186783,1,8,0:0:0:0:
436,118,186874,1,8,0:0:0:0:
446,165,186966,1,0,3:2:0:0:
426,218,187057,1,0,3:0:0:0:
434,269,187149,1,8,0:0:0:0:
442,279,187240,1,8,3:0:0:0:
444,289,187332,1,8,3:0:0:0:
440,299,187423,1,4,3:0:0:0:
434,309,187515,1,4,3:0:0:0:
427,318,187606,1,0,3:0:0:0:
424,328,187698,6,2,P|351:337|254:348,1,167.999994873047,6|10,3:2|0:0,0:0:0:0:
17,37,188429,1,0,3:0:0:0:
25,41,188612,1,2,3:0:0:0:
33,32,188795,1,8,0:0:0:0:
20,28,188978,6,0,P|93:37|190:48,1,167.999994873047,6|2,3:2|3:0,0:0:0:0:
187,48,190624,6,0,P|260:57|357:68,1,167.999994873047,4|8,3:2|0:0,0:0:0:0:
57,348,191356,1,0,3:0:0:0:
67,343,191539,1,2,3:0:0:0:
69,355,191722,1,8,0:0:0:0:
54,339,191905,6,0,B|14:267|14:267|78:194,1,167.999994873047,6|2,3:2|3:0,0:0:0:0:
259,133,192454,2,0,B|269:174|269:174|248:210,1,83.9999974365235,8|2,0:0|3:0,0:0:0:0:
157,248,192820,1,8,0:0:0:0:
151,215,192911,1,8,0:0:0:0:
164,175,193002,1,2,3:0:0:0:
153,141,193094,1,0,3:0:0:0:
170,102,193185,1,8,0:0:0:0:
170,329,193368,1,2,3:0:0:0:
170,329,193460,1,8,0:0:0:0:
170,329,193551,5,4,3:2:0:0:
405,310,193917,1,8,0:0:0:0:
405,310,194283,1,0,3:0:0:0:
325,301,194466,1,2,3:0:0:0:
250,327,194649,1,8,0:0:0:0:
170,329,194832,6,0,P|157:278|181:142,1,167.999994873047,6|2,3:2|3:0,0:0:0:0:
322,8,195380,2,0,P|335:54|335:98,1,83.9999974365235,8|2,0:0|3:0,0:0:0:0:
236,220,195746,1,0,3:0:0:0:
85,197,195929,1,2,3:0:0:0:
85,197,196112,1,8,0:0:0:0:
266,133,196295,1,2,3:0:0:0:
405,250,196478,5,4,3:2:0:0:
85,197,196844,5,8,0:0:0:0:
405,250,197210,5,0,3:0:0:0:
405,250,197393,1,2,3:0:0:0:
405,250,197576,1,8,0:0:0:0:
85,197,197759,5,6,3:2:0:0:
85,197,198124,1,0,3:0:0:0:
405,250,198307,1,8,0:0:0:0:
326,259,198490,1,2,3:0:0:0:
257,214,198673,1,8,3:2:0:0:
242,175,198765,1,8,0:0:0:0:
240,132,198856,1,8,0:0:0:0:
258,86,198948,1,8,3:2:0:0:
266,91,199039,1,2,3:2:0:0:
267,98,199131,1,0,3:0:0:0:
264,107,199222,1,8,0:0:0:0:
259,114,199314,1,8,0:0:0:0:
251,119,199405,5,4,3:2:0:0:
146,88,199588,1,0,3:0:0:0:
40,52,199771,2,0,P|50:143|68:283,1,210.000008010865,10|0,0:0|3:0,0:0:0:0:
106,326,200320,1,2,3:0:0:0:
304,355,200502,1,8,0:0:0:0:
381,333,200685,6,0,P|438:306|438:152,1,210.000008010865,6|2,3:2|3:0,0:0:0:0:
268,234,201234,1,8,0:0:0:0:
377,231,201417,1,2,3:0:0:0:
311,271,201600,1,0,3:0:0:0:
226,243,201783,1,2,3:0:0:0:
112,247,201966,1,8,0:0:0:0:
35,266,202149,1,2,3:0:0:0:
5,235,202332,6,0,P|2:169|34:10,1,210.000008010865,4|8,3:2|0:0,0:0:0:0:
98,7,202880,1,0,0:0:0:0:
217,183,203063,2,0,B|254:215|254:215|230:266,1,105.000004005432,0|2,3:0|3:0,0:0:0:0:
187,326,203429,1,8,0:0:0:0:
285,136,203612,6,0,B|185:116|193:208|77:179,1,210.000008010865,6|0,3:2|3:0,0:0:0:0:
263,242,204161,2,0,B|312:260|312:260|386:253,1,105.000004005432,8|0,0:0|3:0,0:0:0:0:
470,53,204527,1,8,0:0:0:0:
480,47,204618,1,8,0:0:0:0:
457,54,204710,1,8,0:0:0:0:
474,63,204801,1,0,3:0:0:0:
465,67,204893,1,8,3:0:0:0:
462,47,204984,1,8,3:0:0:0:
481,56,205076,1,6,3:0:0:0:
462,64,205167,1,4,3:0:0:0:
470,53,205259,6,0,P|483:115|476:279,2,210.000008010865,4|8|0,3:2|0:0|3:0,0:0:0:0:
245,187,206173,1,2,3:0:0:0:
401,222,206356,1,8,0:0:0:0:
328,164,206539,6,0,P|322:233|343:391,1,210.000008010865,4|0,3:2|3:0,0:0:0:0:
493,228,207088,2,0,B|448:200|448:200|385:228,1,105.000004005432,8|0,0:0|0:0,0:0:0:0:
198,348,207454,5,0,3:0:0:0:
182,272,207637,1,2,3:0:0:0:
81,359,207820,5,8,0:0:0:0:
40,203,208002,1,2,3:0:0:0:
72,44,208185,5,4,3:2:0:0:
134,94,208368,2,0,P|51:107|-1:117,1,105.000004005432,2|8,0:0|0:0,0:0:0:0:
191,14,208734,2,0,B|248:29|238:58|292:69,1,105.000004005432,2|0,0:0|3:0,0:0:0:0:
470,40,209100,1,2,3:0:0:0:
351,26,209283,1,8,0:0:0:0:
407,97,209466,6,0,P|400:184|396:245,2,105.000004005432,6|0|2,3:2|0:0|3:2,0:0:0:0:
224,262,210015,1,8,0:0:0:0:
379,370,210198,1,0,3:0:0:0:
407,350,210289,1,8,0:0:0:0:
415,307,210380,1,8,3:2:0:0:
384,269,210472,1,0,3:0:0:0:
336,269,210563,1,2,3:0:0:0:
309,306,210655,1,8,0:0:0:0:
281,353,210746,1,8,3:2:0:0:
228,367,210838,1,8,3:0:0:0:
174,351,210929,1,8,3:0:0:0:
135,316,211021,1,8,0:0:0:0:
122,268,211112,6,0,B|221:234|205:337|312:341,1,210.000008010865,6|10,3:2|0:0,0:0:0:0:
381,314,211661,1,2,0:0:0:0:
457,324,211844,1,0,3:0:0:0:
387,342,212027,1,2,3:0:0:0:
250,288,212210,1,8,0:0:0:0:
151,326,212393,6,0,P|93:320|30:159,1,210.000008010865,6|2,3:2|3:0,0:0:0:0:
153,41,212941,2,0,B|179:89|179:89|143:136,1,105.000004005432,8|2,0:0|3:0,0:0:0:0:
22,66,213307,1,0,3:0:0:0:
22,66,213490,1,2,3:0:0:0:
146,218,213673,1,8,0:0:0:0:
212,173,213856,1,2,3:0:0:0:
153,127,214039,6,0,P|163:235|175:357,2,210.000008010865,4|8|0,3:2|0:0|3:0,0:0:0:0:
81,93,214954,1,2,3:0:0:0:
256,60,215137,1,8,0:0:0:0:
427,116,215320,6,0,B|357:93|353:172|276:176,1,157.500006008148,6|0,3:2|0:0,0:0:0:0:
266,168,215685,1,2,3:0:0:0:
414,249,215868,1,8,0:0:0:0:
360,54,216051,1,2,3:0:0:0:
301,251,216234,1,8,0:0:0:0:
306,278,216326,1,8,0:0:0:0:
311,303,216417,1,2,3:0:0:0:
175,232,216600,1,8,0:0:0:0:
373,164,216783,1,10,0:0:0:0:
373,164,216874,1,8,0:0:0:0:
373,164,216966,6,0,P|250:154|153:146,1,210.000008010865,4|8,3:2|0:0,0:0:0:0:
31,28,217515,1,0,0:0:0:0:
108,1,217698,1,0,3:0:0:0:
138,75,217880,1,2,3:0:0:0:
101,240,218063,1,8,0:0:0:0:
129,316,218246,6,0,B|207:293|207:293|250:323|250:323|355:307,1,210.000008010865,6|2,3:2|3:0,0:0:0:0:
455,219,218795,2,0,P|459:141|429:97,1,105.000004005432,8|2,0:0|3:0,0:0:0:0:
283,84,219161,1,0,3:0:0:0:
241,158,219344,1,2,3:0:0:0:
368,99,219527,1,8,0:0:0:0:
248,14,219710,1,2,3:0:0:0:
166,194,219893,6,0,P|164:264|173:316,1,105.000004005432,4|0,3:2|0:0,0:0:0:0:
103,110,220259,2,0,P|36:101|-14:90,1,105.000004005432,8|0,0:0|0:0,0:0:0:0:
256,113,220624,1,0,3:0:0:0:
256,113,220807,1,2,3:0:0:0:
91,208,220990,1,8,0:0:0:0:
154,279,221173,6,0,P|81:299|46:369,1,157.500006008148,6|0,3:2|0:0,0:0:0:0:
57,375,221539,1,0,3:0:0:0:
91,208,221722,1,8,0:0:0:0:
32,42,221905,5,2,3:0:0:0:
104,10,222088,1,8,0:0:0:0:
270,69,222362,5,8,0:0:0:0:
273,58,222454,1,0,3:0:0:0:
433,21,222637,1,8,0:0:0:0:
462,11,222728,1,8,0:0:0:0:
469,42,222820,6,0,P|459:98|463:208,1,157.500006008148,6|0,3:2|0:0,0:0:0:0:
480,214,223185,2,0,B|501:265|501:265|469:304,1,105.000004005432,10|2,0:0|0:0,0:0:0:0:
360,368,223551,1,0,3:0:0:0:
251,253,223734,1,2,3:0:0:0:
378,187,223917,1,8,0:0:0:0:
341,256,224100,6,0,P|278:235|119:186,1,210.000008010865,6|2,3:2|3:0,0:0:0:0:
30,275,224649,2,0,P|17:334|54:380,1,105.000004005432,8|2,0:0|3:0,0:0:0:0:
102,327,225015,1,0,3:0:0:0:
45,266,225198,1,2,3:0:0:0:
35,119,225380,1,8,0:0:0:0:
150,65,225563,1,2,3:0:0:0:
95,0,225746,6,0,P|104:108|114:218,1,210.000008010865,4|8,3:2|0:0,0:0:0:0:
156,272,226295,1,0,0:0:0:0:
308,178,226478,1,0,3:0:0:0:
233,147,226661,1,2,3:0:0:0:
420,319,226844,1,8,0:0:0:0:
271,351,227027,6,0,B|235:252|235:252|312:173,1,210.000008010865,6|0,3:2|3:0,0:0:0:0:
441,55,227576,2,0,B|418:9|418:9|355:28,1,105.000004005432,8|0,0:0|3:0,0:0:0:0:
391,219,227941,1,8,3:2:0:0:
403,229,228033,1,8,0:0:0:0:
416,224,228124,1,10,0:0:0:0:
422,211,228216,1,0,3:0:0:0:
412,204,228307,1,8,3:0:0:0:
365,202,228399,1,8,3:0:0:0:
338,237,228490,1,14,3:0:0:0:
338,283,228582,1,12,3:0:0:0:
372,324,228673,6,0,P|441:322|485:185,2,210.000008010865,4|8|0,3:2|0:0|3:0,0:0:0:0:
230,234,229588,1,2,3:0:0:0:
77,298,229771,1,8,0:0:0:0:
17,246,229954,6,0,P|21:179|161:112,1,210.000008010865,6|0,3:2|3:0,0:0:0:0:
267,316,230502,2,0,B|215:333|215:333|161:291,1,105.000004005432,8|0,0:0|3:0,0:0:0:0:
356,208,230868,5,0,3:0:0:0:
375,301,231051,1,2,3:0:0:0:
231,224,231234,5,8,0:0:0:0:
266,57,231417,1,2,3:0:0:0:
455,125,231600,6,0,P|467:203|476:268,2,105.000004005432,4|2|8,3:2|0:0|0:0,0:0:0:0:
372,12,232149,1,2,0:0:0:0:
267,151,232332,1,0,3:0:0:0:
199,40,232515,1,2,3:0:0:0:
379,132,232698,1,8,0:0:0:0:
300,313,232880,6,0,B|227:330|227:330|186:285|186:285|97:288,1,210.000008010865,6|0,3:2|3:0,0:0:0:0:
24,168,233429,2,0,P|21:97|56:47,1,105.000004005432,8|0,0:0|3:0,0:0:0:0:
203,134,233795,1,8,3:2:0:0:
203,134,233887,1,8,0:0:0:0:
203,134,233978,1,8,0:0:0:0:
203,134,234070,1,0,3:0:0:0:
203,134,234161,1,8,3:2:0:0:
247,126,234252,1,8,0:0:0:0:
299,142,234344,1,8,0:0:0:0:
351,127,234435,1,8,0:0:0:0:
403,145,234527,6,0,P|480:138|525:134,1,105.000004005432,6|0,3:2|3:0,0:0:0:0:
319,47,234893,5,10,0:0:0:0:
246,209,235076,1,2,3:0:0:0:
295,286,235259,5,8,0:0:0:0:
272,358,235441,1,2,3:0:0:0:
165,212,235624,5,8,0:0:0:0:
189,324,235807,1,2,3:0:0:0:
398,192,235990,5,8,0:0:0:0:
385,266,236173,1,0,3:0:0:0:
310,70,236356,5,10,0:0:0:0:
138,32,236539,1,2,3:0:0:0:
50,146,236722,1,8,3:2:0:0:
94,285,236905,1,10,3:2:0:0:
248,323,237088,1,8,0:0:0:0:
346,214,237271,6,0,B|277:181|249:264|182:262,1,157.500006008148,4|0,3:2|0:0,0:0:0:0:
183,251,237637,1,0,3:0:0:0:
83,212,237820,1,8,0:0:0:0:
17,253,238002,1,0,3:0:0:0:
165,173,238185,2,0,P|177:113|176:61,1,105.000004005432,0|2,3:0|0:0,0:0:0:0:
324,24,238551,5,8,0:0:0:0:
224,2,238734,1,2,3:0:0:0:
372,121,238917,5,10,0:0:0:0:
176,175,239100,1,0,3:0:0:0:
330,277,239283,5,8,0:0:0:0:
244,262,239466,1,0,3:0:0:0:
281,351,239649,5,8,0:0:0:0:
281,351,239740,1,8,0:0:0:0:
295,310,239832,1,0,3:0:0:0:
275,270,239923,1,8,0:0:0:0:
284,257,240015,1,8,3:2:0:0:
276,243,240106,1,8,0:0:0:0:
287,196,240198,6,0,B|213:142|172:268|103:275,1,210.000008010865,6|0,3:2|3:0,0:0:0:0:
9,79,240746,2,0,B|56:60|56:60|111:100,1,105.000004005432,8|0,3:2|3:0,0:0:0:0:
54,363,241112,2,0,P|16:303|49:198,1,157.500006008148,0|0,3:2|0:0,0:0:0:0:
21,206,241478,2,0,P|78:219|131:233,1,105.000004005432,8|0,3:2|3:0,0:0:0:0:
307,340,241844,5,0,3:0:0:0:
237,371,242027,1,0,0:0:0:0:
275,187,242210,1,8,3:2:0:0:
367,248,242393,1,0,0:0:0:0:
154,325,242576,5,8,3:2:0:0:
124,218,242759,1,8,3:2:0:0:
98,109,242941,1,8,0:0:0:0:
73,0,243124,6,0,P|185:19|316:39,1,210.000008010865,4|0,3:2|3:0,0:0:0:0:
402,370,243673,6,0,P|345:360|280:350,2,105.000004005432,8|0|8,3:2|3:0|3:2,0:0:0:0:
73,0,244405,6,0,P|124:8|176:16,2,105.000004005432,8|0|8,3:2|3:0|3:2,0:0:0:0:
402,370,245137,6,0,P|345:360|280:350,1,105.000004005432,8|0,3:2|3:0,0:0:0:0:
187,316,245502,1,8,3:2:0:0:
173,330,245594,1,8,0:0:0:0:
193,346,245685,1,0,3:0:0:0:
276,264,245868,1,8,3:2:0:0:
175,165,246051,6,0,P|114:183|84:317,1,210.000008010865,4|0,3:2|3:0,0:0:0:0:
259,368,246600,1,8,3:2:0:0:
265,185,246783,1,0,3:0:0:0:
275,5,246966,1,8,3:2:0:0:
275,5,247332,5,8,3:2:0:0:
265,185,247515,1,0,3:0:0:0:
259,368,247698,5,8,0:0:0:0:
236,293,247880,1,0,3:0:0:0:
350,200,248063,1,12,0:0:0:0:
230,83,248246,5,0,3:0:0:0:
191,105,248338,1,8,0:0:0:0:
144,95,248429,1,8,3:2:0:0:
107,122,248521,1,8,0:0:0:0:
81,165,248612,1,0,3:0:0:0:
81,165,248704,1,8,0:0:0:0:
103,210,248795,1,8,3:2:0:0:
99,266,248887,1,0,3:2:0:0:
61,303,248978,6,0,B|161:280|260:259,1,203,6|0,3:2|0:0,0:0:0:0:
256,192,254649,12,2,261417,0:0:0:0:
