osu file format v14

[General]
AudioFilename: audio.MP3
AudioLeadIn: 0
PreviewTime: 670
Countdown: 1
SampleSet: Soft
StackLeniency: 0.7
Mode: 0
LetterboxInBreaks: 0
WidescreenStoryboard: 1

[Editor]
Bookmarks: 15304,50426,73840
DistanceSpacing: 2.5
BeatDivisor: 4
GridSize: 8
TimelineZoom: 1.7

[Metadata]
Title:PAPERMOON (TV Size)
TitleUnicode:PAPERMOON (TV Size)
Artist:Tommy heavenly6
ArtistUnicode:Tommy heavenly6
Creator:CCleanerShot
Version:k im sleep
Source:ソウルイーター
Tags:Soul Eater J-Rock RVMathew -Jordan- anime Tommy february6 The brilliant green
BeatmapID:2230893
BeatmapSetID:1065373

[Difficulty]
HPDrainRate:5.2
CircleSize:4.3
OverallDifficulty:8
ApproachRate:9
SliderMultiplier:1.9
SliderTickRate:1

[Events]
//Background and Video events
0,0,"Imgg2.jpg",0,0
//Break Periods
//Storyboard Layer 0 (Background)
//Storyboard Layer 1 (Fail)
//Storyboard Layer 2 (Pass)
//Storyboard Layer 3 (Foreground)
//Storyboard Layer 4 (Overlay)
//Storyboard Sound Samples

[TimingPoints]
670,365.853658536585,4,2,1,70,1,0
670,-100,4,2,1,70,0,0
15121,-133.333333333333,4,2,1,50,0,0
15166,-133.333333333333,4,2,1,50,0,0
37987,-133.333333333333,4,2,1,40,0,0
38169,-133.333333333333,4,2,1,45,0,0
38352,-133.333333333333,4,2,1,50,0,0
38535,-133.333333333333,4,2,1,55,0,0
38718,-117.647058823529,4,2,1,60,0,0
49694,-117.647058823529,4,2,1,50,0,0
49877,-117.647058823529,4,2,1,55,0,0
50060,-117.647058823529,4,2,1,60,0,0
50243,-117.647058823529,4,2,1,65,0,0
50426,-100,4,2,1,70,0,1
73840,-133.333333333333,4,2,1,70,0,0
79511,-133.333333333333,4,2,1,60,0,0
79557,-100,4,2,1,60,0,0
88291,-333.333333333333,4,2,1,60,0,0
89022,-100,4,2,1,50,0,0
89387,-100,4,2,1,15,0,0

[Colours]
Combo1 : 126,126,126
Combo2 : 128,128,0
Combo3 : 128,0,0

[HitObjects]
193,167,670,5,0,0:0:0:0:
158,99,852,1,0,0:0:0:0:
301,222,1035,1,0,0:0:0:0:
339,286,1217,1,0,0:0:0:0:
116,177,1401,5,0,0:0:0:0:
81,109,1583,1,0,0:0:0:0:
224,232,1766,1,0,0:0:0:0:
262,296,1948,1,0,0:0:0:0:
207,57,2133,6,0,P|160:50|113:59,1,95
284,57,2499,2,0,P|330:50|377:59,1,95
86,321,2865,5,0,0:0:0:0:
163,299,2956,1,0,0:0:0:0:
197,329,3048,1,0,0:0:0:0:
254,326,3139,1,0,0:0:0:0:
322,270,3230,1,0,0:0:0:0:
357,267,3322,1,0,0:0:0:0:
360,275,3413,2,0,P|414:275|468:249,1,95
136,236,3779,5,0,0:0:0:0:
206,135,3962,1,0,0:0:0:0:
336,180,4145,1,0,0:0:0:0:
295,289,4328,2,0,P|244:251|208:120,1,190
444,104,4877,5,0,0:0:0:0:
436,190,5060,2,0,P|440:258|474:311,1,95
204,171,5426,2,0,P|211:110|183:61,1,95
180,362,5791,5,0,0:0:0:0:
161,266,5974,1,0,0:0:0:0:
175,155,6157,1,0,0:0:0:0:
133,33,6340,2,0,B|113:91|134:122|134:122|160:164|140:217,1,190
267,184,6889,6,0,P|329:172|373:190,1,95
241,213,7255,1,0,0:0:0:0:
267,184,7621,6,0,P|329:172|373:190,1,95
241,213,7987,1,0,0:0:0:0:
243,275,8169,2,0,L|221:164,2,95
335,123,8718,5,0,0:0:0:0:
395,108,8810,1,0,0:0:0:0:
407,90,8901,1,0,0:0:0:0:
383,185,9084,1,0,0:0:0:0:
280,47,9267,2,0,B|263:127|275:146|275:146|297:160|276:240,1,190
161,184,9816,6,0,P|100:171|45:201,1,95
257,278,10182,2,0,L|462:280,1,190
368,170,10730,5,0,0:0:0:0:
342,162,10913,1,0,0:0:0:0:
350,203,11096,1,0,0:0:0:0:
243,29,11279,1,0,0:0:0:0:
316,36,11462,1,0,0:0:0:0:
117,125,11645,5,0,0:0:0:0:
212,197,11828,1,0,0:0:0:0:
272,295,12011,1,0,0:0:0:0:
381,347,12194,2,0,B|389:294|389:294|384:260|447:239,2,95
265,191,12743,6,0,P|197:180|155:201,1,95
386,139,13109,1,0,0:0:0:0:
386,139,13291,1,0,0:0:0:0:
213,76,13474,6,0,P|145:65|103:86,1,95
47,158,13840,5,0,0:0:0:0:
107,84,14023,1,0,0:0:0:0:
164,159,14206,1,0,0:0:0:0:
445,362,14389,5,0,0:0:0:0:
433,340,14480,1,0,0:0:0:0:
412,362,14572,1,0,0:0:0:0:
461,332,14663,1,0,0:0:0:0:
451,276,14755,1,0,0:0:0:0:
432,203,14846,1,0,0:0:0:0:
479,116,14938,1,0,0:0:0:0:
479,116,15121,2,0,B|443:101|407:122|407:122|372:144|330:123,1,142.500005435944
434,86,15669,5,0,0:0:0:0:
434,86,15852,2,0,L|444:191,2,71.2500027179719
327,205,16401,2,0,L|317:310,2,71.2500027179719
148,94,16950,5,0,0:0:0:0:
114,169,17133,2,0,P|128:215|122:255,1,71.2500027179719
399,349,17499,5,0,0:0:0:0:
411,347,17682,1,0,0:0:0:0:
332,220,17865,2,0,L|328:304,1,71.2500027179719
131,152,18230,2,0,P|73:187|-4:142,1,142.500005435944
307,187,18779,5,0,0:0:0:0:
454,363,18962,2,0,P|494:385|472:327,1,142.500005435944
237,264,19511,5,0,0:0:0:0:
154,258,19694,1,0,0:0:0:0:
260,265,19877,2,0,L|163:261,1,71.2500027179719
310,164,20243,5,0,0:0:0:0:
234,180,20426,2,0,L|319:167,1,71.2500027179719
136,73,20791,5,0,0:0:0:0:
106,160,20974,1,0,0:0:0:0:
128,42,21157,2,0,B|153:79|160:109|160:109|183:121|207:160,1,142.500005435944
292,122,22072,2,0,P|307:162|295:192,1,71.2500027179719
290,357,22438,5,0,0:0:0:0:
290,357,22621,1,0,0:0:0:0:
199,137,22804,5,0,0:0:0:0:
140,146,22895,1,0,0:0:0:0:
211,134,22987,2,0,P|226:174|214:204,1,71.2500027179719
282,50,23352,5,0,0:0:0:0:
380,57,23535,1,0,0:0:0:0:
405,286,23718,1,0,0:0:0:0:
322,210,23901,1,0,0:0:0:0:
190,229,24084,2,0,B|226:207|263:221|263:221|302:239|351:220,1,142.500005435944
277,127,24633,5,0,0:0:0:0:
277,127,24816,2,0,L|175:110,1,71.2500027179719
404,46,25182,2,0,L|335:72,2,71.2500027179719
459,181,25730,5,0,0:0:0:0:
214,214,25913,1,0,0:0:0:0:
95,233,26096,5,0,0:0:0:0:
56,180,26188,1,0,0:0:0:0:
54,202,26279,1,0,0:0:0:0:
311,230,26462,2,0,P|368:235|401:219,1,71.2500027179719
144,184,26828,5,0,0:0:0:0:
201,154,27011,2,0,P|144:149|111:165,1,71.2500027179719
337,74,27377,5,0,0:0:0:0:
379,141,27560,2,0,L|376:232,1,71.2500027179719
274,372,27926,5,0,0:0:0:0:
274,285,28109,2,0,L|313:253,3,35.625001358986
238,230,28474,5,0,0:0:0:0:
227,225,28566,1,0,0:0:0:0:
219,222,28657,1,0,0:0:0:0:
209,218,28749,1,0,0:0:0:0:
199,205,28840,2,0,L|103:205,1,71.2500027179719
254,66,29206,5,0,0:0:0:0:
227,208,29389,2,0,B|185:214|185:214|156:214,1,71.2500027179719
301,160,29755,5,0,0:0:0:0:
413,235,29938,2,0,B|398:192|415:160|415:160|412:90,1,142.500005435944
302,51,30487,1,0,0:0:0:0:
302,51,30669,2,0,L|272:202,1,142.500005435944
351,278,31401,6,0,P|357:287|346:359,1,71.2500027179719
161,106,31767,6,0,P|155:97|166:25,1,71.2500027179719
305,105,32133,5,0,0:0:0:0:
322,93,32316,1,0,0:0:0:0:
311,197,32499,1,0,0:0:0:0:
300,213,32682,1,0,0:0:0:0:
117,123,32865,2,0,L|132:209,1,71.2500027179719
151,304,33230,5,0,0:0:0:0:
167,309,33413,1,0,0:0:0:0:
271,204,33596,5,0,0:0:0:0:
226,200,33688,1,0,0:0:0:0:
281,179,33779,2,0,L|295:94,2,71.2500027179719
379,198,34328,6,0,B|405:237|399:257|399:257|427:292|481:293,2,142.500005435944
211,121,35243,5,0,0:0:0:0:
211,121,35426,2,0,L|210:210,1,71.2500027179719
118,242,35791,6,0,L|140:356,1,106.875004076958
151,357,36157,1,0,0:0:0:0:
151,357,36340,2,0,L|52:346,1,71.2500027179719
30,347,36706,2,0,L|129:336,1,71.2500027179719
238,344,37072,6,0,B|202:324|166:328|166:328|141:343|97:340|86:322,1,142.500005435944
216,178,37621,5,0,0:0:0:0:
264,98,37804,1,0,0:0:0:0:
399,152,37987,5,0,0:0:0:0:
418,146,38078,1,0,0:0:0:0:
403,135,38169,1,0,0:0:0:0:
388,150,38261,1,0,0:0:0:0:
302,267,38352,5,0,0:0:0:0:
312,247,38444,1,0,0:0:0:0:
332,265,38535,1,0,0:0:0:0:
322,300,38627,1,0,0:0:0:0:
280,295,38718,2,0,L|270:190,1,80.750001540184
211,29,39084,2,0,L|221:134,1,80.750001540184
405,216,39450,5,0,0:0:0:0:
311,238,39633,1,0,0:0:0:0:
203,235,39816,1,0,0:0:0:0:
430,230,39999,2,0,P|356:219|270:243,1,161.500003080368
508,263,40548,5,0,0:0:0:0:
508,263,40730,2,0,L|509:352,2,80.750001540184
361,235,41279,5,0,0:0:0:0:
285,157,41462,1,0,0:0:0:0:
238,239,41645,2,0,L|247:328,1,80.750001540184
97,132,42011,2,0,L|88:43,1,80.750001540184
241,339,42377,5,0,0:0:0:0:
200,230,42560,2,0,L|213:141,1,80.750001540184
255,338,42926,5,0,0:0:0:0:
391,124,43291,1,0,0:0:0:0:
328,33,43474,2,0,L|349:119,1,80.750001540184
186,84,43840,5,0,0:0:0:0:
198,176,43932,1,0,0:0:0:0:
220,197,44023,1,0,0:0:0:0:
107,226,44206,1,0,0:0:0:0:
210,113,44389,1,0,0:0:0:0:
396,237,44572,1,0,0:0:0:0:
346,302,44755,5,0,0:0:0:0:
362,304,44938,2,0,L|255:301,1,80.750001540184
54,303,45304,5,0,0:0:0:0:
139,264,45487,1,0,0:0:0:0:
221,305,45669,1,0,0:0:0:0:
409,269,45852,2,0,P|364:259|432:200,1,161.500003080368
302,187,46401,2,0,L|197:186,1,80.750001540184
214,88,46767,5,0,0:0:0:0:
194,192,46950,1,0,0:0:0:0:
365,208,47133,1,0,0:0:0:0:
411,267,47316,1,0,0:0:0:0:
411,267,47499,2,0,L|399:355,1,80.750001540184
101,117,47865,2,0,L|113:29,1,80.750001540184
314,135,48230,5,0,0:0:0:0:
384,119,48413,1,0,0:0:0:0:
198,249,48596,5,0,0:0:0:0:
126,263,48779,1,0,0:0:0:0:
339,62,48962,5,0,0:0:0:0:
409,46,49145,1,0,0:0:0:0:
223,176,49328,5,0,0:0:0:0:
151,190,49511,1,0,0:0:0:0:
330,367,49694,5,0,0:0:0:0:
365,279,49785,1,0,0:0:0:0:
346,227,49877,1,0,0:0:0:0:
314,223,49968,1,0,0:0:0:0:
318,245,50060,5,0,0:0:0:0:
353,157,50151,1,0,0:0:0:0:
334,105,50243,1,0,0:0:0:0:
302,101,50334,1,0,0:0:0:0:
414,242,50426,2,0,L|425:352,1,95
146,154,50791,5,0,0:0:0:0:
58,236,50974,2,0,L|69:346,1,95
334,361,51340,5,0,0:0:0:0:
385,232,51523,1,0,0:0:0:0:
358,109,51706,2,0,L|459:107,1,95
253,75,52072,2,0,B|235:123|261:181|261:181|279:226|252:276,1,190
104,211,52621,6,0,L|103:306,1,95
408,211,52987,6,0,L|409:306,1,95
259,309,53352,2,0,B|277:261|251:203|251:203|233:158|260:108,1,190
318,356,53901,5,0,0:0:0:0:
318,356,54084,1,0,0:0:0:0:
48,19,54267,5,0,0:0:0:0:
49,109,54450,2,0,L|26:4,1,95
173,84,54816,5,0,0:0:0:0:
158,101,54907,1,0,0:0:0:0:
271,92,54999,2,0,L|273:186,1,95
370,66,55365,5,0,0:0:0:0:
383,208,55548,5,0,0:0:0:0:
373,192,55639,1,0,0:0:0:0:
358,283,55730,1,0,0:0:0:0:
429,139,55913,1,0,0:0:0:0:
408,244,56096,1,0,0:0:0:0:
395,147,56279,2,0,B|369:210|376:239|376:239|381:285|342:325,1,190
232,252,56828,2,0,L|263:344,2,95
304,104,57377,5,0,0:0:0:0:
229,50,57560,2,0,L|126:52,1,95
173,143,57926,2,0,L|70:145,1,95
107,224,58291,2,0,L|4:226,1,95
381,226,58657,5,0,0:0:0:0:
388,167,58749,1,0,0:0:0:0:
407,233,58840,2,0,B|421:272|408:284|408:284|413:337|452:352,1,95
270,125,59206,2,0,L|278:7,1,95
60,288,59572,6,0,B|150:261|210:290|210:290|280:321|377:285,1,285
273,280,60304,6,8,L|215:280,1,47.5
341,227,60487,1,8,0:0:0:0:
247,184,60669,6,8,L|189:184,1,47.5
315,131,60852,1,8,0:0:0:0:
204,97,61035,6,8,L|146:97,1,47.5
272,44,61218,1,8,0:0:0:0:
153,17,61401,5,0,0:0:0:0:
153,26,61493,1,0,0:0:0:0:
142,27,61584,1,0,0:0:0:0:
132,23,61676,1,0,0:0:0:0:
110,37,61767,5,0,0:0:0:0:
114,104,61859,1,0,0:0:0:0:
131,158,61950,1,0,0:0:0:0:
124,184,62041,1,0,0:0:0:0:
103,275,62133,2,0,L|94:146,1,95
344,142,62499,5,0,0:0:0:0:
371,215,62682,2,0,L|363:315,1,95
149,257,63048,5,0,0:0:0:0:
254,267,63230,1,0,0:0:0:0:
381,244,63413,2,0,L|392:344,1,95
253,309,63779,2,0,B|235:261|261:203|261:203|279:158|259:124,1,190
104,173,64328,6,0,L|103:78,1,95
408,173,64694,6,0,L|409:78,1,95
259,75,65059,2,0,B|277:123|251:181|251:181|233:226|252:259,1,190
155,338,65609,5,0,0:0:0:0:
155,338,65791,1,0,0:0:0:0:
425,230,65974,5,0,0:0:0:0:
350,195,66157,2,0,L|465:211,1,95
235,161,66523,5,0,0:0:0:0:
251,195,66615,1,0,0:0:0:0:
192,188,66706,2,0,P|174:253|140:285,1,95
448,39,67255,5,0,0:0:0:0:
475,83,67346,1,0,0:0:0:0:
462,130,67438,1,0,0:0:0:0:
476,150,67529,1,0,0:0:0:0:
508,188,67621,5,0,0:0:0:0:
435,208,67712,1,0,0:0:0:0:
380,177,67804,1,0,0:0:0:0:
249,163,67895,1,0,0:0:0:0:
311,224,67987,2,0,B|360:213|406:228|406:228|437:240|437:240|446:239|446:239|439:237|439:237|445:241|445:241|445:243|445:243|474:254|498:242,1,190
383,323,68535,5,0,0:0:0:0:
383,323,68718,2,0,P|320:343|272:313,1,95
138,295,69084,5,0,0:0:0:0:
343,211,69267,2,0,P|409:202|444:222,2,95
267,126,69816,2,0,P|216:116|248:204,1,190
327,277,70365,6,0,L|327:375,1,95
406,224,70730,2,0,L|406:322,1,95
485,161,71096,2,0,L|485:259,1,95
257,247,71462,5,0,0:0:0:0:
242,264,71645,1,0,0:0:0:0:
298,174,71828,2,0,L|297:77,1,95
274,276,72194,2,0,B|233:243|169:273|169:276|169:276|91:276,1,190
241,167,72743,6,0,L|313:168,1,47.5
163,118,72926,1,0,0:0:0:0:
297,85,73109,5,0,0:0:0:0:
329,76,73200,1,0,0:0:0:0:
236,56,73291,1,0,0:0:0:0:
132,122,73474,1,0,0:0:0:0:
138,273,73657,1,0,0:0:0:0:
206,293,73840,5,0,0:0:0:0:
308,172,74206,5,0,0:0:0:0:
350,115,74388,1,0,0:0:0:0:
136,246,74571,1,0,0:0:0:0:
96,304,74753,1,0,0:0:0:0:
388,189,74938,5,0,0:0:0:0:
430,132,75120,1,0,0:0:0:0:
216,263,75303,1,0,0:0:0:0:
176,321,75485,1,0,0:0:0:0:
275,194,75669,5,0,0:0:0:0:
317,125,75851,1,0,0:0:0:0:
265,38,76035,1,0,0:0:0:0:
136,35,76218,1,0,0:0:0:0:
32,152,76401,1,0,0:0:0:0:
100,316,76584,1,0,0:0:0:0:
247,250,76950,5,0,0:0:0:0:
280,139,77133,2,0,L|276:225,1,71.2500027179719
173,328,77499,5,0,0:0:0:0:
304,345,77682,1,0,0:0:0:0:
133,171,77865,5,0,0:0:0:0:
150,198,77956,1,0,0:0:0:0:
150,131,78048,2,0,L|229:129,1,71.2500027179719
393,295,78413,5,0,0:0:0:0:
405,295,78596,2,0,L|483:295,1,71.2500027179719
292,185,78962,5,0,0:0:0:0:
277,194,79054,1,0,0:0:0:0:
264,197,79145,1,0,0:0:0:0:
251,188,79237,1,0,0:0:0:0:
203,177,79328,5,0,0:0:0:0:
129,276,79419,1,0,0:0:0:0:
6,249,79511,1,0,0:0:0:0:
