osu file format v14

[General]
AudioFilename: Merry Christmas! RZ.mp3
AudioLeadIn: 0
PreviewTime: 50178
Countdown: 0
SampleSet: Soft
StackLeniency: 0.7
Mode: 0
LetterboxInBreaks: 0
WidescreenStoryboard: 0

[Editor]
DistanceSpacing: 1.2
BeatDivisor: 4
GridSize: 16
TimelineZoom: 1

[Metadata]
Title:I LOVE XMAS
TitleUnicode:I LOVE XMAS
Artist:Tommy heavenly6
ArtistUnicode:Tommy heavenly6
Creator:Rizen
Version:Easy
Source:
Tags:merry christmas 2015 cut version
BeatmapID:859853
BeatmapSetID:392040

[Difficulty]
HPDrainRate:3
CircleSize:3
OverallDifficulty:2
ApproachRate:3
SliderMultiplier:0.6
SliderTickRate:1

[Events]
//Background and Video events
0,0,"I LOVE XMAS.jpeg",0,0
//Break Periods
//Storyboard Layer 0 (Background)
//Storyboard Layer 1 (Fail)
//Storyboard Layer 2 (Pass)
//Storyboard Layer 3 (Foreground)
//Storyboard Sound Samples

[TimingPoints]
1084,340.909090909091,4,1,1,70,1,0
11652,-100,4,1,1,40,0,0
11993,-100,4,1,1,50,0,0
33811,-100,4,1,1,70,0,0
50174,-100,4,1,1,70,0,1
71993,-100,4,1,1,70,0,0
81538,-100,4,2,0,50,0,0
81879,-100,4,2,0,40,0,0
82220,-100,4,2,0,30,0,0
82561,-100,4,2,0,20,0,0
82902,-100,4,2,0,50,0,0
83584,-100,4,2,0,40,0,0
84265,-100,4,2,0,30,0,0
84947,-100,4,2,0,20,0,0
85629,-100,4,2,0,5,0,0

[Colours]
Combo1 : 251,155,234
Combo2 : 38,118,24
Combo3 : 0,75,168
Combo4 : 227,0,5

[HitObjects]
80,128,1084,6,0,P|138:137|194:117,1,120,4|8,0:0|0:0,0:0:0:0:
235,73,2106,2,0,P|290:52|349:62,1,120,4|2,0:0|0:0,0:0:0:0:
399,95,3129,1,8,0:0:0:0:
303,168,3811,6,0,L|283:286,1,120,4|8,0:0|0:0,0:0:0:0:
237,324,4834,2,0,P|177:330|122:308,1,120,4|2,0:0|0:0,0:0:0:0:
90,257,5856,1,8,0:0:0:0:
194,198,6538,6,0,P|254:192|309:214,1,120,4|8,0:0|0:0,0:0:0:0:
363,190,7561,2,0,P|384:134|378:75,1,120,4|2,0:0|0:0,0:0:0:0:
339,29,8584,1,8,0:0:0:0:
256,117,9265,6,0,P|200:137|141:132,1,120,4|8,0:0|0:0,0:0:0:0:
95,170,10288,2,0,P|89:229|110:284,1,120,4|2,0:0|0:0,0:0:0:0:
162,313,11311,2,0,L|221:321,1,60,8|8,0:0|0:0,0:0:0:0:
277,343,11993,6,0,L|395:359,1,120,4|8,0:0|0:0,0:0:0:0:
485,279,13356,2,0,P|510:225|504:166,2,120,0|8|0,0:0|0:0|0:0,0:0:0:0:
391,203,15402,5,8,0:0:0:0:
276,238,16084,2,0,L|158:213,1,120,0|8,0:0|0:0,0:0:0:0:
68,134,17447,6,0,P|40:186|42:245,1,120,0|8,0:0|0:0,0:0:0:0:
132,325,18811,2,0,P|159:272|157:213,1,120,0|8,0:0|0:0,0:0:0:0:
272,178,20174,5,0,0:0:0:0:
364,253,20856,1,8,0:0:0:0:
478,217,21538,2,0,L|500:99,2,120,0|8|0,0:0|0:0|0:0,0:0:0:0:
384,141,23584,5,8,0:0:0:0:
271,178,24265,2,0,P|212:183|159:157,1,120,0|8,0:0|0:0,0:0:0:0:
122,43,25629,6,0,P|181:37|234:63,1,120,0|8,0:0|0:0,0:0:0:0:
271,178,26993,2,0,L|240:294,2,120,0|8|0,0:0|0:0|0:0,0:0:0:0:
356,94,29038,5,8,0:0:0:0:
466,140,29720,2,0,P|431:188|377:213,1,120,0|8,0:0|0:0,0:0:0:0:
266,168,31084,6,0,P|212:193|178:242,1,120,0|8,0:0|0:0,0:0:0:0:
196,360,32447,2,0,P|136:354|88:320,1,120,0|8,0:0|0:0,0:0:0:0:
63,265,33470,1,8,0:0:0:0:
66,205,33811,6,0,B|71:156|93:127|135:118|135:118|158:173,2,180,4|4|12,0:0|0:0|0:0,0:0:0:0:
152,288,36538,6,0,P|210:279|252:237,1,120,4|8,0:0|0:0,0:0:0:0:
280,184,37561,2,0,P|285:96|352:40,1,180,4|12,0:0|0:0,0:0:0:0:
403,153,39265,6,0,B|437:267|437:267|489:299,2,180,4|4|12,0:0|0:0|0:0,0:0:0:0:
287,120,41993,6,0,L|320:235,1,120,6|8,0:0|0:0,0:0:0:0:
338,292,43015,1,4,0:0:0:0:
247,370,43697,1,6,0:0:0:0:
189,352,44038,2,0,L|73:318,1,120,8|4,0:0|0:0,0:0:0:0:
12,214,45402,5,8,0:0:0:0:
106,140,46084,2,0,P|132:194|129:253,2,120,0|8|4,0:0|0:0|0:0,0:0:0:0:
22,54,48129,5,8,0:0:0:0:
141,66,48811,2,0,P|200:69|253:43,1,120,0|8,0:0|0:0,0:0:0:0:
313,54,49834,1,2,0:0:0:0:
372,66,50174,6,0,L|395:183,1,120,6|8,0:0|0:0,0:0:0:0:
361,233,51197,1,4,0:0:0:0:
322,278,51538,2,0,P|268:303|208:301,1,120,0|8,0:0|0:0,0:0:0:0:
119,220,52902,6,0,L|75:178,1,60,6|0,0:0|0:0,0:0:0:0:
32,137,53584,2,0,L|19:78,2,60,8|4|0,0:0|0:0|0:0,0:0:0:0:
119,220,54947,1,8,0:0:0:0:
229,174,55629,6,0,P|286:189|342:173,1,120,6|8,0:0|0:0,0:0:0:0:
382,128,56652,1,6,0:0:0:0:
421,83,56993,2,0,L|479:70,2,60,0|0|8,0:0|0:0|0:0,0:0:0:0:
343,172,58356,6,0,L|324:229,1,60,6|2,0:0|0:0,0:0:0:0:
266,247,59038,2,0,P|210:231|153:246,2,120,8|0|8,0:0|0:0|0:0,0:0:0:0:
209,353,61084,6,0,P|151:368|95:351,1,120,6|8,0:0|0:0,0:0:0:0:
50,310,62107,1,6,0:0:0:0:
12,263,62448,2,0,L|44:147,1,120,0|8,0:0|0:0,0:0:0:0:
159,114,63811,6,0,L|225:93,1,60,6|0,0:0|0:0,0:0:0:0:
273,79,64493,2,0,L|330:63,2,60,8|6|0,0:0|0:0|0:0,0:0:0:0:
248,196,65857,1,8,0:0:0:0:
159,114,66538,6,0,P|99:112|47:139,1,120,6|8,0:0|0:0,0:0:0:0:
127,229,67902,1,10,0:0:0:0:
242,197,68584,1,8,0:0:0:0:
320,288,69265,6,0,P|375:307|431:289,1,120,12|8,0:0|0:0,0:0:0:0:
501,190,70629,2,0,L|465:75,1,120,2|8,0:0|0:0,0:0:0:0:
410,51,71652,1,8,0:0:0:0:
353,30,71993,6,0,P|294:21|238:41,1,120,4|8,0:0|0:0,0:0:0:0:
193,81,73015,2,0,P|137:101|78:92,1,120,4|2,0:0|0:0,0:0:0:0:
30,55,74038,1,12,0:0:0:0:
4,172,74720,6,0,P|49:210|71:265,1,120,4|8,0:0|0:0,0:0:0:0:
113,308,75743,2,0,P|171:316|227:296,1,120,4|2,0:0|0:0,0:0:0:0:
254,241,76765,1,12,0:0:0:0:
152,177,77447,6,0,P|131:121|140:62,1,120,4|8,0:0|0:0,0:0:0:0:
195,40,78470,2,0,L|313:56,1,120,4|2,0:0|0:0,0:0:0:0:
373,65,79493,1,12,0:0:0:0:
417,176,80174,6,0,L|299:160,1,120,4|8,0:0|0:0,0:0:0:0:
255,202,81197,2,0,P|198:280|168:188,1,240,4|0,0:0|0:0,0:0:0:0:
256,192,82902,12,0,85629,0:0:0:0:
