osu file format v14

[General]
AudioFilename: audio.mp3
AudioLeadIn: 0
PreviewTime: 86575
Countdown: 0
SampleSet: Soft
StackLeniency: 0.8
Mode: 0
LetterboxInBreaks: 0
WidescreenStoryboard: 1

[Editor]
Bookmarks: 760,5812,15917,20970,31075,41181,46233,51286,56338,61391,71496,76549,86654,96760,101812,106865,111917,122023,127075,132128,137181,142233,147286,152338,157391,162444,164970,167496,168286,171128,172549,173338,177602,182654,187707
DistanceSpacing: 0.4
BeatDivisor: 6
GridSize: 4
TimelineZoom: 1.6

[Metadata]
Title:Unlimited Sky
TitleUnicode:Unlimited Sky
Artist:Tommy heavenly6
ArtistUnicode:Tommy heavenly6
Creator:Mao
Version:Expert
Source:機動戦士ガンダム00
Tags:Mobile Suit Gundam 00 science fiction mecha alternative rock japanese anime 機動戦士ガンダム00 川瀬智子 Kawase Tomoko 奥田 Okuda February6 Lasse Kirylln Gothic Melting Ice cream's Darkness Nightmare full version
BeatmapID:2150050
BeatmapSetID:1028258

[Difficulty]
HPDrainRate:7
CircleSize:4
OverallDifficulty:8
ApproachRate:9
SliderMultiplier:1
SliderTickRate:1

[Events]
//Background and Video events
0,0,"67919451_p0.jpg",0,0
//Break Periods
//Storyboard Layer 0 (Background)
//Storyboard Layer 1 (Fail)
//Storyboard Layer 2 (Pass)
//Storyboard Layer 3 (Foreground)
//Storyboard Layer 4 (Overlay)
//Storyboard Sound Samples

[TimingPoints]
760,315.789473684211,4,2,1,40,1,0
760,-83.3333333333333,4,2,1,40,0,0
5812,-83.3333333333333,4,2,1,50,0,0
13391,-71.4285714285714,4,2,1,55,0,0
20970,-62.5,4,2,1,60,0,0
31075,-41.6666666666667,4,2,1,90,0,1
32181,-100,4,2,1,90,0,1
32654,-41.6666666666667,4,2,1,90,0,1
33917,-50,4,2,1,90,0,1
34707,-100,4,2,1,90,0,1
35023,-50,4,2,1,90,0,1
36128,-41.6666666666667,4,2,1,90,0,1
37233,-100,4,2,1,90,0,1
37707,-41.6666666666667,4,2,1,90,0,1
38970,-50,4,2,1,90,0,1
39760,-100,4,2,1,90,0,1
40075,-50,4,2,1,90,0,1
41181,-41.6666666666667,4,2,1,90,0,1
42286,-100,4,2,1,90,0,1
42760,-41.6666666666667,4,2,1,90,0,1
44023,-50,4,2,1,90,0,1
44812,-100,4,2,1,90,0,1
45128,-50,4,2,1,90,0,1
56338,-58.8235294117647,4,2,1,80,0,0
59970,-50,4,2,1,80,0,0
60286,-58.8235294117647,4,2,1,80,0,0
61391,-71.4285714285714,4,2,1,60,0,0
71496,-66.6666666666667,4,2,1,65,0,0
76549,-58.8235294117647,4,2,1,70,0,0
86654,-41.6666666666667,4,2,1,90,0,1
87760,-100,4,2,1,90,0,1
88233,-41.6666666666667,4,2,1,90,0,1
89496,-50,4,2,1,90,0,1
90286,-100,4,2,1,90,0,1
90602,-50,4,2,1,90,0,1
91707,-41.6666666666667,4,2,1,90,0,1
92812,-100,4,2,1,90,0,1
93286,-41.6666666666667,4,2,1,90,0,1
94549,-50,4,2,1,90,0,1
95338,-100,4,2,1,90,0,1
95654,-50,4,2,1,90,0,1
96760,-41.6666666666667,4,2,1,90,0,1
97865,-100,4,2,1,90,0,1
98338,-41.6666666666667,4,2,1,90,0,1
99602,-50,4,2,1,90,0,1
100391,-100,4,2,1,90,0,1
100707,-50,4,2,1,90,0,1
111286,-66.6666666666667,4,2,1,90,0,1
111917,-58.8235294117647,4,2,1,80,0,0
132128,-58.8235294117647,4,2,1,30,0,0
132760,-100,4,2,1,30,0,0
137181,-100,4,2,1,40,0,0
141444,-100,4,2,1,80,0,0
142233,-41.6666666666667,4,2,1,85,0,0
143338,-45.4545454545455,4,2,1,85,0,0
144760,-41.6666666666667,4,2,1,85,0,0
146023,-45.4545454545455,4,2,1,85,0,0
157391,-50,4,2,1,85,0,0
162444,-35.7142857142857,4,2,1,100,0,1
163549,-100,4,2,1,100,0,1
164023,-35.7142857142857,4,2,1,100,0,1
164970,-41.6666666666667,4,2,1,100,0,1
165286,-50,4,2,1,100,0,1
166075,-100,4,2,1,100,0,1
166391,-50,4,2,1,100,0,1
167496,-35.7142857142857,4,2,1,100,0,1
168602,-100,4,2,1,100,0,1
169075,-41.6666666666667,4,2,1,100,0,1
170338,-50,4,2,1,100,0,1
172549,-35.7142857142857,4,2,1,100,0,1
173654,-100,4,2,1,100,0,1
174128,-41.6666666666667,4,2,1,100,0,1
175075,-35.7142857142857,4,2,1,100,0,1
175391,-45.4545454545455,4,2,1,100,0,1
176181,-50,4,2,1,100,0,1
187628,-50,4,2,1,100,0,0
187707,-50,4,2,1,100,0,1
187786,-50,4,2,1,100,0,0
188023,-50,4,2,1,100,0,1
188102,-50,4,2,1,100,0,0
188338,-50,4,2,1,100,0,1
188417,-50,4,2,1,100,0,0
188654,-50,4,2,1,100,0,1
188733,-50,4,2,1,100,0,0

[Colours]
Combo1 : 243,168,67
Combo2 : 136,255,130
Combo3 : 37,221,254
Combo4 : 255,47,88

[HitObjects]
56,328,760,5,6,0:0:0:0:
56,328,1075,1,2,0:0:0:0:
56,328,1391,1,2,0:3:0:0:
187,276,1707,1,2,0:0:0:0:
187,276,1865,1,8,0:3:0:0:
302,353,2181,1,2,0:0:0:0:
302,353,2338,1,8,0:3:0:0:
428,299,2654,1,2,0:3:0:0:
493,342,2812,2,0,P|485:296|468:212,1,119.999996337891,2|0,0:0|0:0,0:0:0:0:
459,143,3286,5,4,0:0:0:0:
459,143,3601,1,2,0:0:0:0:
459,143,3917,1,2,0:3:0:0:
369,40,4233,1,2,0:0:0:0:
369,40,4391,1,4,0:0:0:0:
284,144,4707,1,2,0:0:0:0:
284,144,4864,1,8,0:3:0:0:
191,43,5180,1,2,0:3:0:0:
198,120,5338,2,0,P|152:112|71:91,1,119.999996337891,8|0,0:3|0:0,0:0:0:0:
16,48,5812,5,4,0:0:0:0:
16,48,6128,1,2,0:0:0:0:
215,224,6444,2,0,P|261:221|313:218,1,89.9999972534181,2|0,0:3|0:0,0:0:0:0:
132,192,6917,1,8,0:3:0:0:
132,192,7075,2,0,P|76:195|10:202,1,119.999996337891,2|8,0:0|0:3,0:0:0:0:
234,331,7707,6,0,P|191:334|117:340,1,89.9999972534181,2|0,0:3|0:0,0:0:0:0:
317,363,8181,1,2,0:0:0:0:
317,363,8338,2,0,P|383:359|439:353,1,119.999996337891,4|2,0:0|0:0,0:0:0:0:
436,354,8970,1,2,0:3:0:0:
436,354,9286,1,2,0:0:0:0:
427,197,9444,5,4,0:0:0:0:
427,197,9760,2,0,P|420:233|417:258,1,59.9999981689454,2|8,0:0|0:3,0:0:0:0:
482,123,10075,2,0,P|492:89|501:52,2,59.9999981689454,2|2|8,0:0|0:3|0:3,0:0:0:0:
390,114,10549,1,2,0:0:0:0:
390,114,10865,6,0,P|357:86|336:11,1,119.999996337891,4|2,0:0|0:0,0:0:0:0:
144,143,11496,2,0,P|150:190|153:245,1,89.9999972534181,2|0,0:3|0:0,0:0:0:0:
30,363,11970,1,8,0:3:0:0:
30,363,12128,2,0,P|38:300|51:241,1,119.999996337891,2|8,0:0|0:3,0:0:0:0:
282,372,12760,1,2,0:3:0:0:
264,293,12917,1,8,0:3:0:0:
264,293,13233,2,0,L|268:240,1,29.9999990844727,2|0,0:0|0:0,0:0:0:0:
269,245,13391,6,0,P|325:254|404:264,1,104.999996795654,4|0,0:0|0:0,0:0:0:0:
211,169,13865,1,2,0:0:0:0:
211,169,14023,2,0,P|144:180|65:194,1,139.999995727539,2|0,0:3|0:0,0:0:0:0:
14,16,14496,2,0,P|64:67|156:82,1,139.999995727539,4|0,0:0|0:0,0:0:0:0:
262,11,14970,1,8,0:3:0:0:
308,93,15128,1,2,0:0:0:0:
382,33,15286,2,0,P|412:35|466:40,2,69.9999978637696,2|8|0,0:3|0:3|0:0,0:0:0:0:
499,105,15760,2,0,L|465:142,1,34.9999989318848,2|0,0:0|0:0,0:0:0:0:
462,144,15917,6,0,P|478:215|500:287,1,139.999995727539,4|2,0:0|0:0,0:0:0:0:
292,373,16549,2,0,P|300:313|308:263,1,104.999996795654,2|0,0:3|0:0,0:0:0:0:
285,43,17022,1,8,0:3:0:0:
285,43,17180,2,0,P|289:108|294:184,1,139.999995727539,2|8,0:0|0:3,0:0:0:0:
113,246,17812,6,0,P|170:243|229:237,1,104.999996795654,2|0,0:3|0:0,0:0:0:0:
433,173,18286,1,2,0:0:0:0:
433,173,18444,2,0,P|362:179|285:184,1,139.999995727539,4|2,0:0|0:0,0:0:0:0:
293,184,19075,1,2,0:3:0:0:
293,184,19391,1,2,0:0:0:0:
178,23,19549,5,4,0:0:0:0:
178,23,19865,2,0,P|214:32|262:42,1,69.9999978637696,2|8,0:0|0:3,0:0:0:0:
100,80,20233,2,0,L|59:66,1,23.3333326212565,0|0,3:0|3:0,3:0:0:0:
71,63,20338,5,8,0:0:0:0:
3,172,20496,1,8,0:0:0:0:
40,302,20654,1,14,3:0:0:0:
40,302,20970,5,4,1:0:0:0:
40,302,21286,2,0,P|78:293|127:281,1,80,2|0,0:0|0:0,0:0:0:0:
308,335,21602,1,8,0:0:0:0:
308,335,21917,1,2,0:0:0:0:
371,381,22075,6,0,P|403:328|388:227,1,160,8|0,0:3|0:0,0:0:0:0:
392,233,22549,2,0,P|442:245|493:260,1,80,8|0,0:3|0:0,0:0:0:0:
345,134,22865,2,0,P|295:122|244:107,1,80,8|0,0:0|0:0,0:0:0:0:
405,10,23181,1,8,0:3:0:0:
425,88,23338,1,10,0:3:0:0:
230,197,23496,5,4,1:0:0:0:
229,197,23812,2,0,P|239:235|252:274,1,80,8|0,0:3|0:0,0:0:0:0:
110,384,24128,1,8,0:0:0:0:
110,384,24444,1,2,0:0:0:0:
28,342,24602,6,0,P|61:285|154:259,1,160,10|0,0:3|0:0,0:0:0:0:
196,341,25075,1,8,0:3:0:0:
147,258,25233,1,0,0:0:0:0:
310,47,25391,1,8,0:0:0:0:
310,47,25707,1,8,0:3:0:0:
190,102,25865,1,8,0:0:0:0:
67,154,26023,6,0,P|33:125|-17:79,1,80,4|0,1:0|0:0,0:0:0:0:
174,126,26338,2,0,P|208:155|258:201,1,80,8|0,0:3|0:0,0:0:0:0:
392,352,26654,1,8,0:0:0:0:
392,352,26970,1,0,0:0:0:0:
500,250,27128,6,0,P|490:299|482:357,1,80,10|0,0:3|0:0,0:0:0:0:
361,181,27444,2,0,P|371:226|381:274,1,80,2|8,0:0|0:3,0:0:0:0:
246,379,27760,1,2,0:0:0:0:
189,309,27917,2,0,P|197:257|239:191,1,120,8|0,0:0|0:0,0:0:0:0:
230,199,28233,1,8,0:3:0:0:
113,236,28391,1,0,3:3:0:0:
31,92,28549,6,0,P|78:97|164:111,1,120,4|0,1:0|0:0,0:0:0:0:
149,108,28865,2,0,P|164:53|172:11,1,80,8|0,0:3|0:0,0:0:0:0:
368,14,29181,1,12,0:0:0:0:
368,14,29496,1,12,0:3:0:0:
346,98,29654,1,0,1:0:0:0:
483,226,29812,5,6,1:2:0:0:
433,74,29970,1,8,0:0:0:0:
495,136,30128,1,4,1:3:0:0:
353,286,30286,1,8,0:0:0:0:
282,238,30444,5,8,0:0:0:0:
297,359,30602,1,8,0:0:0:0:
282,238,30760,1,8,0:0:0:0:
297,359,30917,1,8,0:0:0:0:
361,154,31075,6,0,P|289:127|179:85,1,179.999994506836,6|0,1:0|0:0,0:0:0:0:
268,33,31391,2,0,P|340:60|450:102,1,179.999994506836,4|0,1:0|0:0,0:0:0:0:
436,96,31706,5,12,0:0:0:0:
506,202,31864,1,2,0:0:0:0:
435,307,32022,1,0,0:0:0:0:
232,284,32181,6,0,P|215:330|205:365,1,75,6|0,1:0|0:0,0:0:0:0:
208,355,32496,1,8,0:0:0:0:
23,150,32654,6,0,P|46:70|165:1,1,179.999994506836,6|0,1:0|0:0,0:0:0:0:
118,10,32969,1,8,0:0:0:0:
217,83,33127,1,2,0:0:0:0:
150,184,33285,1,8,0:3:0:0:
329,33,33444,1,0,0:0:0:0:
329,33,33602,6,0,P|397:23|456:10,1,119.999996337891,6|0,1:0|0:0,0:0:0:0:
495,270,33917,2,0,P|436:228|361:201,1,150,6|0,1:0|0:0,0:0:0:0:
364,202,34232,1,8,1:2:0:0:
368,355,34390,1,8,0:0:0:0:
368,355,34707,6,2,P|338:323|321:292,1,75,6|0,1:0|0:0,0:3:0:0:
322,296,35023,6,0,L|249:321,1,50,8|0,0:0|0:0,0:0:0:0:
209,381,35180,1,6,1:2:0:0:
122,331,35338,1,8,0:0:0:0:
104,338,35417,1,8,3:2:0:0:
88,344,35496,1,8,0:0:0:0:
167,240,35654,1,0,1:0:0:0:
31,220,35811,1,12,0:3:0:0:
155,116,35969,1,2,0:0:0:0:
32,7,36128,6,0,P|59:79|101:189,1,179.999994506836,6|0,1:0|0:0,0:0:0:0:
167,240,36444,2,0,P|193:167|234:57,1,179.999994506836,4|0,1:0|0:0,0:0:0:0:
229,71,36759,5,12,0:0:0:0:
348,16,36917,1,2,0:0:0:0:
433,119,37075,1,0,0:0:0:0:
325,350,37233,6,0,P|342:303|345:277,1,75,6|0,1:0|0:0,0:0:0:0:
344,278,37549,1,8,0:0:0:0:
142,0,37707,6,0,P|84:59|83:197,1,179.999994506836,6|0,1:0|0:0,0:0:0:0:
69,152,38022,1,8,0:0:0:0:
149,249,38180,1,2,0:0:0:0:
238,164,38338,1,8,0:3:0:0:
139,367,38496,1,8,0:0:0:0:
139,367,38654,6,0,P|84:342|27:322,1,119.999996337891,6|0,1:0|0:0,0:0:0:0:
347,292,38970,2,0,P|414:320|503:356,1,150,6|0,1:0|0:0,0:0:0:0:
485,349,39285,1,8,1:2:0:0:
257,353,39443,1,8,0:0:0:0:
257,353,39760,6,2,P|242:311|230:278,1,75,6|0,1:0|0:0,0:3:0:0:
231,282,40075,6,0,L|247:234,1,50,8|0,0:0|0:0,0:0:0:0:
326,187,40233,1,6,1:2:0:0:
238,122,40391,1,8,0:0:0:0:
222,112,40470,1,8,3:2:0:0:
207,103,40549,1,8,0:0:0:0:
313,56,40707,5,0,1:0:0:0:
205,7,40864,1,12,0:3:0:0:
134,153,41022,1,2,0:0:0:0:
1,6,41181,6,0,P|33:77|51:187,1,179.999994506836,6|0,1:0|0:0,0:0:0:0:
134,153,41496,2,0,P|115:253|78:325,1,179.999994506836,4|0,1:0|0:0,0:0:0:0:
80,322,41812,5,12,0:0:0:0:
201,372,41970,1,2,0:0:0:0:
280,284,42128,1,0,0:0:0:0:
499,353,42286,6,0,P|462:359|426:366,1,75,6|0,1:0|0:0,0:0:0:0:
425,366,42602,1,8,0:0:0:0:
177,201,42760,6,0,P|241:148|337:159,1,179.999994506836,6|0,1:0|0:0,0:0:0:0:
333,157,43075,1,8,0:0:0:0:
464,138,43233,1,2,0:0:0:0:
421,252,43391,1,8,0:3:0:0:
311,17,43549,1,8,0:0:0:0:
311,17,43707,6,0,P|369:50|417:80,1,119.999996337891,6|0,1:0|0:0,0:0:0:0:
187,130,44023,2,0,P|122:93|33:48,1,150,6|0,1:0|0:0,0:0:0:0:
55,58,44338,1,8,1:2:0:0:
305,138,44496,1,8,0:0:0:0:
305,138,44812,6,2,P|306:181|316:215,1,75,6|0,1:0|0:0,0:3:0:0:
314,211,45128,6,0,L|387:236,1,50,8|0,0:0|0:0,0:0:0:0:
450,259,45286,1,6,1:2:0:0:
399,367,45444,1,8,0:0:0:0:
389,351,45523,1,8,3:2:0:0:
380,336,45602,1,8,0:0:0:0:
289,295,45760,1,0,1:0:0:0:
200,357,45917,1,12,0:3:0:0:
99,206,46075,1,2,0:0:0:0:
16,358,46233,5,4,1:0:0:0:
16,358,46549,2,0,P|6:295|-1:247,1,100,8|0,0:3|0:0,0:0:0:0:
92,117,46865,2,0,P|103:179|114:257,1,100,10|0,0:0|0:0,0:0:0:0:
198,370,47181,2,2,P|242:325|227:138,1,250,6|0,1:0|0:0,0:0:0:0:
237,150,47654,5,8,0:0:0:0:
300,48,47812,1,8,0:3:0:0:
415,73,47970,1,2,0:0:0:0:
387,261,48128,1,8,0:0:0:0:
387,261,48444,1,8,0:3:0:0:
449,173,48602,1,0,3:0:0:0:
467,189,48681,1,0,3:0:0:0:
487,204,48760,6,0,P|493:267|509:325,1,100,6|0,1:0|0:0,0:0:0:0:
281,216,49075,2,0,P|333:179|375:136,1,100,10|0,0:3|0:0,0:0:0:0:
400,371,49391,2,0,P|343:344|285:329,1,100,10|0,0:0|0:0,0:0:0:0:
59,373,49707,2,2,P|34:318|169:231,1,250,6|0,1:0|0:0,0:0:0:0:
161,227,50181,5,8,0:0:0:0:
186,335,50338,1,8,0:3:0:0:
244,171,50496,1,0,3:0:0:0:
235,152,50575,1,0,3:0:0:0:
228,133,50654,1,8,0:0:0:0:
179,15,50812,1,8,0:0:0:0:
61,58,50970,1,4,0:3:0:0:
113,171,51128,1,0,1:2:0:0:
319,46,51286,6,0,P|380:58|485:80,1,150,6|0,1:0|0:0,0:0:0:0:
466,75,51602,2,0,P|458:114|425:206,1,100,10|0,0:3|0:0,0:0:0:0:
331,350,51917,2,0,P|306:297|289:198,1,150,10|0,0:0|0:0,0:0:0:0:
290,207,52233,1,12,0:3:0:0:
430,371,52391,2,0,P|455:317|465:265,1,100,12|2,0:0|0:0,0:0:0:0:
254,301,52707,5,8,0:0:0:0:
155,276,52865,1,12,0:3:0:0:
84,350,53023,1,2,0:0:0:0:
15,219,53181,6,0,P|29:157|39:122,1,100,8|0,0:0|0:0,0:0:0:0:
178,1,53496,2,0,P|164:63|154:98,1,100,6|0,0:0|0:0,0:0:0:0:
153,98,53733,1,0,0:0:0:0:
153,98,53812,1,6,1:0:0:0:
485,335,54128,6,0,P|420:313|314:291,1,150,6|0,0:0|0:0,0:0:0:0:
341,295,54444,1,8,0:0:0:0:
287,371,54602,1,8,0:3:0:0:
319,177,54760,1,2,1:2:0:0:
319,177,55075,5,4,0:0:0:0:
303,93,55233,1,2,0:3:0:0:
422,29,55391,1,8,0:0:0:0:
440,42,55470,1,0,3:0:0:0:
457,53,55549,1,8,0:0:0:0:
388,118,55707,1,8,0:0:0:0:
483,277,55865,5,12,0:3:0:0:
387,243,56023,1,12,1:3:0:0:
458,177,56181,1,2,0:3:0:0:
310,329,56338,6,0,P|264:319|214:312,1,85.0000016212464,6|0,1:0|0:0,0:0:0:0:
68,350,56654,2,0,P|114:360|164:367,1,85.0000016212464,10|0,0:3|0:0,0:0:0:0:
153,138,56970,1,8,0:0:0:0:
75,98,57128,1,8,0:0:0:0:
34,178,57286,1,2,0:0:0:0:
218,58,57444,6,0,P|193:138|162:250,1,170.000003242493,6|8,1:0|0:0,0:0:0:0:
318,99,57917,2,0,P|338:44|349:11,1,85.0000016212464,10|0,0:3|0:0,0:0:0:0:
341,210,58233,1,8,0:0:0:0:
341,210,58549,1,10,0:3:0:0:
432,167,58707,1,8,0:0:0:0:
446,178,58786,1,0,3:0:0:0:
461,190,58865,6,0,P|448:231|436:281,1,85.0000016212464,6|0,1:0|0:0,0:0:0:0:
319,383,59181,2,0,P|332:342|344:292,1,85.0000016212464,10|0,0:3|0:0,0:0:0:0:
169,231,59496,2,0,P|130:272|142:375,1,127.50000243187,12|0,0:0|0:0,0:0:0:0:
124,340,59812,1,2,1:2:0:0:
327,133,59970,2,0,P|352:113|370:22,1,100,6|2,1:0|3:0,0:0:0:0:
375,51,60207,1,0,3:0:0:0:
375,51,60286,1,8,0:0:0:0:
186,22,60444,5,4,1:0:0:0:
140,33,60523,1,8,0:0:0:0:
94,43,60602,1,8,0:0:0:0:
48,55,60681,1,8,0:0:0:0:
2,66,60760,2,0,L|22:122,1,42.5000008106232,2|0,1:0|0:0,0:0:0:0:
76,160,61075,5,6,3:0:0:0:
20,365,61391,5,4,1:0:0:0:
20,365,61707,1,8,0:3:0:0:
159,219,62023,5,8,0:0:0:0:
167,250,62260,1,2,0:0:0:0:
162,284,62496,1,10,0:3:0:0:
259,363,62654,2,0,P|264:328|274:295,1,69.9999978637696,4|0,0:0|0:0,0:0:0:0:
453,232,62970,1,10,0:3:0:0:
453,232,63286,5,8,0:0:0:0:
387,332,63523,1,2,0:0:0:0:
387,332,63602,1,8,0:3:0:0:
342,204,63760,1,2,0:0:0:0:
410,159,63917,2,0,P|422:105|433:57,1,104.999996795654,6|0,0:0|0:0,0:0:0:0:
433,56,64233,1,8,0:3:0:0:
310,283,64549,1,10,0:0:0:0:
310,283,64865,1,2,0:0:0:0:
331,73,65023,5,4,0:0:0:0:
331,73,65339,2,0,P|296:72|261:69,1,69.9999978637696,8|10,0:0|0:3,0:0:0:0:
220,143,65654,2,0,P|186:147|138:151,2,69.9999978637696,2|12|0,0:0|0:0|0:0,0:0:0:0:
269,222,66128,1,8,0:3:0:0:
189,261,66286,1,2,0:0:0:0:
269,222,66444,2,0,P|302:250|362:334,1,139.999995727539,4|0,1:0|0:0,0:0:0:0:
60,377,67075,5,8,0:0:0:0:
91,353,67312,1,2,0:0:0:0:
132,349,67548,1,10,0:3:0:0:
205,262,67707,2,0,P|175:249|117:235,1,69.9999978637696,2|0,0:0|0:0,0:0:0:0:
26,249,68022,1,10,0:3:0:0:
52,15,68338,5,12,0:0:0:0:
52,15,68654,1,10,0:3:0:0:
11,95,68812,1,10,0:0:0:0:
144,21,68970,1,4,0:0:0:0:
167,197,69207,1,2,0:0:0:0:
167,197,69286,1,8,0:3:0:0:
102,100,69444,1,2,0:0:0:0:
302,50,69601,1,10,0:0:0:0:
302,50,69917,1,2,0:0:0:0:
474,93,70075,6,0,P|423:107|372:121,1,104.999996795654,6|0,0:0|0:0,0:0:0:0:
372,121,70391,1,8,0:0:0:0:
239,207,70549,2,0,P|272:212|318:221,1,69.9999978637696,10|0,0:3|0:0,0:0:0:0:
498,364,70865,1,12,0:0:0:0:
498,364,71181,1,10,0:3:0:0:
485,265,71338,1,8,1:2:0:0:
485,265,71417,1,0,1:0:0:0:
485,265,71496,2,0,P|430:284|341:322,1,150.000005722046,4|10,1:0|0:3,0:0:0:0:
88,379,72128,5,8,0:0:0:0:
123,339,72365,1,2,0:0:0:0:
180,333,72602,1,6,1:2:0:0:
16,308,72760,5,2,0:0:0:0:
129,249,72917,1,0,3:0:0:0:
124,232,72996,1,0,3:0:0:0:
117,216,73075,2,0,P|72:195|-16:157,1,112.500004291535,10|0,3:0|0:0,0:0:0:0:
14,169,73391,1,8,0:0:0:0:
196,152,73628,1,2,0:0:0:0:
196,152,73707,1,10,0:3:0:0:
79,83,73865,1,0,3:0:0:0:
75,63,73944,1,0,3:0:0:0:
71,47,74023,6,0,P|128:26|201:2,1,112.500004291535,6|0,1:2|0:0,0:0:0:0:
177,9,74338,1,10,0:3:0:0:
479,147,74654,2,0,P|453:104|344:87,1,150.000005722046,14|0,0:0|0:0,0:0:0:0:
342,295,75128,2,0,P|350:243|361:184,1,112.500004291535,4|0,0:0|0:0,0:0:0:0:
361,184,75444,1,8,0:0:0:0:
457,239,75602,1,10,0:3:0:0:
272,368,75812,6,0,L|231:358,1,25.0000009536744,0|0,1:0|1:0,1:0:0:0:
240,360,75917,5,0,1:0:0:0:
163,296,76075,1,6,0:3:0:0:
98,371,76233,1,8,0:0:0:0:
9,326,76391,1,8,0:3:0:0:
50,125,76549,5,4,1:0:0:0:
50,125,76865,2,0,P|62:161|75:224,1,85.0000016212464,2|0,0:0|0:0,0:0:0:0:
316,88,77181,1,8,0:0:0:0:
316,88,77496,1,2,0:0:0:0:
255,25,77654,6,0,P|199:50|163:162,1,170.000003242493,8|0,0:3|0:0,0:0:0:0:
160,146,78128,2,0,P|166:191|176:240,1,85.0000016212464,8|0,0:3|0:0,0:0:0:0:
348,371,78444,2,0,P|359:330|373:290,1,85.0000016212464,8|0,0:0|0:0,0:0:0:0:
196,374,78760,1,8,0:3:0:0:
263,291,78917,1,10,0:3:0:0:
470,369,79075,5,4,1:0:0:0:
470,369,79391,2,0,P|472:315|476:266,1,85.0000016212464,8|0,0:3|0:0,0:0:0:0:
360,77,79707,1,8,0:0:0:0:
360,77,80023,1,2,0:0:0:0:
442,25,80181,6,0,P|468:70|439:181,1,170.000003242493,10|0,0:3|0:0,0:0:0:0:
441,179,80654,1,8,0:3:0:0:
335,161,80812,1,0,0:0:0:0:
228,355,80970,1,8,0:0:0:0:
228,355,81286,1,8,0:3:0:0:
247,220,81444,1,8,0:0:0:0:
271,76,81602,6,0,P|229:93|165:124,1,85.0000016212464,4|0,1:0|0:0,0:0:0:0:
29,10,81917,2,0,P|63:39|119:90,1,85.0000016212464,8|0,0:3|0:0,0:0:0:0:
169,279,82233,1,8,0:0:0:0:
169,279,82549,1,0,0:0:0:0:
39,374,82707,6,0,P|88:364|151:355,1,85.0000016212464,10|0,0:3|0:0,0:0:0:0:
321,317,83023,2,0,P|276:327|222:333,1,85.0000016212464,2|8,0:0|0:3,0:0:0:0:
91,223,83339,1,2,0:0:0:0:
152,159,83496,2,0,P|196:152|282:198,1,127.50000243187,8|0,0:0|0:0,0:0:0:0:
270,184,83812,1,8,0:3:0:0:
352,226,83970,1,8,0:0:0:0:
483,21,84128,6,0,P|444:73|437:154,1,127.50000243187,4|0,1:0|0:0,0:0:0:0:
434,133,84444,2,0,P|393:123|351:113,1,85.0000016212464,8|0,0:3|0:0,0:0:0:0:
476,291,84760,1,12,0:0:0:0:
476,291,85075,1,12,0:3:0:0:
498,207,85233,1,0,1:0:0:0:
316,222,85391,5,6,1:2:0:0:
382,376,85549,1,8,0:0:0:0:
385,281,85707,1,4,1:3:0:0:
220,249,85865,1,8,0:0:0:0:
207,338,86023,5,8,0:0:0:0:
132,241,86181,1,8,0:0:0:0:
207,338,86339,1,8,0:0:0:0:
132,241,86496,1,8,0:0:0:0:
291,324,86654,6,0,P|218:349|107:388,1,179.999994506836,6|0,1:0|0:0,0:0:0:0:
61,324,86970,2,0,P|93:239|124:155,1,179.999994506836,4|0,1:0|0:0,0:0:0:0:
124,155,87285,5,12,0:0:0:0:
54,58,87443,1,2,0:0:0:0:
175,12,87601,1,0,0:0:0:0:
369,83,87760,6,0,P|323:90|287:86,1,75,6|0,1:0|0:0,0:0:0:0:
294,87,88075,1,8,0:0:0:0:
433,375,88233,6,0,P|462:318|431:189,1,179.999994506836,6|0,1:0|0:0,0:0:0:0:
445,207,88548,1,8,0:0:0:0:
346,283,88706,1,2,0:0:0:0:
269,189,88864,1,8,0:3:0:0:
153,363,89022,1,8,0:0:0:0:
153,363,89181,6,0,P|85:368|8:380,1,119.999996337891,6|0,1:0|0:0,0:0:0:0:
181,134,89496,2,0,P|246:97|314:47,1,150,6|0,1:0|0:0,0:0:0:0:
307,52,89811,1,8,1:2:0:0:
130,243,89969,1,8,0:0:0:0:
130,243,90286,6,2,P|98:213|67:196,1,75,6|0,1:0|0:0,0:3:0:0:
71,197,90602,6,0,L|86:143,1,50,8|0,0:0|0:0,0:0:0:0:
120,44,90759,1,6,1:2:0:0:
4,84,90917,1,8,0:0:0:0:
22,80,90996,1,8,3:2:0:0:
39,76,91075,1,8,0:0:0:0:
165,123,91233,1,0,1:0:0:0:
274,28,91390,1,12,0:3:0:0:
370,155,91548,1,2,0:0:0:0:
512,0,91707,6,0,P|479:84|448:168,1,179.999994506836,6|0,1:0|0:0,0:0:0:0:
512,203,92023,2,0,P|485:275|443:385,1,179.999994506836,4|0,1:0|0:0,0:0:0:0:
448,371,92338,5,12,0:0:0:0:
352,299,92496,1,2,0:0:0:0:
261,378,92654,1,0,0:0:0:0:
273,196,92812,6,0,P|326:201|360:205,1,75,6|0,1:0|0:0,0:0:0:0:
347,203,93128,1,8,0:0:0:0:
131,15,93286,6,0,P|51:38|13:130,1,179.999994506836,6|0,1:0|0:0,0:0:0:0:
12,120,93601,1,8,0:0:0:0:
136,163,93759,1,2,0:0:0:0:
206,60,93917,1,8,0:3:0:0:
53,218,94075,1,8,0:0:0:0:
53,218,94233,6,0,P|77:272|97:329,1,119.999996337891,6|0,1:0|0:0,0:0:0:0:
297,91,94549,2,0,P|268:162|252:240,1,150,6|0,1:0|0:0,0:0:0:0:
252,233,94864,1,8,1:2:0:0:
401,40,95022,1,8,0:0:0:0:
400,39,95339,6,2,P|416:71|431:121,1,75,6|0,1:0|0:0,0:3:0:0:
428,108,95654,6,0,L|403:157,1,50,8|0,0:0|0:0,0:0:0:0:
368,233,95812,1,6,1:2:0:0:
472,221,95970,1,8,0:0:0:0:
475,239,96049,1,8,3:2:0:0:
479,256,96128,1,8,0:0:0:0:
435,363,96286,5,0,1:0:0:0:
300,284,96443,1,12,0:3:0:0:
186,382,96601,1,2,0:0:0:0:
15,179,96760,6,0,P|42:251|84:361,1,179.999994506836,6|0,1:0|0:0,0:0:0:0:
131,261,97075,2,0,P|104:189|62:79,1,179.999994506836,4|0,1:0|0:0,0:0:0:0:
67,92,97391,5,12,0:0:0:0:
174,22,97549,1,2,0:0:0:0:
233,130,97707,1,0,0:0:0:0:
402,36,97865,6,0,P|451:27|484:22,1,75,6|0,1:0|0:0,0:0:0:0:
475,23,98181,1,8,0:0:0:0:
318,277,98339,6,0,P|231:262|174:194,1,179.999994506836,6|0,1:0|0:0,0:0:0:0:
174,194,98654,1,8,0:0:0:0:
118,82,98812,1,2,0:0:0:0:
9,131,98970,1,8,0:3:0:0:
300,156,99128,1,8,0:0:0:0:
300,156,99286,6,0,P|276:90|244:34,1,119.999996337891,6|0,1:0|0:0,0:0:0:0:
74,227,99602,2,0,P|99:298|130:367,1,150,6|0,1:0|0:0,0:0:0:0:
130,367,99917,1,8,1:2:0:0:
196,199,100075,1,8,0:0:0:0:
196,199,100391,6,2,P|208:233|223:269,1,75,6|0,1:0|0:0,0:3:0:0:
222,268,100707,6,0,L|295:293,1,50,8|0,0:0|0:0,0:0:0:0:
344,373,100865,1,6,1:2:0:0:
441,325,101023,1,8,0:0:0:0:
451,340,101102,1,8,3:2:0:0:
461,355,101181,1,8,0:0:0:0:
371,244,101339,1,0,1:0:0:0:
496,166,101496,1,12,0:3:0:0:
414,30,101654,1,2,0:0:0:0:
259,114,101812,5,4,1:0:0:0:
259,114,102128,2,0,P|322:104|370:97,1,100,8|0,0:3|0:0,0:0:0:0:
235,215,102444,2,0,P|246:277|257:355,1,100,10|0,0:0|0:0,0:0:0:0:
18,299,102760,2,0,P|21:223|161:149,1,250,6|0,1:0|0:0,0:0:0:0:
160,148,103233,5,8,0:0:0:0:
138,255,103391,1,8,0:3:0:0:
206,347,103549,1,2,0:0:0:0:
387,230,103707,1,8,0:0:0:0:
387,230,104023,1,8,0:3:0:0:
446,320,104181,1,0,3:0:0:0:
464,305,104260,1,0,3:0:0:0:
484,289,104339,6,0,P|490:226|506:168,1,100,6|0,1:0|0:0,0:0:0:0:
278,277,104654,2,0,P|330:314|372:357,1,100,10|0,0:3|0:0,0:0:0:0:
397,122,104970,2,0,P|340:149|282:164,1,100,10|0,0:0|0:0,0:0:0:0:
37,62,105286,2,0,P|75:25|213:113,1,250,6|0,1:0|0:0,0:0:0:0:
213,110,105760,5,8,0:0:0:0:
107,144,105917,1,8,0:3:0:0:
251,228,106075,1,0,3:0:0:0:
243,249,106154,1,0,3:0:0:0:
235,266,106233,1,8,0:0:0:0:
184,365,106391,1,8,0:0:0:0:
76,328,106549,1,4,0:3:0:0:
131,237,106707,1,0,1:2:0:0:
299,355,106865,6,0,P|360:367|465:389,1,150,6|0,1:0|0:0,0:0:0:0:
445,384,107181,2,0,P|437:345|404:253,1,100,10|0,0:3|0:0,0:0:0:0:
403,55,107496,2,0,P|428:108|468:197,1,150,10|0,0:0|0:0,0:0:0:0:
465,191,107812,1,12,0:3:0:0:
311,119,107970,2,0,P|287:66|263:15,1,100,12|2,0:0|0:0,0:0:0:0:
298,237,108286,5,8,0:0:0:0:
202,267,108444,1,12,0:3:0:0:
186,368,108602,1,2,0:0:0:0:
35,219,108760,6,0,P|55:264|75:311,1,100,8|0,0:0|0:0,0:0:0:0:
168,42,109075,2,0,P|154:91|144:140,1,100,6|0,0:0|0:0,0:0:0:0:
144,140,109312,1,0,0:0:0:0:
144,140,109391,1,6,1:0:0:0:
435,11,109707,6,0,P|457:76|479:182,1,150,6|0,0:0|0:0,0:0:0:0:
474,155,110023,1,8,0:0:0:0:
390,195,110181,1,8,0:3:0:0:
501,368,110339,1,2,1:2:0:0:
501,368,110654,5,8,0:0:0:0:
507,307,110760,1,8,0:0:0:0:
473,257,110865,1,8,0:0:0:0:
415,239,110970,1,8,0:0:0:0:
360,263,111075,1,8,0:0:0:0:
337,318,111181,1,8,0:0:0:0:
350,375,111286,2,0,L|275:368,1,75.0000028610231,8|8,0:0|0:3,0:0:0:0:
153,279,111602,1,4,0:3:0:0:
177,372,111760,1,6,0:3:0:0:
83,180,111917,6,0,P|44:169|-3:155,1,85.0000016212464,6|0,1:0|0:0,0:0:0:0:
89,90,112233,2,0,P|129:102|170:113,1,85.0000016212464,10|0,0:3|0:0,0:0:0:0:
338,220,112549,2,0,P|366:171|345:64,1,170.000003242493,10|0,0:0|0:0,0:0:0:0:
250,28,113023,1,10,0:3:0:0:
250,28,113338,5,8,0:0:0:0:
378,78,113496,2,0,P|431:64|481:58,1,85.0000016212464,6|0,0:0|0:0,0:0:0:0:
323,168,113812,2,0,P|270:154|220:148,1,85.0000016212464,10|0,0:0|0:0,0:0:0:0:
181,310,114128,1,10,0:3:0:0:
263,355,114286,1,0,3:0:0:0:
263,355,114365,1,0,3:0:0:0:
263,355,114444,6,0,P|277:309|265:268,1,85.0000016212464,6|0,1:0|0:0,0:0:0:0:
94,302,114760,2,0,P|80:348|92:389,1,85.0000016212464,10|0,0:3|0:0,0:0:0:0:
160,189,115075,2,4,P|115:195|64:208,1,85.0000016212464,14|0,0:0|3:0,0:0:0:0:
16,67,115391,2,0,P|52:80|109:97,1,85.0000016212464,2|8,0:0|0:3,0:0:0:0:
270,16,115707,1,6,0:0:0:0:
244,109,115865,5,2,0:0:0:0:
367,19,116023,1,10,0:3:0:0:
367,19,116338,2,0,P|425:34|479:36,1,85.0000016212464,10|0,0:0|0:0,0:0:0:0:
376,189,116654,1,10,0:3:0:0:
352,106,116812,1,6,0:3:0:0:
437,373,116970,6,0,P|467:333|494:306,1,85.0000016212464,6|0,1:0|0:0,0:0:0:0:
374,245,117286,2,0,P|403:214|428:180,1,85.0000016212464,10|0,0:3|0:0,0:0:0:0:
308,365,117602,1,8,0:0:0:0:
268,279,117760,1,0,3:0:0:0:
256,288,117838,1,0,3:0:0:0:
242,300,117917,1,0,3:0:0:0:
47,369,118075,2,0,P|32:319|110:239,1,170.000003242493,10|8,0:3|0:0,0:0:0:0:
204,371,118549,6,0,P|193:312|181:262,1,85.0000016212464,10|0,0:3|0:0,0:0:0:0:
256,120,118865,2,0,P|267:179|279:229,1,85.0000016212464,6|0,0:0|0:0,0:0:0:0:
395,324,119181,1,10,0:3:0:0:
485,167,119338,1,8,0:0:0:0:
485,167,119496,6,0,P|467:110|365:64,2,170.000003242493,6|10|12,1:0|0:3|0:0,0:0:0:0:
471,308,120286,1,8,0:0:0:0:
471,308,120602,1,8,3:0:0:0:
457,323,120681,1,8,0:3:0:0:
443,338,120760,6,0,P|401:323|356:312,1,85.0000016212464,6|0,0:0|0:0,0:0:0:0:
284,261,121075,1,10,0:3:0:0:
262,350,121233,1,0,3:0:0:0:
240,344,121312,1,0,3:0:0:0:
218,338,121391,2,0,P|160:350|123:377,1,85.0000016212464,8|0,0:0|0:0,0:0:0:0:
15,248,121707,1,10,0:3:0:0:
33,331,121865,1,8,0:0:0:0:
83,180,122023,6,0,P|44:169|-3:155,1,85.0000016212464,6|0,1:0|0:0,0:0:0:0:
172,242,122339,2,0,P|212:254|253:265,1,85.0000016212464,10|0,0:3|0:0,0:0:0:0:
176,137,122655,2,0,P|178:91|90:12,1,170.000003242493,10|0,0:0|0:0,0:0:0:0:
1,50,123129,1,10,0:3:0:0:
1,50,123444,5,8,0:0:0:0:
185,73,123602,2,0,P|220:52|279:17,1,85.0000016212464,6|0,0:0|0:0,0:0:0:0:
397,6,123918,2,0,P|376:52|357:99,1,85.0000016212464,10|0,0:0|0:0,0:0:0:0:
398,242,124234,1,10,0:3:0:0:
475,299,124392,1,0,3:0:0:0:
475,299,124471,1,0,3:0:0:0:
475,299,124550,6,0,P|483:253|490:212,1,85.0000016212464,6|0,1:0|0:0,0:0:0:0:
332,299,124866,2,0,P|344:344|356:385,1,85.0000016212464,10|0,0:3|0:0,0:0:0:0:
421,150,125181,2,4,P|466:136|514:120,1,85.0000016212464,14|0,0:0|3:0,0:0:0:0:
362,66,125497,2,0,P|321:79|281:91,1,85.0000016212464,2|8,0:0|0:3,0:0:0:0:
331,298,125812,2,0,P|290:311|251:326,2,85.0000016212464,4|8|10,0:0|0:0|0:3,0:0:0:0:
195,154,126286,5,8,0:0:0:0:
114,105,126444,1,8,0:0:0:0:
195,154,126602,1,8,0:0:0:0:
3,194,126760,1,10,0:0:0:0:
166,290,126917,1,8,0:0:0:0:
22,384,127075,6,0,P|82:313|63:235,2,170.000003242493,6|10|8,1:0|0:3|0:0,0:0:0:0:
185,315,127865,1,0,3:0:0:0:
204,324,127944,1,0,3:0:0:0:
222,333,128023,1,2,0:0:0:0:
367,264,128181,2,0,P|313:241|216:205,1,127.50000243187,10|0,0:3|0:0,0:0:0:0:
249,216,128496,5,8,0:0:0:0:
439,212,128654,1,2,1:2:0:0:
439,212,128970,1,8,0:0:0:0:
439,212,129286,1,10,0:3:0:0:
474,130,129444,1,8,0:0:0:0:
309,19,129602,1,6,1:0:0:0:
366,94,129760,1,8,0:0:0:0:
483,23,129917,6,0,P|441:19|398:18,1,85.0000016212464,6|0,0:0|0:0,0:0:0:0:
189,94,130233,2,0,P|232:98|274:99,1,85.0000016212464,8|0,0:0|0:0,0:0:0:0:
492,222,130549,2,0,P|450:217|408:216,1,85.0000016212464,6|8,1:2|0:0,0:0:0:0:
176,345,130865,1,10,0:3:0:0:
176,345,131023,1,2,0:0:0:0:
267,362,131181,1,8,0:0:0:0:
303,247,131338,5,8,0:0:0:0:
286,251,131417,1,8,0:0:0:0:
267,256,131496,1,8,0:0:0:0:
100,284,131654,1,8,0:3:0:0:
66,110,131812,1,14,0:3:0:0:
239,77,131970,1,2,0:0:0:0:
166,179,132128,5,4,1:0:0:0:
166,179,132444,1,2,0:0:0:0:
166,179,132760,2,0,P|108:184|7:197,2,150,2|8|8,3:0|0:3|0:3,0:0:0:0:
222,343,134023,1,2,0:3:0:0:
262,266,134181,2,0,P|294:254|364:293,1,100,8|0,0:3|0:0,0:0:0:0:
404,362,134654,5,4,0:0:0:0:
404,362,134970,1,2,0:0:0:0:
404,362,135286,2,0,P|436:304|487:218,2,150,2|8|8,0:3|0:3|0:3,0:0:0:0:
311,169,136549,1,2,0:3:0:0:
306,92,136707,1,8,0:3:0:0:
46,79,137023,1,2,0:0:0:0:
119,100,137181,6,0,P|142:73|195:17,1,100,4|2,0:0|0:0,0:0:0:0:
114,238,137812,1,2,0:3:0:0:
114,238,138128,1,2,0:0:0:0:
34,190,138286,2,0,P|34:233|38:307,1,100,8|0,0:3|0:0,0:0:0:0:
41,370,138760,1,8,0:3:0:0:
336,328,139075,5,2,0:3:0:0:
250,309,139233,1,8,0:3:0:0:
336,328,139391,1,2,0:0:0:0:
336,328,139707,6,0,P|411:315|480:204,1,200,4|2,0:0|0:3,0:0:0:0:
248,8,140812,1,8,0:3:0:0:
339,38,140970,5,4,0:0:0:0:
339,38,141286,1,8,0:3:0:0:
229,133,141496,1,8,0:0:0:0:
229,133,141602,1,8,0:0:0:0:
109,53,141760,1,8,0:0:0:0:
174,297,141917,5,6,3:0:0:0:
174,297,142023,1,2,0:0:0:0:
174,297,142128,1,2,0:0:0:0:
174,297,142233,6,0,P|258:275|359:254,1,179.999994506836,6|0,1:0|0:0,0:0:0:0:
180,208,142549,2,0,P|96:230|-5:251,1,179.999994506836,4|0,1:0|0:0,0:0:0:0:
5,250,142865,1,8,0:0:0:0:
56,53,143023,1,2,0:0:0:0:
56,53,143338,6,0,P|131:64|229:80,1,165.000005035401,6|0,1:0|0:0,0:0:0:0:
219,78,143654,1,8,0:0:0:0:
451,29,143812,1,4,0:0:0:0:
451,29,144128,5,8,0:0:0:0:
502,156,144338,5,2,0:1:0:0:
365,130,144549,5,8,0:0:0:0:
493,302,144760,6,0,P|469:210|443:106,1,179.999994506836,6|0,1:0|0:0,0:0:0:0:
297,200,145075,2,0,P|275:287|252:374,1,179.999994506836,4|0,1:0|0:0,0:0:0:0:
253,375,145391,1,8,0:0:0:0:
21,296,145549,1,8,0:0:0:0:
21,296,145865,1,10,0:3:0:0:
132,360,146023,6,0,P|146:300|161:247,1,110.000003356934,6|0,1:2|0:0,0:0:0:0:
115,47,146338,1,10,0:3:0:0:
21,28,146496,2,0,P|88:77|170:142,1,165.000005035401,2|0,0:1|0:0,0:0:0:0:
152,127,146812,1,8,0:0:0:0:
47,196,146970,1,8,0:0:0:0:
47,196,147128,1,8,0:0:0:0:
265,357,147286,5,4,1:0:0:0:
375,317,147444,1,2,0:1:0:0:
250,188,147602,5,10,0:3:0:0:
324,219,147760,1,8,0:0:0:0:
213,14,147917,1,12,0:0:0:0:
213,14,148233,1,2,0:0:0:0:
150,210,148391,6,0,P|93:215|37:220,1,110.000003356934,6|0,1:0|0:0,0:0:0:0:
270,97,148707,2,0,P|342:90|383:87,1,110.000003356934,4|2,1:0|0:0,0:0:0:0:
497,26,149023,1,2,0:0:0:0:
491,45,149102,1,0,0:0:0:0:
484,63,149181,1,8,0:0:0:0:
478,299,149338,2,0,P|439:255|469:153,1,165.000005035401,2|0,0:1|0:0,0:0:0:0:
461,158,149654,1,8,0:0:0:0:
274,369,149812,5,4,1:0:0:0:
338,266,149970,5,2,0:0:0:0:
252,232,150128,1,6,1:2:0:0:
338,266,150286,1,0,0:0:0:0:
355,77,150444,5,8,0:0:0:0:
233,101,150602,1,8,0:0:0:0:
107,127,150760,1,8,0:0:0:0:
231,366,150917,6,0,P|247:291|274:167,1,165.000005035401,6|0,1:0|0:0,0:0:0:0:
265,204,151233,1,8,0:0:0:0:
132,286,151391,2,0,P|86:274|22:258,1,110.000003356934,6|8,1:2|0:0,0:0:0:0:
371,258,151707,2,0,P|417:244|481:230,1,110.000003356934,8|8,0:0|0:3,0:0:0:0:
261,24,152023,1,8,0:0:0:0:
276,104,152181,1,8,0:0:0:0:
136,362,152338,6,0,P|73:335|82:222,1,165.000005035401,6|0,1:0|0:0,0:0:0:0:
62,246,152654,2,0,P|123:257|208:270,1,110.000003356934,2|0,1:2|0:0,0:0:0:0:
431,223,152970,2,0,P|343:214|252:200,1,165.000005035401,12|0,0:0|0:0,0:0:0:0:
267,202,153286,1,2,0:0:0:0:
46,15,153444,6,0,P|127:40|213:71,1,165.000005035401,6|0,1:0|0:0,0:0:0:0:
203,67,153760,1,8,0:0:0:0:
132,298,153917,2,0,P|141:236|159:176,1,110.000003356934,6|0,1:2|0:0,0:0:0:0:
335,268,154233,2,0,P|326:330|308:390,1,110.000003356934,10|0,0:0|0:0,0:0:0:0:
276,185,154549,1,8,0:3:0:0:
360,132,154707,1,8,0:0:0:0:
494,291,154865,6,0,P|433:241|403:191,1,110.000003356934,6|0,1:0|0:0,0:0:0:0:
216,5,155181,2,0,P|267:64|288:119,1,110.000003356934,4|2,1:0|0:0,0:0:0:0:
222,371,155496,1,12,0:0:0:0:
269,267,155654,1,8,0:0:0:0:
269,267,155970,6,0,P|177:287|64:316,1,165.000005035401,6|0,1:0|0:0,0:0:0:0:
108,304,156286,1,8,0:0:0:0:
40,380,156444,1,6,1:2:0:0:
114,198,156602,5,10,0:0:0:0:
37,139,156760,1,8,0:0:0:0:
73,50,156917,1,8,0:0:0:0:
195,144,157075,1,6,1:2:0:0:
171,50,157233,1,4,0:3:0:0:
280,241,157391,6,0,P|231:194|113:112,1,200,6|10,1:0|0:3,0:0:0:0:
349,163,157865,1,0,0:0:0:0:
456,156,158023,2,0,P|470:97|402:32,1,150,12|0,0:0|0:0,0:0:0:0:
414,34,158338,2,0,P|400:134|384:243,1,200,6|0,1:0|0:0,0:0:0:0:
469,382,158812,5,8,0:0:0:0:
496,272,158970,1,2,1:2:0:0:
400,313,159128,1,0,3:0:0:0:
381,323,159207,1,0,3:0:0:0:
364,331,159286,2,0,P|298:339|194:370,1,150,8|0,0:0|0:0,0:0:0:0:
217,360,159602,1,10,0:3:0:0:
153,215,159760,1,8,0:3:0:0:
15,278,159917,6,0,P|12:339|7:397,1,100,6|0,1:0|0:0,0:0:0:0:
147,315,160233,2,0,P|150:254|155:196,1,100,2|0,1:2|0:0,0:0:0:0:
13,77,160549,6,0,P|63:81|113:84,1,100,12|0,0:0|0:0,0:0:0:0:
460,47,160865,2,2,P|361:31|262:22,1,200,6|0,1:0|0:0,0:3:0:0:
179,29,161338,1,8,0:0:0:0:
320,220,161496,5,0,0:0:0:0:
392,162,161654,1,8,0:0:0:0:
409,168,161733,1,8,0:0:0:0:
428,174,161812,1,12,0:0:0:0:
488,362,161970,5,8,0:0:0:0:
403,292,162128,1,10,0:0:0:0:
308,365,162286,1,8,0:0:0:0:
16,294,162444,6,2,P|99:313|233:359,1,209.999993591309,6|0,1:0|0:0,0:3:0:0:
269,286,162760,2,2,P|188:253|65:215,1,209.999993591309,4|0,1:0|0:0,0:3:0:0:
71,216,163075,5,12,0:0:0:0:
12,104,163233,1,2,0:0:0:0:
103,26,163391,1,0,0:0:0:0:
269,160,163550,6,2,P|263:123|257:87,1,75,6|0,1:0|0:0,0:3:0:0:
257,87,163865,1,8,0:0:0:0:
511,223,164023,6,2,P|492:307|373:376,1,209.999993591309,6|0,1:0|0:0,0:3:0:0:
394,374,164338,1,8,0:0:0:0:
331,263,164496,1,2,0:0:0:0:
385,142,164654,1,8,0:3:0:0:
196,282,164812,1,8,0:0:0:0:
196,282,164970,6,0,P|141:322|87:377,1,119.999996337891,6|0,1:0|0:0,0:0:0:0:
73,94,165286,2,0,P|135:55|200:-6,1,150,6|0,1:0|0:0,0:0:0:0:
192,4,165601,1,8,1:2:0:0:
42,244,165759,1,8,0:0:0:0:
42,244,166076,6,2,P|69:211|108:202,1,75,6|0,1:0|0:0,0:3:0:0:
98,201,166392,6,0,L|171:226,1,50,8|0,0:0|0:0,0:0:0:0:
304,288,166549,1,6,1:2:0:0:
236,237,166707,1,8,0:0:0:0:
226,253,166786,1,8,3:2:0:0:
217,268,166865,1,8,0:0:0:0:
282,373,167023,1,0,1:0:0:0:
380,128,167180,5,12,0:3:0:0:
472,314,167338,1,2,0:0:0:0:
380,128,167497,6,2,P|384:217|393:359,1,209.999993591309,6|0,1:0|0:0,0:3:0:0:
470,239,167812,2,2,P|463:159|449:9,1,209.999993591309,4|0,1:0|0:0,0:3:0:0:
451,29,168128,5,12,0:0:0:0:
321,0,168286,1,2,0:0:0:0:
253,119,168444,1,0,0:0:0:0:
79,32,168602,6,0,P|30:23|-3:18,1,75,6|0,1:0|0:0,0:0:0:0:
5,19,168918,1,8,0:0:0:0:
26,354,169076,6,0,P|49:274|131:225,1,179.999994506836,6|0,1:0|0:0,0:0:0:0:
127,225,169391,1,8,0:0:0:0:
218,312,169549,1,2,0:0:0:0:
250,192,169707,1,8,0:3:0:0:
58,132,169865,1,8,0:0:0:0:
58,132,170023,6,0,P|124:108|183:85,1,119.999996337891,6|0,1:0|0:0,0:0:0:0:
491,61,170339,2,0,P|429:86|313:132,1,150,6|0,1:0|0:0,0:0:0:0:
352,117,170654,1,8,1:2:0:0:
214,367,170812,1,8,0:0:0:0:
214,367,171129,6,2,P|221:320|247:201,1,150,6|0,1:0|0:0,0:3:0:0:
242,219,171444,6,0,L|315:244,1,50,8|0,0:0|0:0,0:0:0:0:
423,277,171602,1,6,1:2:0:0:
342,369,171760,5,8,0:0:0:0:
338,350,171839,1,8,3:2:0:0:
334,333,171918,1,8,0:0:0:0:
381,180,172076,1,0,1:0:0:0:
512,28,172233,5,12,0:3:0:0:
467,162,172391,1,2,0:0:0:0:
212,360,172550,6,2,P|229:256|251:153,1,209.999993591309,6|0,1:0|0:0,0:3:0:0:
205,19,172865,2,2,P|182:117|155:226,1,209.999993591309,4|0,1:0|0:0,0:3:0:0:
155,223,173181,5,12,0:0:0:0:
43,161,173339,1,2,0:0:0:0:
88,41,173497,1,0,0:0:0:0:
332,90,173655,6,0,P|323:40|319:7,1,75,6|0,1:0|0:0,0:0:0:0:
320,15,173971,1,8,0:0:0:0:
410,369,174129,6,0,P|476:337|501:221,1,179.999994506836,6|0,1:0|0:0,0:0:0:0:
506,240,174444,1,8,0:0:0:0:
389,213,174602,1,2,0:0:0:0:
279,341,174760,1,8,0:3:0:0:
238,104,174918,1,8,0:0:0:0:
238,104,175076,6,2,P|265:168|289:234,1,139.999995727539,6|0,1:0|0:0,0:3:0:0:
20,150,175392,2,2,P|49:86|104:-22,1,165.000005035401,6|0,1:0|0:0,0:3:0:0:
91,1,175707,1,8,1:2:0:0:
117,320,175865,1,8,0:0:0:0:
117,320,176181,6,2,P|143:254|134:149,1,150,6|0,1:0|0:0,0:3:0:0:
141,175,176497,6,0,L|77:218,1,50,8|0,0:0|0:0,0:0:0:0:
20,249,176655,1,6,1:2:0:0:
221,347,176813,1,8,0:0:0:0:
237,357,176892,1,8,3:2:0:0:
252,366,176971,1,8,0:0:0:0:
310,287,177129,1,0,1:0:0:0:
238,152,177286,1,12,0:3:0:0:
322,8,177444,1,2,0:0:0:0:
500,176,177602,5,4,1:0:0:0:
500,176,177918,2,0,P|490:113|483:65,1,100,8|0,0:3|0:0,0:0:0:0:
457,259,178234,2,0,P|448:308|440:357,1,100,10|0,0:0|0:0,0:0:0:0:
389,100,178550,2,0,P|323:101|279:264,1,250,6|0,1:0|0:0,0:0:0:0:
270,251,179023,5,8,0:0:0:0:
339,331,179181,1,8,0:3:0:0:
248,364,179339,1,2,0:0:0:0:
106,235,179497,1,8,0:0:0:0:
106,235,179813,1,8,0:3:0:0:
52,158,179971,1,0,3:0:0:0:
32,172,180050,1,0,3:0:0:0:
14,189,180129,6,0,P|8:252|-8:310,1,100,6|0,1:0|0:0,0:0:0:0:
220,201,180444,2,0,P|168:164|126:121,1,100,10|0,0:3|0:0,0:0:0:0:
101,356,180760,2,0,P|158:329|216:314,1,100,10|0,0:0|0:0,0:0:0:0:
512,157,181076,2,2,P|468:114|340:211,1,250,6|0,1:0|0:0,0:3:0:0:
339,203,181550,5,8,0:0:0:0:
442,239,181707,1,8,0:3:0:0:
280,384,181865,1,0,3:0:0:0:
305,377,181944,1,0,3:0:0:0:
328,371,182023,1,8,0:0:0:0:
373,283,182181,1,8,0:0:0:0:
244,256,182339,1,4,0:3:0:0:
203,344,182497,1,0,1:2:0:0:
45,226,182655,6,2,P|33:165|11:60,1,150,6|0,1:0|0:0,0:3:0:0:
15,79,182971,2,0,P|54:87|146:120,1,100,10|0,0:3|0:0,0:0:0:0:
336,69,183286,2,2,P|270:52|184:27,1,150,10|0,0:0|0:0,0:3:0:0:
191,29,183602,1,12,0:3:0:0:
346,174,183760,2,0,P|395:187|447:201,1,100,12|2,0:0|0:0,0:0:0:0:
354,376,184076,5,8,0:0:0:0:
310,279,184234,1,12,0:3:0:0:
244,360,184392,1,2,0:0:0:0:
413,303,184550,2,2,P|475:289|510:279,1,100,8|0,0:0|0:0,0:3:0:0:
194,275,184865,2,0,P|132:289|97:299,1,100,6|0,0:0|0:0,0:0:0:0:
96,299,185102,1,0,0:0:0:0:
96,299,185181,1,6,1:0:0:0:
320,16,185497,6,2,P|385:38|491:60,1,150,6|0,0:0|0:0,0:3:0:0:
464,55,185812,2,0,P|451:106|436:164,1,100,8|8,0:0|0:3,0:0:0:0:
302,192,186129,1,2,1:2:0:0:
316,301,186286,1,0,0:0:0:0:
209,69,186444,5,8,0:0:0:0:
163,30,186549,1,8,0:0:0:0:
103,21,186654,1,8,0:0:0:0:
51,52,186760,1,8,0:0:0:0:
23,105,186865,1,8,0:0:0:0:
29,164,186970,1,8,0:0:0:0:
68,208,187075,1,8,0:0:0:0:
83,230,187181,1,8,0:0:0:0:
84,256,187286,1,8,0:0:0:0:
69,278,187391,1,8,0:0:0:0:
45,290,187496,1,8,0:0:0:0:
24,307,187602,1,8,0:0:0:0:
28,384,187707,5,4,1:0:0:0:
480,384,188023,5,4,1:0:0:0:
256,0,188338,5,4,1:0:0:0:
256,192,188654,5,6,1:0:0:0:
