osu file format v14

[General]
AudioFilename: audio.mp3
AudioLeadIn: 0
PreviewTime: 49766
Countdown: 0
SampleSet: Soft
StackLeniency: 0.7
Mode: 0
LetterboxInBreaks: 0
WidescreenStoryboard: 1

[Editor]
Bookmarks: -5,10548,46767,56701,80974
DistanceSpacing: 1.2
BeatDivisor: 4
GridSize: 16
TimelineZoom: 2.1

[Metadata]
Title:PAPERMOON (TV Size)
TitleUnicode:PAPERMOON (TV Size)
Artist:Tommy heavenly6
ArtistUnicode:Tommy heavenly6
Creator:synderes
Version:Insane
Source:ソウルイーター
Tags:soul eater opening february6 tomoko kawase j-pop anime frostwich kalibe irohas mugiwarasekai kowari japanese
BeatmapID:2235652
BeatmapSetID:1063645

[Difficulty]
HPDrainRate:7
CircleSize:4
OverallDifficulty:7.5
ApproachRate:8.6
SliderMultiplier:2
SliderTickRate:1

[Events]
//Background and Video events
Video,-543,"video.avi"
0,0,"the kid.jpg",0,0
//Break Periods
//Storyboard Layer 0 (Background)
//Storyboard Layer 1 (Fail)
//Storyboard Layer 2 (Pass)
//Storyboard Layer 3 (Foreground)
//Storyboard Layer 4 (Overlay)
//Storyboard Sound Samples

[TimingPoints]
102,365.853658536585,4,2,1,55,1,0
102,-100,4,2,1,55,0,0
14496,-100,4,2,1,45,0,0
14553,-125,4,2,1,45,0,0
38150,-111.111111111111,4,2,1,45,0,0
49858,-100,4,2,1,55,0,1
74313,-100,4,2,1,40,0,1
74370,-100,4,2,1,40,0,1
74413,-100,4,2,1,55,0,1
74470,-100,4,2,1,55,0,1
75044,-100,4,2,1,40,0,1
75101,-100,4,2,1,40,0,1
75144,-100,4,2,1,55,0,1
75201,-100,4,2,1,55,0,1
77971,-100,4,2,1,40,0,1
78028,-100,4,2,1,40,0,1
78071,-100,4,2,1,55,0,1
78128,-100,4,2,1,55,0,1
78943,-100,4,2,1,55,0,0
87723,-133.333333333333,4,2,1,55,0,0
88398,-133.333333333333,4,2,1,20,0,0
88455,-133.333333333333,4,2,1,20,0,0
88490,-133.333333333333,4,2,1,45,0,0
88547,-133.333333333333,4,2,1,45,0,0
88673,-133.333333333333,4,2,1,30,0,0
88730,-133.333333333333,4,2,1,30,0,0

[Colours]
Combo1 : 160,97,244
Combo2 : 243,83,243

[HitObjects]
81,169,102,6,0,B|127:200|127:200|198:169,1,100,4|0,0:0|0:0,0:0:0:0:
185,49,467,2,0,B|139:18|139:18|68:49,1,100,8|0,1:2|3:0,0:0:0:0:
262,155,833,5,0,1:0:0:0:
392,114,1016,1,0,0:0:0:0:
257,71,1199,5,8,1:2:0:0:
185,49,1382,1,0,3:0:0:0:
278,229,1565,6,0,B|343:209|343:209|418:261,1,150,0|0,1:2|0:0,0:0:0:0:
430,273,1931,1,8,1:2:0:0:
292,115,2114,2,0,L|307:54,1,50,0|0,3:0|0:0,0:0:0:0:
188,159,2297,5,8,0:0:0:0:
180,152,2388,2,0,L|194:229,1,50,8|0,0:0|0:0,0:0:0:0:
87,375,2571,1,0,1:0:0:0:
95,382,2662,2,0,L|81:305,1,50,8|0,0:0|0:0,0:0:0:0:
137,267,2845,6,0,P|201:282|291:306,1,150,4|0,1:0|0:0,0:0:0:0:
291,322,3211,1,0,3:1:0:0:
434,233,3394,5,8,0:1:0:0:
364,258,3577,1,0,3:0:0:0:
463,338,3760,6,0,P|445:283|355:260,1,150,0|0,3:1|0:0,0:0:0:0:
323,328,4126,2,0,P|349:368|408:378,1,100,8|0,0:1|1:0,0:0:0:0:
391,169,4492,6,0,P|371:87|357:7,1,150,0|0,3:1|0:0,0:0:0:0:
359,22,4858,2,0,P|315:32|254:45,1,100,8|0,0:1|0:0,0:0:0:0:
16,171,5223,5,4,1:3:0:0:
84,209,5406,1,0,1:0:0:0:
150,169,5589,1,8,1:2:0:0:
6,13,5772,6,0,P|56:41|82:129,1,150,4|0,0:0|0:0,0:0:0:0:
82,125,6138,2,0,L|133:107,1,50,2|0,3:1|0:0,0:0:0:0:
262,229,6321,1,8,0:1:0:0:
192,256,6504,1,0,3:0:0:0:
420,324,6687,6,0,B|434:283|456:258|456:258|432:247|394:217,1,150,0|0,3:1|0:0,0:0:0:0:
373,203,7053,1,8,0:1:0:0:
366,24,7236,2,0,P|373:52|381:74,1,50,0|0,1:0|0:0,0:0:0:0:
387,89,7419,6,0,B|303:61|317:113|231:109,1,150,0|0,3:1|0:0,0:0:0:0:
230,105,7784,1,8,0:1:0:0:
99,66,7967,1,0,3:0:0:0:
7,151,8150,1,8,0:0:0:0:
30,143,8241,1,8,1:2:0:0:
48,126,8332,1,8,0:0:0:0:
184,5,8516,2,0,L|173:60,1,50,8|0,3:2|0:0,0:0:0:0:
229,190,8699,6,0,L|259:341,1,150,4|0,0:0|0:0,0:0:0:0:
244,356,9065,1,0,3:1:0:0:
420,226,9248,2,0,P|375:229|326:261,1,100,8|0,0:1|3:0,0:0:0:0:
302,53,9614,6,0,P|339:90|438:114,1,150,0|0,3:1|0:0,0:0:0:0:
431,114,9980,1,8,0:1:0:0:
302,53,10162,1,0,3:0:0:0:
241,99,10345,6,0,P|164:123|93:145,1,150,0|0,3:1|0:0,0:0:0:0:
97,143,10711,2,0,P|117:200|128:249,1,100,8|0,0:1|0:0,0:0:0:0:
327,360,11077,5,4,1:3:0:0:
299,288,11260,1,0,1:0:0:0:
227,317,11443,1,8,1:2:0:0:
449,93,11626,6,0,P|414:150|281:189,1,200,4|0,0:0|3:1,0:0:0:0:
218,167,12083,1,0,0:0:0:0:
207,163,12175,1,8,0:0:0:0:
367,272,12358,1,0,3:0:0:0:
177,356,12541,5,0,3:1:0:0:
220,295,12723,1,0,0:0:0:0:
281,338,12906,2,0,L|351:355,2,50,8|0|0,0:1|0:0|3:0,0:0:0:0:
123,195,13272,6,0,L|9:222,1,100,0|0,1:0|3:0,0:0:0:0:
169,127,13638,1,8,1:2:0:0:
260,224,13821,1,8,0:0:0:0:
260,224,13912,1,8,1:2:0:0:
309,220,14003,1,0,1:0:0:0:
354,241,14094,1,0,1:0:0:0:
393,272,14186,1,8,1:2:0:0:
441,284,14277,1,0,1:0:0:0:
451,280,14370,2,0,L|461:231,1,50,0|0,1:0|0:0,0:0:0:0:
507,169,14553,6,0,B|415:165|455:217|359:228,1,160,4|0,0:0|3:0,0:0:0:0:
290,213,15101,1,8,0:0:0:0:
377,327,15284,2,0,L|430:342,2,40,0|0|8,0:0|0:0|0:3,0:0:0:0:
311,284,15650,2,0,P|268:311|275:383,1,120,0|0,3:0|0:0,0:0:0:0:
281,363,16016,1,0,1:0:0:0:
208,259,16199,6,0,P|142:232|98:152,1,160,0|8,3:0|0:1,0:0:0:0:
98,157,16748,1,0,3:0:0:0:
7,288,16931,1,0,3:0:0:0:
96,301,17114,2,0,L|14:322,1,80,8|0,0:1|3:0,0:0:0:0:
182,178,17480,1,0,1:0:0:0:
257,197,17662,6,0,L|339:218,1,80,0|0,3:1|3:0,0:0:0:0:
502,360,18028,2,0,P|452:350|404:256,1,160,8|0,0:1|3:0,0:0:0:0:
466,64,18577,2,0,B|470:132|425:111|413:177,1,120,8|0,3:0|0:0,0:0:0:0:
426,186,18943,1,0,1:0:0:0:
358,91,19126,6,0,L|338:-3,1,80,0|0,3:0|3:0,0:0:0:0:
301,148,19492,1,8,0:1:0:0:
343,214,19675,2,0,L|334:253,2,40,0|0|0,3:0|0:0|3:0,0:0:0:0:
209,68,20041,5,8,0:1:0:0:
79,131,20223,1,0,3:0:0:0:
146,174,20406,1,0,1:0:0:0:
22,23,20589,6,0,L|4:112,1,80,0|0,3:0|3:0,0:0:0:0:
6,101,20955,1,8,0:0:0:0:
96,308,21138,2,0,L|80:229,1,80,0|0,3:0|3:0,0:0:0:0:
17,349,21504,2,0,B|125:332|84:379|183:379,1,160,0|0,1:0|3:0,0:0:0:0:
297,278,22053,5,0,3:0:0:0:
226,253,22236,1,0,3:0:0:0:
376,180,22419,1,8,0:1:0:0:
435,229,22601,2,0,L|454:321,2,80,0|0|8,3:0|3:0|0:1,0:0:0:0:
309,133,23150,1,0,3:0:0:0:
357,15,23333,2,0,L|347:61,1,40,0|0,1:1|0:0,0:0:0:0:
347,70,23516,6,0,P|273:47|190:24,1,160,0|8,3:0|0:0,0:0:0:0:
129,68,24065,1,0,0:0:0:0:
3,151,24248,2,0,P|40:139|81:128,1,80,8|0,3:0|3:0,0:0:0:0:
79,128,24797,1,2,0:0:0:0:
183,194,24980,6,0,P|220:205|261:217,1,80,0|0,3:0|3:0,0:0:0:0:
360,327,25345,1,12,0:0:0:0:
458,262,25528,1,8,0:0:0:0:
439,268,25619,1,8,0:0:0:0:
420,275,25710,1,0,3:0:0:0:
203,331,25894,5,8,0:0:0:0:
287,363,26077,1,0,1:0:0:0:
203,331,26260,1,0,3:0:0:0:
89,368,26443,6,0,P|108:282|126:208,1,160,4|8,3:2|0:0,0:0:0:0:
81,151,26992,1,0,1:0:0:0:
81,151,27358,1,0,3:0:0:0:
130,5,27541,2,0,P|143:61|158:121,1,120,0|0,0:1|0:0,0:0:0:0:
158,121,27906,6,0,P|200:134|233:166,1,80,0|0,3:0|3:0,0:0:0:0:
454,121,28272,2,0,P|386:135|297:187,1,160,8|0,0:0|3:0,0:0:0:0:
227,333,28821,2,0,P|236:288|244:255,1,80,8|0,0:1|3:0,0:0:0:0:
227,333,29187,1,0,1:0:0:0:
211,78,29370,6,0,P|220:116|227:156,1,80,0|0,3:0|3:0,0:0:0:0:
90,7,29736,2,0,P|71:84|56:163,1,160,8|0,0:0|3:0,0:0:0:0:
4,294,30284,2,0,P|36:275|61:235,1,80,0|0,0:0|0:0,0:0:0:0:
59,240,30650,1,0,1:1:0:0:
257,348,30833,6,0,P|215:318|197:241,1,120,0|0,3:0|0:0,0:0:0:0:
195,254,31199,1,8,0:1:0:0:
123,331,31382,2,0,L|71:344,2,40,0|0|0,3:0|1:0|3:1,0:0:0:0:
278,199,31748,2,0,L|362:220,1,80,8|0,0:0|3:1,0:0:0:0:
424,183,32114,1,0,1:0:0:0:
510,324,32297,6,0,B|472:317|472:317|432:341,1,80,4|0,3:2|0:0,0:0:0:0:
361,339,32662,2,0,B|251:333|296:373|201:378,1,160,8|0,0:0|3:0,0:0:0:0:
143,348,33211,1,0,1:0:0:0:
143,348,33577,1,0,3:0:0:0:
52,232,33760,6,0,L|75:315,2,80,0|0|8,3:0|3:0|0:0,0:0:0:0:
166,159,34309,1,0,3:0:0:0:
94,127,34492,1,0,3:0:0:0:
242,2,34675,2,0,P|226:47|161:77,1,120,8|0,0:1|0:0,0:0:0:0:
163,76,35041,1,0,1:1:0:0:
258,151,35223,6,0,P|295:171|328:289,1,160,4|8,3:2|0:0,0:0:0:0:
331,276,35772,1,0,0:1:0:0:
422,360,35955,1,8,3:0:0:0:
512,246,36138,2,0,P|466:265|439:297,1,80,0|0,3:1|0:0,0:0:0:0:
422,360,36504,1,0,3:1:0:0:
241,283,36687,6,0,B|317:277|295:313|370:315,1,120,0|0,1:0|0:0,0:0:0:0:
345,326,37053,1,8,0:1:0:0:
214,203,37236,1,0,3:0:0:0:
121,243,37419,5,8,0:0:0:0:
129,251,37510,1,8,1:2:0:0:
90,258,37601,1,0,1:0:0:0:
59,235,37692,1,0,1:0:0:0:
59,235,37784,2,0,L|71:191,1,40,8|0,3:2|1:0,0:0:0:0:
2,73,37967,2,0,L|12:110,1,40,0|0,1:0|1:0,0:0:0:0:
19,133,38150,6,0,P|70:107|95:29,1,134.999995880127,6|0,1:1|0:0,0:0:0:0:
95,37,38516,1,10,0:1:0:0:
229,101,38699,1,0,3:0:0:0:
198,31,38882,1,2,3:1:0:0:
95,195,39065,2,0,L|47:213,2,44.999998626709,0|0|8,3:0|0:0|0:0,0:0:0:0:
258,370,39431,6,0,B|246:288|209:338|212:247,1,134.999995880127,4|0,0:2|0:0,0:0:0:0:
196,241,39797,1,0,3:1:0:0:
299,113,39980,2,0,P|259:128|214:158,1,89.9999972534181,8|0,0:0|3:1,0:0:0:0:
22,236,40345,5,0,3:0:0:0:
90,270,40528,1,0,1:0:0:0:
3,356,40711,1,8,0:0:0:0:
3,356,40894,2,0,L|24:308,1,44.999998626709,0|0,3:1|0:0,0:0:0:0:
107,129,41077,6,0,P|74:180|-14:206,1,134.999995880127,6|0,1:1|0:0,0:0:0:0:
7,206,41443,1,10,0:1:0:0:
183,252,41626,1,0,3:0:0:0:
252,193,41809,1,2,3:1:0:0:
326,222,41992,2,0,L|352:314,1,89.9999972534181,0|8,3:0|0:0,0:0:0:0:
124,173,42358,6,0,L|172:0,1,179.999994506836,4|0,0:2|3:1,0:0:0:0:
61,222,42906,1,8,0:0:0:0:
121,267,43089,2,0,L|133:310,1,44.999998626709,0|0,3:1|0:0,0:0:0:0:
24,372,43272,1,0,3:0:0:0:
30,350,43363,1,8,0:0:0:0:
37,329,43454,1,0,1:0:0:0:
181,381,43638,1,8,0:0:0:0:
324,329,43821,2,0,L|367:341,1,44.999998626709,0|0,3:1|0:0,0:0:0:0:
444,350,44004,6,0,B|369:338|387:372|297:377,1,134.999995880127,4|0,3:2|0:0,0:0:0:0:
297,363,44370,1,10,0:1:0:0:
464,266,44553,2,0,L|514:283,2,44.999998626709,0|0|0,3:0|0:0|3:0,0:0:0:0:
406,212,44919,1,2,3:1:0:0:
277,263,45101,1,8,0:0:0:0:
68,127,45284,6,0,P|153:148|208:218,1,179.999994506836,6|0,3:1|3:1,0:0:0:0:
390,117,45833,1,8,0:0:0:0:
327,67,46016,1,0,3:0:0:0:
316,147,46199,1,0,3:0:0:0:
400,38,46382,5,0,1:0:0:0:
264,18,46565,1,8,0:0:0:0:
208,144,46748,1,2,3:1:0:0:
6,25,46931,6,0,P|76:43|185:75,1,179.999994506836,4|8,1:2|0:0,0:0:0:0:
179,73,47480,1,2,3:1:0:0:
312,212,47662,2,0,P|268:223|225:235,1,89.9999972534181,0|2,3:0|3:1,0:0:0:0:
170,290,48028,1,8,0:0:0:0:
402,375,48211,6,0,B|376:270|461:290|430:185,1,179.999994506836,6|0,0:1|3:0,0:0:0:0:
389,145,48760,1,8,0:0:0:0:
502,23,48943,6,0,P|481:43|450:51,1,44.999998626709,0|0,1:0|0:0,0:0:0:0:
361,68,49126,1,8,0:0:0:0:
338,67,49217,1,8,1:2:0:0:
317,60,49308,1,0,1:0:0:0:
300,45,49400,1,0,1:0:0:0:
290,25,49492,1,8,3:2:0:0:
233,7,49583,1,0,1:0:0:0:
178,28,49674,1,0,1:0:0:0:
148,79,49766,1,0,1:0:0:0:
148,79,49858,6,0,B|182:173|114:146|145:243,1,150,4|0,0:0|0:0,0:0:0:0:
140,223,50223,1,8,0:0:0:0:
84,368,50406,2,0,L|37:384,2,50,0|0|0,1:1|0:0|3:0,0:0:0:0:
283,322,50772,1,0,1:1:0:0:
214,293,50955,1,8,0:0:0:0:
375,110,51138,6,0,P|310:195|212:212,1,200,6|0,1:0|3:1,0:0:0:0:
375,110,51687,2,0,P|425:127|488:147,1,100,8|0,0:0|0:1,0:0:0:0:
304,28,52053,1,0,3:0:0:0:
231,45,52236,1,0,3:1:0:0:
305,57,52419,1,8,0:0:0:0:
158,7,52601,2,0,L|97:24,1,50,2|0,1:0|0:0,0:0:0:0:
26,33,52784,6,0,B|96:58|96:58|74:185,1,200,4|8,0:1|0:1,0:0:0:0:
74,181,53516,1,0,3:1:0:0:
212,340,53699,1,2,3:1:0:0:
194,266,53882,1,8,0:0:0:0:
3,355,54065,6,0,P|84:329|116:261,1,150,6|0,1:0|0:0,0:0:0:0:
107,259,54431,2,0,L|124:208,1,50,0|0,3:1|0:0,0:0:0:0:
280,303,54614,1,8,0:1:0:0:
212,340,54797,1,0,3:1:0:0:
384,376,54980,5,2,3:1:0:0:
370,354,55071,1,0,1:0:0:0:
350,341,55162,1,0,3:1:0:0:
280,303,55345,1,10,0:1:0:0:
446,162,55528,1,2,1:0:0:0:
410,196,55619,1,8,0:3:0:0:
362,209,55711,6,0,P|377:128|392:46,1,150,6|0,0:1|0:0,0:0:0:0:
389,61,56077,1,8,0:0:0:0:
216,113,56260,1,0,1:0:0:0:
38,37,56443,1,0,3:0:0:0:
101,81,56626,2,0,P|110:130|119:179,1,100,2|8,1:1|0:0,0:0:0:0:
196,373,56992,6,0,B|179:284|230:313|223:211,1,150,6|0,1:0|0:0,0:0:0:0:
216,215,57358,1,0,3:1:0:0:
357,282,57541,1,8,0:0:0:0:
415,231,57723,1,0,0:1:0:0:
307,91,57906,1,0,3:0:0:0:
250,142,58088,1,0,3:1:0:0:
323,167,58272,1,8,0:0:0:0:
234,66,58455,1,2,1:0:0:0:
147,174,58638,6,0,L|0:218,1,150,4|0,0:0|0:0,0:0:0:0:
3,217,59004,1,8,0:0:0:0:
154,324,59187,1,2,0:1:0:0:
90,372,59370,1,0,3:0:0:0:
0,294,59553,2,0,L|65:313,2,50,2|0|8,3:1|0:0|0:1,0:0:0:0:
241,65,59919,6,0,P|209:121|82:172,1,200,6|0,1:0|3:1,0:0:0:0:
16,160,60376,1,0,0:0:0:0:
4,154,60467,1,8,0:0:0:0:
173,265,60650,1,0,1:0:0:0:
15,362,60833,5,8,0:0:0:0:
20,337,60924,1,8,1:2:0:0:
35,318,61015,1,0,1:0:0:0:
57,307,61107,1,0,1:0:0:0:
82,306,61199,1,8,3:2:0:0:
144,289,61290,1,0,1:0:0:0:
173,231,61381,1,0,1:0:0:0:
150,170,61473,1,0,1:0:0:0:
150,170,61565,6,0,P|72:146|-11:123,1,150,4|0,0:0|0:0,0:0:0:0:
6,127,61931,1,8,0:0:0:0:
177,78,62114,2,0,L|242:58,2,50,0|0|0,1:0|0:0|3:0,0:0:0:0:
321,193,62480,1,0,0:1:0:0:
255,150,62662,1,8,0:0:0:0:
417,92,62845,6,0,B|352:122|352:122|390:268,1,200,6|0,1:0|3:1,0:0:0:0:
417,92,63394,2,0,P|366:80|319:65,1,100,8|0,0:0|3:0,0:0:0:0:
153,167,63760,1,0,3:0:0:0:
224,205,63943,1,0,3:1:0:0:
180,138,64126,1,8,0:0:0:0:
95,221,64309,2,0,L|42:239,1,50,2|0,1:0|0:0,0:0:0:0:
147,376,64492,6,0,B|154:269|242:325|223:201,1,200,4|8,0:0|0:0,0:0:0:0:
223,204,65223,1,0,3:0:0:0:
380,338,65406,1,0,0:1:0:0:
307,312,65589,1,8,0:0:0:0:
469,128,65772,6,0,P|427:187|300:228,1,200,4|0,1:0|3:1,0:0:0:0:
237,212,66230,1,0,0:0:0:0:
223,204,66321,1,8,0:1:0:0:
385,314,66504,1,0,3:1:0:0:
245,373,66687,1,8,0:0:0:0:
248,348,66778,1,8,1:2:0:0:
259,326,66870,2,0,P|286:308|326:306,1,50,0|0,1:0|0:0,0:0:0:0:
456,172,67053,1,12,3:2:0:0:
435,216,67144,1,0,1:0:0:0:
390,237,67235,1,0,1:0:0:0:
343,224,67327,1,0,1:0:0:0:
343,224,67419,6,0,L|308:55,1,150,6|0,0:1|0:0,0:0:0:0:
312,77,67784,1,10,0:1:0:0:
164,169,67967,1,0,0:1:0:0:
229,214,68150,1,0,3:0:0:0:
182,272,68333,2,0,P|135:294|101:336,1,100,0|8,0:1|0:0,0:0:0:0:
296,171,68699,6,0,P|389:202|444:284,1,200,6|0,1:1|3:1,0:0:0:0:
216,133,69248,1,8,0:1:0:0:
158,186,69431,2,0,L|109:202,2,50,0|0|0,0:1|0:0|3:0,0:0:0:0:
65,39,69797,2,0,L|195:81,1,100,0|8,3:1|0:0,0:0:0:0:
368,149,70162,2,0,L|303:170,1,50,2|0,1:0|0:0,0:0:0:0:
242,174,70345,6,0,P|256:123|270:75,1,100,4|0,0:0|0:0,0:0:0:0:
457,258,70711,2,0,B|367:263|399:300|295:320,1,150,8|0,0:1|0:0,0:0:0:0:
302,310,71077,1,0,0:0:0:0:
231,336,71260,1,0,1:1:0:0:
55,214,71443,1,8,0:1:0:0:
146,83,71626,6,0,B|121:145|121:145|156:198|156:198|128:262,1,200,6|0,1:0|3:1,0:0:0:0:
66,305,72084,1,0,0:0:0:0:
53,315,72175,1,10,0:1:0:0:
233,211,72358,1,0,3:1:0:0:
299,257,72541,1,10,0:1:0:0:
322,265,72632,1,0,1:0:0:0:
346,273,72723,1,0,3:0:0:0:
488,196,72906,1,10,0:1:0:0:
436,86,73089,2,0,L|422:150,1,50,2|0,1:0|0:0,0:0:0:0:
427,154,73272,6,0,L|400:0,1,150,4|0,0:0|0:0,0:0:0:0:
401,6,73638,6,0,P|344:20|287:29,1,100,8|0,0:0|3:0,0:0:0:0:
74,184,74004,6,0,P|131:170|188:161,1,100,2|0,1:0|0:0,0:0:0:0:
366,327,74370,6,0,P|357:277|345:229,1,100,10|0,1:1|3:0,0:0:0:0:
276,140,74736,5,2,1:0:0:0:
276,140,75101,5,2,1:0:0:0:
226,292,75284,1,0,3:0:0:0:
70,67,75467,5,4,1:3:0:0:
95,143,75650,1,0,1:0:0:0:
120,219,75833,1,8,1:2:0:0:
321,9,76016,6,0,P|238:27|190:143,1,200,4|0,0:0|3:0,0:0:0:0:
257,175,76565,1,10,0:1:0:0:
257,175,76931,1,2,1:0:0:0:
257,175,77297,1,10,0:1:0:0:
331,201,77480,1,0,3:0:0:0:
202,253,77662,5,2,1:0:0:0:
62,307,77845,1,0,3:0:0:0:
11,106,78028,5,10,1:1:0:0:
257,175,78211,1,0,3:0:0:0:
316,11,78394,5,8,0:0:0:0:
325,16,78486,1,8,1:2:0:0:
301,59,78577,1,0,1:0:0:0:
256,78,78669,1,0,1:0:0:0:
256,78,78760,2,0,P|218:95|178:105,1,50,8|8,3:2|0:0,0:0:0:0:
22,141,78943,6,0,L|192:178,1,150,4|0,1:0|0:0,0:0:0:0:
185,190,79309,1,0,3:1:0:0:
337,266,79492,1,8,0:1:0:0:
264,283,79675,1,0,0:0:0:0:
331,156,79858,6,0,B|429:159|387:195|495:206,1,150,0|0,3:0|0:0,0:0:0:0:
311,75,80223,2,0,P|261:85|194:99,1,100,8|0,0:0|1:0,0:0:0:0:
90,294,80589,6,0,P|104:220|120:147,1,150,0|0,3:0|0:0,0:0:0:0:
62,78,80955,2,0,B|26:115|26:115|32:187,1,100,8|0,0:0|3:1,0:0:0:0:
184,349,81321,5,4,1:3:0:0:
247,305,81504,1,0,1:0:0:0:
178,273,81687,1,8,1:2:0:0:
340,164,81870,6,0,L|195:199,1,150,4|0,0:0|0:0,0:0:0:0:
184,188,82236,2,0,L|205:130,1,50,0|0,3:1|0:0,0:0:0:0:
253,9,82419,1,8,0:1:0:0:
286,81,82601,1,0,3:0:0:0:
486,17,82784,6,0,P|409:47|368:126,1,150,0|0,3:1|0:0,0:0:0:0:
373,101,83150,1,8,0:1:0:0:
417,243,83333,2,0,P|449:262|481:270,1,50,0|0,1:0|0:0,0:0:0:0:
483,269,83516,6,0,L|328:305,1,150,0|0,3:1|0:0,0:0:0:0:
336,302,83882,1,8,0:1:0:0:
156,247,84065,1,0,3:0:0:0:
101,306,84248,1,8,0:1:0:0:
77,313,84339,1,8,1:2:0:0:
53,320,84430,1,8,0:0:0:0:
208,170,84614,2,0,L|264:186,1,50,8|0,3:2|0:0,0:0:0:0:
411,247,84797,6,0,B|355:275|355:275|389:403,1,150,4|0,0:0|0:0,0:0:0:0:
377,359,85162,1,0,3:1:0:0:
512,172,85345,2,0,P|457:165|407:149,1,100,8|0,0:1|3:0,0:0:0:0:
176,307,85711,6,0,P|248:289|323:281,1,150,0|0,3:1|0:0,0:0:0:0:
323,281,86077,1,8,0:1:0:0:
262,148,86260,2,0,L|247:207,1,50,0|0,3:0|0:0,0:0:0:0:
436,331,86443,5,0,1:0:0:0:
416,241,86626,5,0,3:0:0:0:
383,94,86809,5,8,1:2:0:0:
180,11,86992,5,8,0:0:0:0:
180,11,87084,1,8,1:2:0:0:
178,60,87175,1,0,1:0:0:0:
203,103,87266,1,0,1:0:0:0:
247,126,87358,1,8,1:2:0:0:
296,123,87449,1,0,1:0:0:0:
303,134,87541,2,0,L|287:209,1,50,0|0,1:0|3:0,0:0:0:0:
464,151,87723,6,0,B|284:90|357:288|139:240,1,337.500012874604,4|0,0:0|0:0,0:0:0:0:
164,244,88638,1,0,0:0:0:0:
164,244,88730,1,8,3:0:0:0:
