osu file format v14

[General]
AudioFilename: audio.mp3
AudioLeadIn: 0
PreviewTime: 50464
Countdown: 1
SampleSet: Normal
StackLeniency: 0.7
Mode: 0
LetterboxInBreaks: 0
WidescreenStoryboard: 0

[Editor]
Bookmarks: 49511,73291
DistanceSpacing: 1
BeatDivisor: 2
GridSize: 8
TimelineZoom: 1.5

[Metadata]
Title:PAPERMOON (TV Size)
TitleUnicode:PAPERMOON (TV Size)
Artist:Tommy Heavenly6
ArtistUnicode:Tommy Heavenly6
Creator:Ryuo
Version:Normal
Source:ソウルイーター
Tags:soul eater papermoon tommy heavenly tv size maka ソウルイーター
BeatmapID:1129837
BeatmapSetID:533306

[Difficulty]
HPDrainRate:4
CircleSize:3
OverallDifficulty:3
ApproachRate:5
SliderMultiplier:1
SliderTickRate:1

[Events]
//Background and Video events
0,0,"v6ZXtpx.jpg",0,0
//Break Periods
//Storyboard Layer 0 (Background)
//Storyboard Layer 1 (Fail)
//Storyboard Layer 2 (Pass)
//Storyboard Layer 3 (Foreground)
//Storyboard Sound Samples

[TimingPoints]
708,365.853658536585,4,1,0,100,1,0

[Colours]
Combo1 : 173,173,173
Combo2 : 200,0,0
Combo3 : 240,237,183
Combo4 : 0,187,94

[HitObjects]
64,64,708,6,0,P|64:128|96:160,1,100
176,96,1439,1,0,0:0:0:0:
272,96,1805,2,0,P|299:136|293:185,1,100
208,240,2537,1,0,0:0:0:0:
112,208,2903,2,0,P|168:104|208:72,1,150
272,112,3817,2,0,L|336:144,1,50
232,184,4366,2,0,L|128:184,1,100
208,248,5098,2,0,L|176:112,1,100
336,144,5829,1,0,0:0:0:0:
368,176,6012,1,0,0:0:0:0:
320,168,6195,1,0,0:0:0:0:
400,208,6378,2,0,L|272:288,1,150
160,240,7293,2,0,P|192:208|256:208,1,100
336,224,8025,2,0,P|360:180|364:131,1,100
304,48,8756,1,0,0:0:0:0:
208,80,9122,2,0,P|208:125|336:248,1,200
352,144,10220,6,0,P|416:144|448:176,1,100
480,256,10951,1,0,0:0:0:0:
384,304,11317,1,0,0:0:0:0:
352,208,11683,2,0,P|288:176|192:176,1,150
160,184,12415,5,0,0:0:0:0:
88,248,12781,1,0,0:0:0:0:
184,256,13147,2,0,L|272:176,1,100
320,352,13878,2,0,P|384:288|384:248,1,100
256,80,15159,2,0,P|160:144|256:336,1,350
336,320,16805,5,0,0:0:0:0:
368,224,17171,1,0,0:0:0:0:
336,128,17537,1,0,0:0:0:0:
256,64,17903,2,0,P|192:64|160:96,1,100
192,176,18634,2,0,P|192:240|160:272,1,100
96,80,19732,5,0,0:0:0:0:
176,144,20098,1,0,0:0:0:0:
96,208,20464,2,0,P|96:272|128:304,1,100
208,336,21195,2,0,P|304:335|365:260,1,200
416,176,22293,1,0,0:0:0:0:
320,128,22659,1,0,0:0:0:0:
128,176,23390,5,0,0:0:0:0:
160,272,23756,2,0,P|224:272|256:240,1,100
320,176,24488,1,0,0:0:0:0:
368,96,24854,2,0,P|336:64|272:64,1,100
192,80,25586,1,0,0:0:0:0:
192,176,25951,2,0,P|256:176|288:208,1,100
352,272,26683,6,0,B|384:240|384:176|384:176,1,100
384,80,27415,1,0,0:0:0:0:
288,96,27781,1,0,0:0:0:0:
192,144,28147,6,0,L|224:240,1,100
256,336,28878,1,0,0:0:0:0:
352,288,29244,1,0,0:0:0:0:
416,208,29610,2,0,L|256:144,1,150
176,192,30525,2,0,L|336:256,1,150
400,288,31439,5,0,0:0:0:0:
432,192,31805,1,0,0:0:0:0:
336,160,32171,1,0,0:0:0:0:
240,128,32537,1,0,0:0:0:0:
288,48,32903,2,0,P|352:176|256:304,1,300
192,240,34366,1,0,0:0:0:0:
424,336,35281,6,0,P|376:320|360:296,1,50
328,232,35829,2,0,L|288:176,1,50
248,184,36195,2,0,P|211:218|213:275,2,100
280,144,37110,2,0,L|296:96,3,50
336,64,37842,6,0,L|384:48,1,50
400,96,38207,6,0,L|400:152,1,50
400,200,38573,2,0,P|360:230|311:239,2,100
288,216,39671,5,0,0:0:0:0:
288,312,40037,2,0,P|359:310|402:294,1,100
384,200,40768,2,0,P|448:168|480:168,1,100
496,264,41500,2,0,P|496:328|464:360,1,100
288,288,42598,5,0,0:0:0:0:
208,224,42964,2,0,P|176:144|288:64,1,200
336,64,44061,5,0,0:0:0:0:
368,160,44427,2,0,P|208:160|112:96,1,250
208,48,45707,1,0,0:0:0:0:
304,80,46073,1,0,0:0:0:0:
128,256,46988,5,0,0:0:0:0:
144,160,47354,2,0,P|240:192|368:384,1,300
256,352,48817,2,0,P|160:288|128:192,1,200
160,176,49732,2,0,P|224:176|304:112,1,150
336,32,50647,5,0,0:0:0:0:
400,112,51012,1,0,0:0:0:0:
448,208,51378,1,0,0:0:0:0:
416,304,51744,2,0,P|352:272|320:240,1,100
272,176,52476,2,0,P|208:176|176:144,1,100
80,144,53207,2,0,P|80:208|112:240,1,100
288,176,54305,5,0,0:0:0:0:
352,256,54671,1,0,0:0:0:0:
288,336,55037,1,0,0:0:0:0:
192,304,55403,2,0,P|128:240|128:208,1,100
160,144,56134,2,0,P|224:144|256:176,1,100
448,208,57232,5,0,0:0:0:0:
368,288,57598,1,0,0:0:0:0:
272,320,57964,1,0,0:0:0:0:
192,256,58329,2,0,P|224:192|256:160,1,100
320,224,59061,2,0,P|384:160|320:64,1,200
244,60,60159,5,0,0:0:0:0:
160,112,60525,2,0,P|224:176|256:176,1,100
304,240,61256,2,0,P|336:176|336:144,1,100
256,96,61988,1,0,0:0:0:0:
256,96,62171,2,0,P|256:160|224:192,1,100
208,224,62720,2,0,P|240:256|304:256,1,100
384,240,63451,5,0,0:0:0:0:
432,160,63817,1,0,0:0:0:0:
352,96,64183,1,0,0:0:0:0:
256,96,64549,1,0,0:0:0:0:
240,192,64915,2,0,P|336:192|400:96,1,200
320,64,66012,1,0,0:0:0:0:
224,48,66378,2,0,P|128:48|64:144,1,200
96,224,67476,5,0,0:0:0:0:
160,304,67842,2,0,P|256:304|320:208,1,200
336,128,68939,1,0,0:0:0:0:
256,64,69305,2,0,P|188:131|210:245,1,200
288,272,70403,5,0,0:0:0:0:
384,256,70768,1,0,0:0:0:0:
416,160,71134,1,0,0:0:0:0:
368,64,71500,2,0,P|304:32|272:32,1,100
176,32,72232,2,0,P|48:64|16:224,1,300
160,256,73878,6,0,P|223:219|252:151,1,150
320,80,74793,1,0,0:0:0:0:
384,156,75159,1,0,0:0:0:0:
448,224,75525,2,0,L|448:0,1,200
352,32,76622,2,0,P|288:128|272:224,1,200
320,304,77720,6,0,L|416:240,2,100
224,272,78817,2,0,P|224:176|288:144,1,150
320,224,79732,2,0,P|391:236|416:64,1,300
320,48,81195,5,0,0:0:0:0:
240,96,81561,1,0,0:0:0:0:
160,144,81927,1,0,0:0:0:0:
208,224,82293,2,0,L|304:160,1,100
384,112,83025,5,0,0:0:0:0:
384,208,83390,1,0,0:0:0:0:
288,208,83756,1,0,0:0:0:0:
208,144,84122,2,0,L|112:208,1,100
160,288,84854,2,0,P|192:288|288:288,1,100
352,256,85586,2,0,P|352:192|320:160,1,100
240,144,86317,2,0,P|240:80|272:48,1,100
368,48,87049,5,0,0:0:0:0:
416,144,87415,1,0,0:0:0:0:
352,224,87781,2,0,P|306:269|261:269,1,100
256,192,88329,12,0,89427,0:0:0:0:
