osu file format v14

[General]
AudioFilename: audio.mp3
AudioLeadIn: 0
PreviewTime: 50883
Countdown: 1
SampleSet: Soft
StackLeniency: 0.7
Mode: 0
LetterboxInBreaks: 0
WidescreenStoryboard: 1

[Editor]
DistanceSpacing: 1
BeatDivisor: 4
GridSize: 32
TimelineZoom: 1.7

[Metadata]
Title:PAPERMOON (TV Size)
TitleUnicode:PAPERMOON (TV Size)
Artist:Tommy heavenly6
ArtistUnicode:Tommy heavenly6
Creator:Milan-
Version:Normal
Source:Soul Eater
Tags:kalibe japanese anime
BeatmapID:1985364
BeatmapSetID:601315

[Difficulty]
HPDrainRate:3
CircleSize:3
OverallDifficulty:3
ApproachRate:4
SliderMultiplier:0.9
SliderTickRate:1

[Events]
//Background and Video events
0,0,"aw.jpg",0,0
//Break Periods
//Storyboard Layer 0 (Background)
//Storyboard Layer 1 (Fail)
//Storyboard Layer 2 (Pass)
//Storyboard Layer 3 (Foreground)
//Storyboard Layer 4 (Overlay)
//Storyboard Sound Samples

[TimingPoints]
1219,365.853658536585,4,2,0,55,1,0
1219,-100,4,2,0,55,0,0
3962,-100,4,2,0,55,0,0
15670,-100,4,2,0,45,0,0
50975,-100,4,2,0,55,0,1
74755,-100,4,2,0,55,0,1
74855,-100,4,2,0,55,0,1
75487,-100,4,2,0,40,0,1
75587,-100,4,2,0,55,0,1
76218,-100,4,2,0,40,0,1
76318,-100,4,2,0,55,0,1
79145,-100,4,2,0,40,0,1
79245,-100,4,2,0,55,0,1
80060,-100,4,2,0,55,0,0
88840,-100,4,2,0,55,0,0
89572,-100,4,2,0,20,0,0
89664,-100,4,2,0,45,0,0
89847,-100,4,2,0,30,0,0

[Colours]
Combo1 : 103,129,231
Combo2 : 242,102,130

[HitObjects]
93,33,1219,5,0,1:0:0:0:
6,58,1584,1,0,1:0:0:0:
16,147,1950,1,0,1:0:0:0:
103,122,2315,1,0,1:0:0:0:
177,173,2682,1,0,1:0:0:0:
183,262,3048,6,0,B|241:267|272:242|272:242|286:276|286:276|341:300,1,180,0|0,1:0|1:0,0:0:0:0:
374,307,3962,5,4,1:0:0:0:
432,185,4511,1,0,1:0:0:0:
430,94,4877,1,2,0:0:0:0:
342,74,5243,1,0,1:0:0:0:
295,150,5609,1,2,0:0:0:0:
374,307,6340,2,0,L|422:300,2,45,0|0|0,1:0|1:0|1:0,0:0:0:0:
329,312,6889,5,4,1:0:0:0:
197,341,7438,1,0,1:0:0:0:
177,253,7804,1,2,0:0:0:0:
92,220,8170,1,0,1:0:0:0:
12,261,8536,1,2,0:0:0:0:
43,83,9267,2,0,L|24:35,2,45,0|0|0,1:0|1:0|1:0,0:0:0:0:
62,123,9816,5,4,1:0:0:0:
195,140,10365,1,0,1:0:0:0:
264,82,10731,1,2,0:0:0:0:
351,103,11097,1,0,1:0:0:0:
367,191,11462,1,2,0:0:0:0:
195,140,12194,2,0,L|138:121,2,45,0|0|0,1:0|1:0|1:0,0:0:0:0:
224,174,12743,5,4,0:0:0:0:
323,265,13292,1,0,1:0:0:0:
258,327,13658,1,2,0:0:0:0:
169,311,14023,1,0,1:0:0:0:
86,346,14389,2,0,P|48:287|114:209,1,180,0|0,1:0|1:0,0:0:0:0:
153,211,15304,1,0,1:0:0:0:
223,154,15670,5,4,1:0:0:0:
354,123,16218,1,0,1:0:0:0:
485,93,16767,1,4,0:3:0:0:
360,144,17316,5,2,0:0:0:0:
382,231,17682,1,2,1:2:0:0:
350,315,18048,1,0,0:0:0:0:
266,349,18414,1,0,0:0:0:0:
176,358,18779,6,0,L|37:333,1,135,4|0,1:0|0:0,0:0:0:0:
19,295,19511,2,0,L|46:151,1,135,8|4,0:3|0:3,0:0:0:0:
57,119,20243,1,2,0:2:0:0:
146,125,20609,1,2,1:2:0:0:
208,59,20975,1,0,0:0:0:0:
294,34,21340,1,2,0:2:0:0:
378,64,21706,5,4,1:0:0:0:
461,272,22621,1,4,0:3:0:0:
326,280,23170,1,2,0:2:0:0:
378,64,24084,2,0,P|397:112|387:169,1,90,2|0,1:2|0:0,0:0:0:0:
356,175,24633,6,0,L|208:162,1,135,4|8,1:0|0:3,0:0:0:0:
188,194,25365,2,0,L|-4:177,1,180,4|8,0:3|0:3,0:0:0:0:
0,88,26462,1,4,0:0:0:0:
131,59,27011,1,0,1:0:0:0:
263,32,27560,5,4,1:0:0:0:
336,93,27926,1,0,1:0:0:0:
336,93,28109,2,0,L|324:240,1,135,8|0,0:3|0:0,0:0:0:0:
333,317,29023,1,2,0:0:0:0:
420,337,29389,1,2,1:2:0:0:
469,261,29755,1,0,0:0:0:0:
408,193,30121,1,0,0:0:0:0:
325,227,30487,5,4,1:0:0:0:
206,292,31036,1,8,0:3:0:0:
206,292,31218,2,0,L|7:276,1,180,4|2,0:3|0:2,0:0:0:0:
8,189,32316,1,2,1:2:0:0:
63,118,32682,1,8,0:3:0:0:
150,95,33048,1,8,0:3:0:0:
234,126,33414,5,4,1:0:0:0:
427,11,34328,1,4,0:3:0:0:
473,88,34694,2,0,L|452:238,1,135,4|2,0:3|1:2,0:0:0:0:
352,311,35792,1,2,1:2:0:0:
274,265,36157,5,2,1:2:0:0:
274,265,36340,2,0,L|126:288,1,135,4|0,0:1|0:0,0:0:0:0:
56,319,37255,1,8,0:3:0:0:
13,239,37621,1,8,0:3:0:0:
102,137,38170,5,4,0:0:0:0:
189,159,38536,2,0,B|255:144|255:144|294:206,1,135,0|0,1:0|1:0,0:0:0:0:
311,240,39267,5,6,1:0:0:0:
490,104,40182,1,0,0:0:0:0:
435,32,40548,1,4,2:0:0:0:
346,13,40914,1,0,0:0:0:0:
270,61,41279,1,0,0:0:0:0:
179,61,41645,1,2,0:2:0:0:
101,14,42011,1,2,0:2:0:0:
101,14,42194,6,0,L|133:204,1,180,6|2,1:0|0:1,0:0:0:0:
90,320,43475,2,0,B|192:262|154:358|283:285,1,180,4|0,2:0|0:0,0:0:0:0:
329,237,44572,2,0,B|372:227|372:227|422:259,1,90,2|2,1:2|1:2,0:0:0:0:
448,276,45121,5,6,1:0:0:0:
448,50,46036,1,0,0:0:0:0:
360,70,46401,1,4,2:0:0:0:
345,339,47499,1,2,0:2:0:0:
263,301,47865,1,2,0:2:0:0:
263,301,48048,5,6,1:0:0:0:
122,125,48962,1,0,0:0:0:0:
55,185,49328,2,0,P|65:242|90:386,1,180,4|0,0:0|0:0,0:0:0:0:
130,370,50243,2,0,B|183:338|183:338|172:259,1,135,0|0,1:0|1:0,0:0:0:0:
162,221,50975,5,6,1:1:0:0:
188,88,51523,1,2,0:1:0:0:
273,117,51889,1,4,0:3:0:0:
364,109,52255,1,6,1:0:0:0:
433,166,52621,1,8,0:3:0:0:
443,255,52987,1,4,0:3:0:0:
373,311,53353,1,4,0:3:0:0:
284,298,53718,1,0,1:0:0:0:
284,298,53901,5,6,1:0:0:0:
160,109,54816,1,4,0:3:0:0:
88,163,55182,1,6,1:0:0:0:
101,251,55548,1,0,0:0:0:0:
180,293,55914,1,8,0:3:0:0:
180,293,56097,2,0,L|318:263,1,135,2|2,1:0|1:0,0:0:0:0:
355,254,56828,5,6,1:0:0:0:
438,45,57743,1,4,0:3:0:0:
369,103,58109,1,6,1:0:0:0:
278,100,58475,1,0,0:0:0:0:
213,37,58840,1,2,0:1:0:0:
123,25,59206,1,4,0:3:0:0:
45,70,59572,1,4,0:3:0:0:
45,70,59755,5,6,1:0:0:0:
11,292,60670,1,2,0:1:0:0:
96,265,61036,1,6,1:0:0:0:
255,347,61767,2,0,B|312:328|312:328|366:350|366:350|431:330,1,180,4|0,0:3|1:0,0:0:0:0:
466,314,62682,5,6,1:0:0:0:
497,182,63231,1,2,0:1:0:0:
422,132,63597,1,4,0:3:0:0:
417,42,63962,1,6,1:0:0:0:
332,9,64328,1,4,0:3:0:0:
273,77,64694,1,2,0:1:0:0:
184,92,65060,1,2,0:1:0:0:
199,184,65426,1,2,1:1:0:0:
199,184,65609,5,6,1:0:0:0:
41,344,66523,1,4,0:3:0:0:
114,292,66889,6,0,B|251:295|161:369|324:355,1,225,6|0,0:1|1:0,0:0:0:0:
343,318,67987,2,0,L|442:338,1,90,0|0,1:0|1:0,0:0:0:0:
475,343,68536,5,6,1:0:0:0:
476,118,69450,1,4,0:3:0:0:
439,35,69816,1,6,1:0:0:0:
168,28,70914,1,4,0:3:0:0:
98,85,71279,1,0,0:0:0:0:
98,85,71462,5,6,1:0:0:0:
119,218,72011,1,8,0:3:0:0:
146,350,72560,1,0,1:0:0:0:
146,350,72743,2,0,B|275:301|162:261|315:187,1,225,6|0,1:0|1:0,0:0:0:0:
322,159,73840,2,0,L|417:179,1,90,0|0,1:0|1:0,0:0:0:0:
454,187,74389,5,6,1:0:0:0:
462,97,74755,1,4,2:0:0:0:
407,25,75121,1,6,1:0:0:0:
317,22,75487,1,4,0:0:0:0:
236,62,75853,1,6,1:0:0:0:
146,68,76218,1,4,0:0:0:0:
70,19,76584,1,2,1:0:0:0:
92,152,77133,2,0,L|117:342,1,180,6|0,1:0|0:0,0:0:0:0:
125,374,78048,5,2,0:1:0:0:
214,378,78414,1,2,1:1:0:0:
289,329,78779,1,6,1:0:0:0:
310,241,79145,1,4,0:0:0:0:
294,152,79511,2,0,L|276:42,1,90,0|0,1:0|1:0,0:0:0:0:
271,18,80060,5,6,1:0:0:0:
397,64,80609,1,0,1:0:0:0:
485,45,80975,1,2,0:0:0:0:
484,134,81340,1,0,1:0:0:0:
396,155,81706,1,2,0:0:0:0:
350,232,82072,1,0,1:0:0:0:
425,281,82438,2,0,B|469:284|469:284|518:325,1,90,0|0,1:0|1:0,0:0:0:0:
504,358,82987,5,4,1:0:0:0:
370,378,83536,1,0,1:0:0:0:
300,321,83901,1,2,0:0:0:0:
213,297,84267,1,0,1:0:0:0:
126,323,84633,1,2,0:0:0:0:
36,319,84999,1,0,1:0:0:0:
20,230,85365,2,0,L|38:120,1,90,0|0,1:0|1:0,0:0:0:0:
47,97,85914,5,4,1:0:0:0:
171,45,86462,1,0,1:0:0:0:
224,117,86828,1,2,0:0:0:0:
309,146,87194,1,0,1:0:0:0:
398,142,87560,1,2,0:0:0:0:
470,89,87926,1,0,1:0:0:0:
470,89,88109,2,0,B|492:127|492:127|488:231,1,135,0|0,1:0|1:0,0:0:0:0:
488,263,88840,6,0,B|451:312|376:337|307:297|307:297|300:314|285:314|285:314|271:303|289:287,1,247.5,4|4,1:0|0:3,0:0:0:0:
