osu file format v14

[General]
AudioFilename: audio.mp3
AudioLeadIn: 0
PreviewTime: 10141
Countdown: 0
SampleSet: Soft
StackLeniency: 0.7
Mode: 0
LetterboxInBreaks: 0
WidescreenStoryboard: 0

[Editor]
DistanceSpacing: 1
BeatDivisor: 4
GridSize: 8
TimelineZoom: 1

[Metadata]
Title:Gabriel Drop Kick
TitleUnicode:ガヴリールドロップキック
Artist:Tomita Miyu, Onishi Saori, Ohzora Naomi, Hanazawa Kana
ArtistUnicode:富田美憂、大西沙織、大空直美、花澤香菜
Creator:wcx19911123
Version:Normal
Source:ガヴリールドロップアウト
Tags:Curisu yangzd88 Dropout Dropkick TV Size opening 天真 ガヴリール ホワイト Tenma White 月乃瀬 ヴィネット エイプリル Tsukinose Vignette April 胡桃沢 サタニキア マクドウェル Kurumizawa Satanichia McDowell 白羽 ラフィエル エインズワース Shiraha Raphiel Ainsworth
BeatmapID:1203160
BeatmapSetID:566465

[Difficulty]
HPDrainRate:3
CircleSize:3
OverallDifficulty:4
ApproachRate:5
SliderMultiplier:1.12
SliderTickRate:1

[Events]
//Background and Video events
Video,-150,"video.avi"
0,0,"bg.jpg",0,0
//Break Periods
//Storyboard Layer 0 (Background)
//Storyboard Layer 1 (Fail)
//Storyboard Layer 2 (Pass)
//Storyboard Layer 3 (Foreground)
//Storyboard Sound Samples

[TimingPoints]
231,357.142857142857,4,2,1,20,1,0
588,-100,4,2,1,40,0,0
945,-100,4,2,1,60,0,0
1302,-100,4,2,1,70,0,0
1659,-100,4,2,1,75,0,0
3088,-100,4,2,1,80,0,0
3802,-100,4,2,1,50,0,0
3980,-100,4,2,1,80,0,0
5230,-100,4,2,1,50,0,0
5409,-100,4,2,1,80,0,0
6659,-100,4,2,1,50,0,0
6838,-100,4,2,1,80,0,0
8802,-100,4,2,2,80,0,0
10230,357.142857142857,4,2,1,75,1,0
15229,-100,4,2,1,90,0,0
15854,-100,4,2,1,75,0,0
21658,-100,4,2,1,70,0,0
24515,-100,4,1,1,55,0,0
27372,-100,4,2,1,75,0,0
30229,-100,4,1,1,55,0,0
32372,-100,4,1,1,45,0,0
33087,-100,4,2,1,75,0,0
35944,-100,4,1,1,55,0,0
38801,-100,4,2,1,75,0,0
48801,-100,4,2,1,85,0,0
50229,-100,4,2,1,75,0,0
55944,-100,4,2,1,65,0,0
58444,-100,4,2,2,75,0,0
58802,357.142857142857,5,1,1,65,1,0
60409,357.142857142857,5,1,1,65,1,0
62016,357.142857142857,4,1,1,70,1,0
64516,357.142857142857,4,2,1,80,1,0
65766,-100,4,2,1,60,0,0
65944,357.142857142857,4,2,1,75,1,1
71122,-100,4,2,2,70,0,1
71569,-100,4,2,1,75,0,0
71658,-100,4,2,1,75,0,1
76836,-100,4,2,2,70,0,1
77194,-100,4,2,1,75,0,1
81658,-100,4,2,1,65,0,1
82372,-100,4,2,1,50,0,1
83088,357.142857142857,3,2,1,75,1,0
84159,-100,4,2,1,50,0,0
84516,-100,4,2,1,75,0,0
85230,-100,4,2,1,50,0,0
87641,-100,4,2,2,40,0,0

[Colours]
Combo1 : 211,41,46
Combo2 : 242,218,0
Combo3 : 73,45,85
Combo4 : 182,214,243

[HitObjects]
196,216,320,6,0,B|196:104|196:104|196:44|256:12|316:44|316:104|316:104|316:216,1,420,0|2,0:0|0:0,0:0:0:0:
376,312,2016,2,0,P|432:336|488:336,2,112,2|2|2,0:0|0:0|0:0,0:0:0:0:
448,224,3088,5,0,3:0:0:0:
448,112,3445,1,0,0:0:0:0:
360,40,3802,2,0,P|264:24|192:48,1,168,4|0,0:3|0:0,0:0:0:0:
248,144,4695,2,0,P|256:208|240:256,1,112,0|0,0:0|0:0,0:0:0:0:
208,296,5230,1,4,3:0:0:0:
96,312,5588,1,0,0:0:0:0:
32,224,5945,6,0,L|32:112,1,112,2|0,0:0|0:0,0:0:0:0:
120,40,6659,1,4,3:0:0:0:
136,152,7016,1,0,0:0:0:0:
208,240,7373,2,0,P|272:272|384:264,2,168,2|0|2,0:0|0:0|0:0,0:0:0:0:
136,152,8802,1,4,0:0:0:0:
464,32,10230,6,0,L|464:144,1,112,4|8,0:0|0:0,0:0:0:0:
464,256,10944,2,0,L|464:312,2,56,8|0|8,0:0|0:0|0:0,0:0:0:0:
360,208,11658,1,8,0:0:0:0:
248,224,12015,1,8,0:0:0:0:
152,280,12372,2,0,P|132:304|122:331,2,56,8|0|8,0:0|0:0|0:0,0:0:0:0:
232,360,13087,5,4,0:0:0:0:
344,344,13444,1,8,0:0:0:0:
416,256,13801,2,0,P|432:200|432:152,2,84,8|2|2,0:0|0:0|0:0,0:0:0:0:
360,248,14515,1,4,0:0:0:0:
248,240,14872,1,8,0:0:0:0:
312,152,15229,1,8,0:0:0:0:
312,152,15408,1,10,0:0:0:0:
312,152,15587,1,8,0:0:0:0:
240,64,15944,6,0,P|192:40|128:40,1,112,4|8,0:0|0:0,0:0:0:0:
56,120,16658,2,0,L|0:144,2,56,8|0|8,0:0|0:0|0:0,0:0:0:0:
144,192,17372,1,8,0:0:0:0:
240,256,17729,2,0,P|288:264|344:256,2,84,8|2|0,0:0|0:0|0:0,0:0:0:0:
184,272,18444,1,8,0:0:0:0:
88,328,18801,5,12,0:0:0:0:
88,216,19158,1,8,0:0:0:0:
88,104,19515,2,0,P|104:72|128:48,1,56,12|8,0:0|0:0,0:0:0:0:
168,32,19872,2,0,L|232:32,1,56,8|8,0:0|0:0,0:0:0:0:
280,32,20229,1,12,0:0:0:0:
392,32,20587,1,8,0:0:0:0:
504,32,20944,1,8,0:0:0:0:
472,256,21658,6,0,P|448:288|384:320,1,112,2|2,0:0|0:0,0:0:0:0:
272,328,22372,1,2,0:0:0:0:
176,272,22729,1,2,0:0:0:0:
272,216,23087,2,0,P|280:160|256:88,1,112,2|2,0:0|0:0,0:0:0:0:
224,72,23622,1,0,0:0:0:0:
176,48,23801,2,0,P|120:48|64:80,1,112,2|2,0:0|0:0,0:0:0:0:
40,184,24515,6,0,B|72:288|72:288|120:248,1,168,4|0,0:0|0:0,0:0:0:0:
176,240,25229,2,0,L|224:280,2,56,8|2|0,0:0|0:2|0:0,0:0:0:0:
136,200,25765,1,8,0:0:0:0:
176,96,26122,2,0,L|128:56,2,56,8|0|2,0:0|0:0|0:2,0:0:0:0:
220,132,26658,1,8,0:0:0:0:
304,208,27015,1,8,0:0:0:0:
392,280,27372,6,0,P|416:232|408:160,1,112,2|2,0:0|0:0,0:0:0:0:
352,80,28087,1,2,0:0:0:0:
240,64,28444,1,2,0:0:0:0:
136,104,28801,2,0,P|96:152|88:200,1,112,2|2,0:0|0:0,0:0:0:0:
100,256,29337,1,0,0:0:0:0:
140,296,29515,2,0,P|196:320|252:312,1,112,2|2,0:0|0:0,0:0:0:0:
336,248,30229,6,0,L|336:192,1,56,4|2,0:0|0:2,0:0:0:0:
384,88,30765,1,0,0:0:0:0:
424,128,30944,2,0,L|424:240,1,112,8|0,0:0|0:0,0:0:0:0:
464,280,31479,2,0,P|408:328|360:328,1,112,8|8,0:0|0:0,0:0:0:0:
316,336,32015,1,0,0:0:0:0:
200,336,32372,2,0,L|128:336,1,56,0|0,0:0|0:0,0:0:0:0:
104,296,32729,2,0,L|48:296,1,56,0|0,0:0|0:0,0:0:0:0:
8,256,33087,6,0,P|0:192|16:144,1,112,4|8,0:0|0:0,0:0:0:0:
96,72,33801,1,8,0:0:0:0:
168,160,34158,1,8,0:0:0:0:
272,208,34515,2,0,P|344:200|384:168,1,112,8|8,0:0|0:0,0:0:0:0:
416,136,35051,1,0,0:0:0:0:
432,192,35229,2,0,P|432:240|400:304,1,112,8|12,0:0|0:0,0:0:0:0:
296,328,35944,5,4,0:0:0:0:
296,328,36122,1,0,0:0:0:0:
184,328,36479,2,0,L|128:328,2,56,2|0|8,0:2|0:0|0:0,0:0:0:0:
208,280,37015,1,2,0:2:0:0:
232,232,37194,2,0,B|264:168|264:168|256:128,1,112,8|2,0:0|0:2,0:0:0:0:
240,72,37729,1,8,0:0:0:0:
136,32,38087,2,0,L|80:32,1,56,0|8,0:0|0:0,0:0:0:0:
48,80,38444,2,0,L|80:128,1,56,0|8,0:0|0:0,0:0:0:0:
120,168,38801,6,0,P|184:192|232:184,1,112,4|8,0:0|0:0,0:0:0:0:
272,160,39337,1,0,0:0:0:0:
320,128,39515,2,0,P|376:112|448:128,1,112,8|8,0:0|0:0,0:0:0:0:
496,208,40229,1,8,0:0:0:0:
448,312,40587,2,0,P|416:336|384:344,1,56,8|2,0:0|0:0,0:0:0:0:
344,336,40944,2,0,B|304:328|280:296|280:296|272:312|248:312,2,112,8|8|0,0:0|0:0|0:0,0:0:0:0:
360,320,44158,5,8,0:0:0:0:
360,320,44337,1,8,0:0:0:0:
360,320,44515,2,0,P|400:272|408:224,1,112,4|10,0:0|0:0,0:0:0:0:
400,168,45051,1,0,0:0:0:0:
368,120,45229,2,0,P|328:80|272:64,1,112,0|8,0:0|0:0,0:0:0:0:
168,88,45944,1,2,0:0:0:0:
248,168,46301,1,8,0:0:0:0:
288,272,46658,2,0,L|288:328,1,56,0|0,0:0|0:0,0:0:0:0:
240,360,47015,2,0,L|176:360,1,56,10|0,0:0|0:0,0:0:0:0:
144,320,47372,5,4,0:0:0:0:
184,216,47729,1,8,0:0:0:0:
184,216,47908,1,0,0:0:0:0:
184,216,48087,2,0,P|184:152|160:104,1,112,2|8,0:0|0:0,0:0:0:0:
64,56,48801,1,8,0:0:0:0:
16,160,49158,1,8,0:0:0:0:
112,232,49515,1,8,0:0:0:0:
112,232,49694,1,8,0:0:0:0:
112,232,49872,1,8,0:0:0:0:
112,232,50051,1,8,0:0:0:0:
152,272,50229,6,0,L|160:328,2,56,4|0|8,0:0|0:0|0:0,0:0:0:0:
224,184,50944,2,0,L|216:128,2,56,0|0|8,0:0|0:0|0:0,0:0:0:0:
296,272,51658,2,0,P|336:296|368:296,1,56,0|0,0:0|0:0,0:0:0:0:
400,296,52015,1,8,0:0:0:0:
488,224,52372,2,0,P|488:176|472:144,1,56,0|0,0:0|0:0,0:0:0:0:
456,120,52729,1,8,0:0:0:0:
368,48,53087,6,0,L|304:48,1,56,8|2,0:0|0:0,0:0:0:0:
256,48,53444,1,8,0:0:0:0:
144,56,53801,2,0,P|112:72|88:88,1,56,8|2,0:0|0:0,0:0:0:0:
60,128,54158,1,8,0:0:0:0:
44,236,54515,1,10,0:0:0:0:
44,236,54694,1,2,0:0:0:0:
44,236,54872,1,8,0:0:0:0:
96,336,55229,1,8,0:0:0:0:
96,336,55408,1,2,0:0:0:0:
96,336,55587,1,8,0:0:0:0:
204,352,55944,6,0,P|264:328|304:280,1,112,4|8,0:0|0:0,0:0:0:0:
312,240,56479,1,2,0:0:0:0:
320,184,56658,2,0,L|320:128,2,56,8|0|8,0:0|0:0|0:0,0:0:0:0:
416,240,57372,2,0,L|416:112,1,112,12|8,0:0|0:0,0:0:0:0:
400,76,57908,2,0,P|360:40|280:40,1,112,2|0,0:0|0:0,0:0:0:0:
256,60,58444,1,8,0:0:0:0:
176,136,58801,6,0,L|64:152,1,112,4|0,0:0|0:0,0:0:0:0:
40,200,59337,2,0,L|56:312,1,112
104,336,59873,2,0,L|216:320,1,112
248,272,60409,2,0,P|280:240|344:224,1,112,4|0,0:0|0:0,0:0:0:0:
356,168,60944,2,0,P|312:157|266:109,1,112
216,132,61480,2,0,P|228:175|210:239,1,112
160,264,62016,6,0,L|96:280,2,56,4|0|0,0:0|0:0|0:0,0:0:0:0:
112,232,62551,2,0,L|32:216,2,56
104,176,63087,1,0,0:0:0:0:
152,72,63444,2,0,P|192:48|216:48,1,56,4|0,0:0|0:0,0:0:0:0:
256,56,63801,2,0,P|280:80|288:112,1,56
264,152,64158,2,0,P|264:184|280:216,1,56
312,248,64516,2,0,B|328:288|328:320|328:320|408:296|424:208,1,224,2|2,0:0|0:0,0:0:0:0:
424,104,65587,5,8,0:0:0:0:
424,104,65766,1,8,0:0:0:0:
424,104,65944,2,0,P|384:64|328:40,1,112,4|8,0:0|0:0,0:0:0:0:
280,40,66479,1,0,0:0:0:0:
224,40,66658,2,0,P|160:56|112:96,1,112,0|8,0:0|0:0,0:0:0:0:
104,136,67194,1,0,0:0:0:0:
96,192,67372,2,0,L|96:304,1,112,4|8,0:0|0:0,0:0:0:0:
200,344,68086,2,0,P|256:320|288:272,1,112,0|8,0:0|0:0,0:0:0:0:
296,224,68622,1,0,0:0:0:0:
296,168,68801,5,0,0:0:0:0:
336,64,69158,2,0,P|384:96|408:160,1,112,0|2,0:0|0:0,0:0:0:0:
408,200,69694,2,0,L|408:264,1,56,8|8,0:0|0:0,0:0:0:0:
320,328,70229,2,0,P|352:356|408:368,2,84,8|8|8,0:0|0:0|0:0,0:0:0:0:
296,276,70944,1,8,0:0:0:0:
292,220,71122,2,0,L|292:156,1,56,8|8,0:0|0:0,0:0:0:0:
224,72,71658,6,0,B|184:48|184:48|112:48,1,112,4|8,0:0|0:0,0:0:0:0:
72,80,72194,1,0,0:0:0:0:
32,120,72372,2,0,B|32:184|32:184|64:224,1,112,0|8,0:0|0:0,0:0:0:0:
96,264,72908,1,0,0:0:0:0:
136,304,73086,2,0,B|200:304|200:304|248:280,1,112,4|8,0:0|0:0,0:0:0:0:
340,228,73801,2,0,B|340:164|340:164|364:116,1,112,0|8,0:0|0:0,0:0:0:0:
392,76,74336,1,0,0:0:0:0:
420,28,74515,5,0,0:0:0:0:
488,120,74872,2,0,L|488:240,1,112,0|2,0:0|0:0,0:0:0:0:
456,280,75408,2,0,L|456:336,1,56,8|8,0:0|0:0,0:0:0:0:
344,352,75944,2,0,L|240:352,2,84,8|8|8,0:0|0:0|0:0,0:0:0:0:
376,304,76658,1,8,0:0:0:0:
352,256,76836,2,0,L|328:200,1,56,8|8,0:0|0:0,0:0:0:0:
256,120,77372,6,0,P|208:112|160:120,2,84,4|2|0,0:0|0:0|0:0,0:0:0:0:
296,80,78086,1,2,0:0:0:0:
408,72,78444,2,0,P|440:80|472:96,1,56,8|2,0:0|0:0,0:0:0:0:
456,144,78801,2,0,P|488:192|496:240,2,84,4|2|0,0:0|0:0|0:0,0:0:0:0:
408,176,79515,1,2,0:0:0:0:
304,216,79872,2,0,P|272:216|240:208,1,56,8|2,0:0|0:0,0:0:0:0:
200,240,80229,6,0,P|128:224|96:192,1,112,12|8,0:0|0:0,0:0:0:0:
80,88,80944,2,0,P|120:40|176:16,1,112,12|8,0:0|0:0,0:0:0:0:
272,16,81658,2,0,L|328:16,1,56,8|0,0:0|0:0,0:0:0:0:
360,64,82015,2,0,L|328:112,1,56,8|8,0:0|0:0,0:0:0:0:
368,152,82372,2,0,P|392:176|400:208,1,56,8|8,0:0|0:0,0:0:0:0:
352,232,82729,2,0,P|328:256|320:288,1,56,8|8,0:0|0:0,0:0:0:0:
160,320,83445,6,0,P|88:280|56:240,2,112,2|0|4,0:0|0:0|0:3,0:0:0:0:
256,264,84516,2,0,L|392:288,2,112,2|0|4,0:0|0:0|0:3,0:0:0:0:
256,40,85945,1,4,0:3:0:0:
320,128,86302,2,0,B|320:248|320:248|320:312|256:344|192:312|192:248|192:248|192:128,1,448,4|4,0:3|0:0,0:0:0:0:
