osu file format v14

[General]
AudioFilename: audio.mp3
AudioLeadIn: 0
PreviewTime: 10141
Countdown: 0
SampleSet: Soft
StackLeniency: 0.7
Mode: 0
LetterboxInBreaks: 0
WidescreenStoryboard: 0

[Editor]
DistanceSpacing: 1
BeatDivisor: 4
GridSize: 8
TimelineZoom: 1

[Metadata]
Title:Gabriel Drop Kick
TitleUnicode:ガヴリールドロップキック
Artist:Tomita Miyu, Onishi Saori, Ohzora Naomi, Hanazawa Kana
ArtistUnicode:富田美憂、大西沙織、大空直美、花澤香菜
Creator:wcx19911123
Version:Insane
Source:ガヴリールドロップアウト
Tags:Curisu yangzd88 Dropout Dropkick TV Size opening 天真 ガヴリール ホワイト Tenma White 月乃瀬 ヴィネット エイプリル Tsukinose Vignette April 胡桃沢 サタニキア マクドウェル Kurumizawa Satanichia McDowell 白羽 ラフィエル エインズワース Shiraha Raphiel Ainsworth
BeatmapID:1201183
BeatmapSetID:566465

[Difficulty]
HPDrainRate:6
CircleSize:4
OverallDifficulty:8
ApproachRate:9
SliderMultiplier:1.92
SliderTickRate:1

[Events]
//Background and Video events
Video,-150,"video.avi"
0,0,"bg.jpg",0,0
//Break Periods
//Storyboard Layer 0 (Background)
//Storyboard Layer 1 (Fail)
//Storyboard Layer 2 (Pass)
//Storyboard Layer 3 (Foreground)
//Storyboard Sound Samples

[TimingPoints]
231,357.142857142857,4,2,1,20,1,0
588,-100,4,2,1,40,0,0
945,-100,4,2,1,60,0,0
1302,-100,4,2,1,70,0,0
1659,-100,4,2,1,75,0,0
3088,-100,4,2,1,80,0,0
3802,-100,4,2,1,50,0,0
3980,-100,4,2,1,80,0,0
5230,-100,4,2,1,50,0,0
5409,-100,4,2,1,80,0,0
6659,-100,4,2,1,50,0,0
6838,-100,4,2,1,80,0,0
8088,-100,4,2,1,50,0,0
8266,-100,4,2,1,70,0,0
8802,-100,4,2,2,80,0,0
9516,-200,4,2,0,70,0,0
10230,357.142857142857,4,2,1,75,1,0
15229,-100,4,2,1,90,0,0
15854,-100,4,2,1,75,0,0
21658,-100,4,2,1,70,0,0
24337,-100,4,2,1,45,0,0
24515,-100,4,1,1,55,0,0
27372,-100,4,2,1,75,0,0
30229,-100,4,1,1,55,0,0
32372,-100,4,1,1,45,0,0
33087,-100,4,2,1,75,0,0
35944,-100,4,1,1,55,0,0
38801,-100,4,2,1,75,0,0
48801,-100,4,2,1,85,0,0
50229,-100,4,2,1,75,0,0
55944,-100,4,2,1,65,0,0
58444,-100,4,2,2,75,0,0
58622,-100,4,2,1,65,0,0
58802,357.142857142857,5,1,1,65,1,0
60409,357.142857142857,5,1,1,65,1,0
62016,357.142857142857,4,1,1,70,1,0
64516,357.142857142857,4,2,1,80,1,0
65766,-100,4,2,1,60,0,0
65944,357.142857142857,4,2,1,75,1,1
71122,-100,4,2,2,70,0,1
71569,-100,4,2,1,75,0,0
71658,-100,4,2,1,75,0,1
76836,-100,4,2,2,70,0,1
77194,-100,4,2,1,75,0,1
78444,-66.6666666666667,4,2,1,75,0,1
78801,-100,4,2,1,75,0,1
79872,-66.6666666666667,4,2,1,75,0,1
80586,-50,4,2,1,75,0,1
80944,-66.6666666666667,4,2,1,75,0,1
81301,-50,4,2,1,75,0,1
81658,-100,4,2,1,65,0,1
82372,-100,4,2,1,50,0,1
83088,357.142857142857,3,2,1,75,1,0
84159,-100,4,2,1,50,0,0
84516,-100,4,2,1,75,0,0
85230,-100,4,2,1,50,0,0
87641,-100,4,2,2,40,0,0

[Colours]
Combo1 : 211,41,46
Combo2 : 242,218,0
Combo3 : 73,45,85
Combo4 : 182,214,243

[HitObjects]
76,120,320,6,0,B|152:0|388:-24|404:172|256:256|108:172|124:-24|360:0|436:120,1,672
456,160,1659,6,0,L|472:208,2,48,2|0|0,0:0|0:0|0:0,0:0:0:0:
392,256,2016,2,0,L|392:304,2,48,2|0|0,0:0|0:0|0:0,0:0:0:0:
296,320,2373,2,0,L|272:376,2,48,2|0|0,0:0|0:0|0:0,0:0:0:0:
184,344,2730,2,0,L|136:376,2,48,2|0|0,0:0|0:0|0:0,0:0:0:0:
272,208,3088,6,0,P|264:152|232:112,1,96,0|0,3:0|0:0,0:0:0:0:
152,48,3445,1,0,0:0:0:0:
152,48,3623,1,0,0:0:0:0:
160,208,3802,2,0,P|136:256|96:288,1,96,4|0,0:3|0:0,0:0:0:0:
48,184,4159,1,0,0:0:0:0:
208,120,4338,6,0,P|256:120|304:144,1,96,0|2,0:0|0:0,0:0:0:0:
360,336,4695,2,0,B|328:272|360:216|360:216|392:192|392:160,1,192,0|0,0:0|0:0,0:0:0:0:
368,48,5230,1,4,3:0:0:0:
104,112,5588,1,0,0:0:0:0:
224,328,5945,6,0,P|208:280|176:248,1,96,2|0,0:0|0:0,0:0:0:0:
64,216,6302,1,0,0:0:0:0:
64,216,6480,1,0,0:0:0:0:
216,224,6659,2,0,P|264:216|304:192,1,96,4|0,3:0|0:0,0:0:0:0:
352,32,7016,2,0,P|360:88|384:128,1,96,0|0,0:0|0:0,0:0:0:0:
456,304,7373,6,0,B|464:248|432:200|432:200|468:176|472:132,1,192,2|0,0:0|0:0,0:0:0:0:
424,24,7909,1,0,0:0:0:0:
336,136,8088,2,0,P|232:152|144:112,1,192,4|2,3:0|0:0,0:0:0:0:
32,16,8802,5,4,0:0:0:0:
40,24,9516,2,0,L|80:192,1,168
96,256,10230,5,4,0:0:0:0:
152,152,10408,1,0,0:0:0:0:
208,48,10587,1,8,0:0:0:0:
208,48,10676,2,0,L|256:24,1,48,2|0,0:0|0:0,0:0:0:0:
344,136,10944,1,8,0:0:0:0:
432,64,11122,1,0,0:0:0:0:
304,152,11301,1,8,0:0:0:0:
344,136,11390,2,0,P|352:192|344:248,1,96,2|0,0:0|0:0,0:0:0:0:
320,296,11658,5,8,0:0:0:0:
320,296,11747,1,0,0:0:0:0:
56,344,12015,1,8,0:0:0:0:
104,224,12194,1,2,0:0:0:0:
104,224,12283,1,0,0:0:0:0:
104,224,12372,2,0,P|104:168|88:120,1,96,8|0,0:0|0:0,0:0:0:0:
264,16,12730,2,0,P|248:64|248:112,1,96,8|2,0:0|0:0,0:0:0:0:
280,184,12997,5,0,0:0:0:0:
280,184,13087,1,4,0:0:0:0:
280,184,13176,2,0,L|312:232,2,48,0|2|0,0:0|0:0|0:0,0:0:0:0:
232,256,13444,1,8,0:0:0:0:
232,256,13533,1,0,0:0:0:0:
232,256,13622,2,0,L|216:320,1,48,2|0,0:0|0:0,0:0:0:0:
288,352,13801,1,8,0:0:0:0:
288,352,13890,1,0,0:0:0:0:
288,352,13979,2,0,L|336:328,2,48,0|2|8,0:0|0:0|0:0,0:0:0:0:
128,336,14337,5,2,0:0:0:0:
96,320,14426,1,0,0:0:0:0:
64,304,14515,2,0,P|64:248|48:200,1,96,4|2,0:0|0:0,0:0:0:0:
64,88,14783,1,0,0:0:0:0:
80,120,14872,2,0,L|176:144,1,96,8|2,0:0|0:0,0:0:0:0:
448,192,15229,1,8,0:0:0:0:
248,56,15408,1,10,0:0:0:0:
280,304,15587,2,0,B|296:224|296:224|320:208|320:208|336:128,1,192,8|4,0:0|0:0,0:0:0:0:
168,32,16122,5,2,0:0:0:0:
296,224,16301,2,0,L|376:168,1,96,8|2,0:0|0:0,0:0:0:0:
144,136,16658,1,8,0:0:0:0:
296,48,16837,1,0,0:0:0:0:
176,248,17015,2,0,L|80:208,1,96,8|2,0:0|0:0,0:0:0:0:
184,344,17372,5,8,0:0:0:0:
184,344,17462,1,0,0:0:0:0:
448,112,17729,1,8,0:0:0:0:
312,96,17908,1,0,0:0:0:0:
312,96,17997,2,0,L|256:88,1,48,2|8,0:0|0:0,0:0:0:0:
208,152,18176,2,0,L|152:144,1,48,0|2,0:0|0:0,0:0:0:0:
8,128,18444,1,8,0:0:0:0:
168,48,18622,1,2,0:0:0:0:
144,232,18801,5,12,0:0:0:0:
144,232,18890,1,0,0:0:0:0:
144,232,18979,2,0,L|136:296,1,48,2|0,0:0|0:0,0:0:0:0:
232,352,19158,1,8,0:0:0:0:
232,352,19247,1,0,0:0:0:0:
232,352,19337,2,0,L|240:288,1,48,2|0,0:0|0:0,0:0:0:0:
256,192,19515,2,0,L|264:128,1,48,12|2,0:0|0:0,0:0:0:0:
360,64,19694,2,0,L|352:128,1,48,8|2,0:0|0:0,0:0:0:0:
336,240,19872,2,0,L|344:176,1,48,8|2,0:0|0:0,0:0:0:0:
280,16,20051,2,0,L|272:80,1,48,8|2,0:0|0:0,0:0:0:0:
168,208,20229,5,12,0:0:0:0:
488,128,20587,1,8,0:0:0:0:
144,80,20944,2,0,P|112:88|88:112,6,48,8|0|0|0|0|0|0,0:0|0:0|0:0|0:0|0:0|0:0|0:0,0:0:0:0:
160,192,21658,6,0,P|192:248|304:304,1,192,2|2,0:0|0:0,0:0:0:0:
416,304,22194,1,0,0:0:0:0:
288,200,22372,2,0,P|264:144|264:104,1,96,2|0,0:0|0:0,0:0:0:0:
464,64,22729,2,0,P|424:112|376:128,1,96,2|0,0:0|0:0,0:0:0:0:
144,96,23087,6,0,B|80:88|32:32|32:32|16:64|32:96,1,192,2|2,0:0|0:0,0:0:0:0:
120,288,23622,1,0,0:0:0:0:
182,191,23801,2,0,P|222:159|270:143,1,96,2|0,0:0|0:0,0:0:0:0:
448,160,24158,1,2,0:0:0:0:
448,160,24337,1,2,0:0:0:0:
264,88,24515,6,0,B|240:120|240:120|264:144|264:144|280:272,1,192,4|2,0:0|0:2,0:0:0:0:
296,376,25051,1,0,0:0:0:0:
168,200,25229,1,8,0:0:0:0:
72,264,25408,2,0,L|64:320,2,48,2|0|0,0:2|0:0|0:0,0:0:0:0:
224,80,25765,6,0,B|232:128|232:128|264:168,1,96,8|2,0:0|0:2,0:0:0:0:
344,248,26122,1,8,0:0:0:0:
336,88,26301,1,0,0:0:0:0:
184,232,26479,1,2,0:2:0:0:
416,192,26658,1,8,0:0:0:0:
416,192,26837,1,2,0:2:0:0:
240,48,27015,1,8,0:0:0:0:
120,88,27194,5,2,0:2:0:0:
120,88,27283,1,0,0:0:0:0:
120,88,27372,2,0,B|56:152|128:208|56:272,1,192,2|2,0:0|0:0,0:0:0:0:
200,160,27908,1,0,0:0:0:0:
312,128,28087,2,0,P|360:128|408:152,1,96,2|0,0:0|0:0,0:0:0:0:
360,328,28444,2,0,P|336:272|344:224,1,96,2|0,0:0|0:0,0:0:0:0:
448,96,28801,6,0,B|416:112|402:148|402:148|348:108|284:136,1,192,2|2,0:0|0:0,0:0:0:0:
216,224,29337,1,0,0:0:0:0:
24,280,29515,2,0,B|80:256|128:280|128:280|152:320|200:328,1,192,2|2,0:0|0:0,0:0:0:0:
240,328,29962,2,0,L|288:320,2,48,0|2|0,0:0|0:0|0:0,0:0:0:0:
360,208,30229,6,0,L|224:232,1,96,4|2,0:0|0:2,0:0:0:0:
168,160,30587,1,0,0:0:0:0:
48,232,30765,1,0,0:0:0:0:
48,232,30854,1,0,0:0:0:0:
48,232,30944,2,0,L|80:128,1,96,8|2,0:0|0:2,0:0:0:0:
40,32,31301,1,0,0:0:0:0:
136,264,31479,6,0,B|168:160|168:160|248:128,1,192,8|8,0:0|0:0,0:0:0:0:
360,104,32015,1,0,0:0:0:0:
472,72,32194,1,0,0:0:0:0:
440,184,32372,1,0,0:0:0:0:
440,184,32462,1,8,0:0:0:0:
440,184,32551,2,0,L|488:192,1,48,0|8,0:0|0:0,0:0:0:0:
336,216,32729,1,0,0:0:0:0:
336,216,32819,1,8,0:0:0:0:
336,216,32908,2,0,L|352:152,1,48,0|8,0:0|0:0,0:0:0:0:
248,176,33087,6,0,P|192:152|152:152,1,96,4|2,0:0|0:0,0:0:0:0:
48,192,33444,1,8,0:0:0:0:
16,304,33622,1,0,0:0:0:0:
158,201,33801,2,0,P|206:177|254:177,1,96,8|2,0:0|0:0,0:0:0:0:
360,208,34158,1,8,0:0:0:0:
432,296,34337,1,0,0:0:0:0:
328,96,34515,5,8,0:0:0:0:
248,176,34694,2,0,P|224:184|136:176,1,96,2|8,0:0|0:0,0:0:0:0:
48,128,35051,1,0,0:0:0:0:
88,296,35229,2,0,B|112:264|112:264|184:292|264:268,1,192,8|12,0:0|0:0,0:0:0:0:
360,208,35765,1,0,0:0:0:0:
472,352,35944,6,0,L|376:336,1,96,4|0,0:0|0:0,0:0:0:0:
288,200,36301,1,8,0:0:0:0:
128,264,36479,1,2,0:2:0:0:
128,264,36569,1,0,0:0:0:0:
128,264,36658,2,0,L|248:248,1,96,0|8,0:0|0:0,0:0:0:0:
376,104,37015,1,2,0:2:0:0:
112,160,37194,6,0,B|252:140|252:140|328:184,1,192,8|2,0:0|0:2,0:0:0:0:
392,232,37729,1,8,0:0:0:0:
392,232,37908,1,0,0:0:0:0:
376,104,38087,1,0,0:0:0:0:
304,264,38265,1,8,0:0:0:0:
176,112,38444,1,0,0:0:0:0:
352,24,38622,1,8,0:0:0:0:
232,192,38801,6,0,B|200:216|160:208|160:208|168:240|168:240|120:240|88:272,1,192,4|8,0:0|0:0,0:0:0:0:
176,112,39337,1,0,0:0:0:0:
328,184,39515,2,0,P|392:200|432:192,1,96,8|2,0:0|0:0,0:0:0:0:
248,304,39872,2,0,P|192:336|144:336,1,96,8|0,0:0|0:0,0:0:0:0:
48,320,40229,5,8,0:0:0:0:
16,208,40408,1,2,0:0:0:0:
168,232,40587,1,8,0:0:0:0:
56,104,40765,1,2,0:0:0:0:
272,24,40944,2,0,B|344:0|392:40|392:40|368:64|368:104,2,192,8|8|0,0:0|0:0|0:0,0:0:0:0:
264,32,44158,5,8,0:0:0:0:
256,64,44247,1,8,0:0:0:0:
248,96,44337,1,8,0:0:0:0:
240,128,44426,1,8,0:0:0:0:
232,160,44515,2,0,P|200:200|152:224,1,96,4|0,0:0|0:0,0:0:0:0:
88,232,44783,1,0,0:0:0:0:
88,232,44872,2,0,P|96:256|160:296,1,96,10|0,0:0|0:0,0:0:0:0:
224,272,45140,1,0,0:0:0:0:
224,272,45229,2,0,P|272:264|320:272,1,96,0|2,0:0|0:0,0:0:0:0:
376,320,45497,1,0,0:0:0:0:
376,320,45587,1,8,0:0:0:0:
464,88,45854,5,0,0:0:0:0:
464,88,45944,2,0,L|448:32,2,48,2|0|0,0:0|0:0|0:0,0:0:0:0:
304,144,46301,1,8,0:0:0:0:
304,144,46390,2,0,L|312:80,2,48,0|2|0,0:0|0:0|0:0,0:0:0:0:
232,184,46658,1,0,0:0:0:0:
232,184,46747,1,0,0:0:0:0:
232,184,46837,2,0,L|240:232,1,48,0|0,0:0|0:0,0:0:0:0:
184,288,47015,2,0,L|136:280,1,48,10|0,0:0|0:0,0:0:0:0:
56,296,47194,2,0,L|32:344,1,48,0|0,0:0|0:0,0:0:0:0:
16,232,47372,5,4,0:0:0:0:
3,200,47462,1,0,0:0:0:0:
0,166,47551,1,2,0:0:0:0:
9,133,47640,1,0,0:0:0:0:
26,104,47729,2,0,P|56:72|104:56,1,96,8|0,0:0|0:0,0:0:0:0:
336,192,48087,2,0,P|288:192|232:152,1,96,2|0,0:0|0:0,0:0:0:0:
200,104,48354,1,0,0:0:0:0:
200,104,48444,2,0,P|200:72|208:48,2,48,8|2|0,0:0|0:0|0:0,0:0:0:0:
328,280,48801,5,8,0:0:0:0:
472,40,49158,1,8,0:0:0:0:
224,224,49515,2,0,L|176:232,1,48,8|0,0:0|0:0,0:0:0:0:
72,296,49694,2,0,L|120:288,1,48,8|0,0:0|0:0,0:0:0:0:
120,168,49872,2,0,P|104:192|96:224,1,48,8|0,0:0|0:0,0:0:0:0:
176,352,50051,2,0,P|192:328|200:296,1,48,8|0,0:0|0:0,0:0:0:0:
192,152,50229,5,4,0:0:0:0:
176,56,50408,1,0,0:0:0:0:
80,72,50587,1,8,0:0:0:0:
96,168,50765,1,2,0:0:0:0:
256,264,50944,1,0,0:0:0:0:
312,344,51122,1,0,0:0:0:0:
216,352,51301,1,8,0:0:0:0:
256,264,51479,1,2,0:0:0:0:
440,152,51658,5,0,0:0:0:0:
400,64,51837,1,0,0:0:0:0:
440,152,52015,1,8,0:0:0:0:
440,152,52104,1,0,0:0:0:0:
440,152,52194,1,2,0:0:0:0:
192,88,52372,1,0,0:0:0:0:
192,88,52551,1,0,0:0:0:0:
192,88,52729,1,8,0:0:0:0:
192,88,52908,1,2,0:0:0:0:
56,248,53087,5,0,0:0:0:0:
56,248,53176,2,0,L|88:288,1,48,0|8,0:0|0:0,0:0:0:0:
136,344,53354,2,0,L|176:312,1,48
240,272,53622,1,8,0:0:0:0:
448,344,53801,1,0,0:0:0:0:
400,240,53979,1,8,0:0:0:0:
400,240,54069,1,0,0:0:0:0:
400,240,54158,1,2,0:0:0:0:
288,216,54337,1,8,0:0:0:0:
72,248,54515,5,2,0:0:0:0:
72,248,54604,1,0,0:0:0:0:
72,248,54694,2,0,L|56:200,1,48,8|0,0:0|0:0,0:0:0:0:
32,136,54872,1,2,0:0:0:0:
176,224,55051,1,8,0:0:0:0:
384,168,55229,1,2,0:0:0:0:
384,168,55319,1,0,0:0:0:0:
384,168,55408,2,0,L|416:120,1,48,8|2,0:0|0:0,0:0:0:0:
448,64,55587,1,10,0:0:0:0:
480,208,55765,1,8,0:0:0:0:
304,104,55944,6,0,B|264:80|256:24|256:24|248:80|208:104,1,192,4|8,0:0|0:0,0:0:0:0:
96,136,56479,1,2,0:0:0:0:
296,208,56658,2,0,P|344:240|368:280,1,96,8|0,0:0|0:0,0:0:0:0:
147,271,57015,2,0,P|175:232|216:208,1,96,8|2,0:0|0:0,0:0:0:0:
416,136,57372,5,12,0:0:0:0:
200,56,57551,1,0,0:0:0:0:
312,56,57729,1,8,0:0:0:0:
192,208,57908,2,0,P|153:232|97:240,1,96,2|8,0:0|0:0,0:0:0:0:
256,136,58265,1,0,0:0:0:0:
407,240,58444,2,0,P|360:232|320:208,1,96,8|2,0:0|0:0,0:0:0:0:
232,32,58801,5,4,0:0:0:0:
136,16,58980,1,0,0:0:0:0:
168,104,59159,1,0,0:0:0:0:
408,104,59337,1,0,0:0:0:0:
496,64,59516,1,0,0:0:0:0:
488,160,59694,1,0,0:0:0:0:
296,120,59873,1,0,0:0:0:0:
200,168,60052,1,0,0:0:0:0:
104,216,60230,1,0,0:0:0:0:
32,80,60409,5,4,0:0:0:0:
136,104,60587,1,0,0:0:0:0:
240,128,60766,1,0,0:0:0:0:
248,328,60944,1,0,0:0:0:0:
312,232,61123,1,0,0:0:0:0:
248,328,61301,1,0,0:0:0:0:
72,240,61480,1,0,0:0:0:0:
40,128,61659,1,0,0:0:0:0:
72,240,61837,1,0,0:0:0:0:
192,80,62016,5,4,0:0:0:0:
304,136,62194,1,0,0:0:0:0:
360,24,62373,1,0,0:0:0:0:
472,232,62551,1,0,0:0:0:0:
384,144,62730,1,0,0:0:0:0:
296,232,62908,1,0,0:0:0:0:
152,112,63087,1,0,0:0:0:0:
96,224,63266,1,0,0:0:0:0:
256,328,63444,5,4,0:0:0:0:
372,260,63623,1,0,0:0:0:0:
372,124,63801,1,0,0:0:0:0:
256,56,63980,1,0,0:0:0:0:
140,124,64158,1,0,0:0:0:0:
140,260,64337,1,0,0:0:0:0:
256,192,64516,5,0,0:0:0:0:
304,108,64694,1,0,0:0:0:0:
304,108,64783,1,0,0:0:0:0:
304,108,64873,1,2,0:0:0:0:
208,108,65051,1,0,0:0:0:0:
160,192,65230,1,0,0:0:0:0:
208,276,65408,1,2,0:0:0:0:
304,276,65587,1,8,0:0:0:0:
352,192,65766,5,8,0:0:0:0:
352,192,65855,1,8,0:0:0:0:
352,192,65944,2,0,P|400:160|488:160,1,144,4|0,0:0|0:0,0:0:0:0:
480,232,66301,2,0,P|448:253|389:253,1,96,8|0,0:0|0:0,0:0:0:0:
256,96,66658,2,0,B|208:144|272:184|216:232,1,144,0|0,0:0|0:0,0:0:0:0:
152,264,67015,1,8,0:0:0:0:
328,148,67194,1,0,0:0:0:0:
152,176,67372,6,0,P|96:168|64:144,1,96,4|2,0:0|0:0,0:0:0:0:
40,72,67640,1,0,0:0:0:0:
40,72,67729,2,0,P|96:48|144:48,1,96,8|0,0:0|0:0,0:0:0:0:
336,88,68086,1,0,0:0:0:0:
256,168,68265,1,2,0:0:0:0:
256,168,68354,1,0,0:0:0:0:
256,168,68444,1,8,0:0:0:0:
216,16,68622,1,0,0:0:0:0:
416,128,68801,5,0,0:0:0:0:
128,312,69158,2,0,B|200:296|248:352|320:336,1,192,0|2,0:0|0:0,0:0:0:0:
408,264,69694,1,8,0:0:0:0:
312,104,69872,1,8,0:0:0:0:
448,184,70051,5,0,0:0:0:0:
448,184,70140,1,0,0:0:0:0:
448,184,70229,2,0,P|488:224|480:320,2,144,8|8|8,0:0|0:0|0:0,0:0:0:0:
240,160,70944,1,8,0:0:0:0:
408,264,71122,2,0,P|360:288|304:288,1,96,8|8,0:0|0:0,0:0:0:0:
40,176,71658,6,0,B|80:192|80:192|184:184,1,144,4|0,0:0|0:0,0:0:0:0:
336,224,72015,2,0,L|240:232,1,96,8|0,0:0|0:0,0:0:0:0:
312,56,72372,2,0,P|400:56|448:88,1,144,0|0,0:0|0:0,0:0:0:0:
480,152,72729,1,8,0:0:0:0:
432,256,72908,1,0,0:0:0:0:
232,112,73086,6,0,L|136:120,1,96,4|2,0:0|0:0,0:0:0:0:
200,192,73354,1,0,0:0:0:0:
200,192,73444,2,0,P|144:208|104:240,1,96,8|0,0:0|0:0,0:0:0:0:
64,336,73801,1,0,0:0:0:0:
208,320,73979,1,2,0:0:0:0:
208,320,74069,1,0,0:0:0:0:
208,320,74158,1,8,0:0:0:0:
32,240,74336,1,0,0:0:0:0:
192,96,74515,5,0,0:0:0:0:
368,280,74872,2,0,B|400:320|400:320|408:176,1,192,0|2,0:0|0:0,0:0:0:0:
416,64,75408,1,8,0:0:0:0:
288,248,75586,1,8,0:0:0:0:
480,216,75765,5,0,0:0:0:0:
480,216,75854,1,0,0:0:0:0:
480,216,75944,2,0,L|472:376,2,144,8|8|8,0:0|0:0|0:0,0:0:0:0:
336,32,76658,1,8,0:0:0:0:
200,168,76836,2,0,P|256:160|296:128,1,96,8|8,0:0|0:0,0:0:0:0:
336,32,77194,1,0,0:0:0:0:
336,200,77372,6,0,P|272:240|168:240,1,144,4|0,0:0|0:0,0:0:0:0:
136,216,77729,1,8,0:0:0:0:
72,120,77908,1,0,0:0:0:0:
96,280,78086,2,0,P|144:312|184:320,1,96
56,304,78444,2,0,P|112:352|192:368,1,144.000005493164,8|2,0:0|0:0,0:0:0:0:
408,320,78801,5,4,0:0:0:0:
328,40,79069,1,0,0:0:0:0:
328,40,79158,1,8,0:0:0:0:
272,144,79336,1,0,0:0:0:0:
112,88,79515,2,0,B|64:104|64:104|40:152,1,96,0|0,0:0|0:0,0:0:0:0:
104,56,79872,2,0,B|32:80|32:80|0:152,1,144.000005493164,8|2,0:0|0:0,0:0:0:0:
224,320,80229,6,0,B|208:272|208:272|224:232|224:232|208:176,1,144.000005493164,12|0,0:0|0:0,0:0:0:0:
56,272,80586,2,0,B|120:280|120:280|144:228|144:228|120:148,1,192,8|0,0:0|0:0,0:0:0:0:
392,48,80944,2,0,B|424:72|424:112|424:112|392:136|384:176,1,144.000005493164,12|0,0:0|0:0,0:0:0:0:
496,256,81301,2,0,B|464:224|464:184|464:184|452:224|424:248|384:248,1,192,8|0,0:0|0:0,0:0:0:0:
160,104,81658,5,8,0:0:0:0:
160,104,81747,2,0,P|192:144|200:192,1,96,8|0,0:0|0:0,0:0:0:0:
200,264,82015,2,0,P|224:304|248:320,1,48,8|0,0:0|0:0,0:0:0:0:
304,320,82194,2,0,L|352:320,1,48,8|0,0:0|0:0,0:0:0:0:
416,272,82372,1,8,0:0:0:0:
424,240,82461,1,8,0:0:0:0:
432,208,82551,1,8,0:0:0:0:
440,176,82640,1,8,0:0:0:0:
392,168,82729,1,8,0:0:0:0:
362,152,82819,1,8,0:0:0:0:
337,129,82908,1,8,0:0:0:0:
322,99,82997,1,8,0:0:0:0:
312,104,83088,6,0,P|256:144|128:144,2,192,0|2|0,0:0|0:0|0:0,0:0:0:0:
280,304,84159,2,0,L|480:336,2,192,4|2|0,0:3|0:0|0:0,0:0:0:0:
48,336,85230,5,4,0:3:0:0:
440,112,85945,1,4,0:3:0:0:
448,264,86302,2,0,B|368:392|112:416|96:208|256:120|416:208|400:416|144:392|64:264,1,720,4|4,0:3|0:0,0:0:0:0:
