osu file format v14

[General]
AudioFilename: audio.mp3
AudioLeadIn: 0
PreviewTime: 10141
Countdown: 0
SampleSet: Soft
StackLeniency: 0.7
Mode: 0
LetterboxInBreaks: 0
WidescreenStoryboard: 0

[Editor]
DistanceSpacing: 1
BeatDivisor: 4
GridSize: 8
TimelineZoom: 1

[Metadata]
Title:Gabriel Drop Kick
TitleUnicode:ガヴリールドロップキック
Artist:Tomita Miyu, Onishi Saori, Ohzora Naomi, Hanazawa Kana
ArtistUnicode:富田美憂、大西沙織、大空直美、花澤香菜
Creator:wcx19911123
Version:Beginner
Source:ガヴリールドロップアウト
Tags:Curisu yangzd88 Dropout Dropkick TV Size opening 天真 ガヴリール ホワイト Tenma White 月乃瀬 ヴィネット エイプリル Tsukinose Vignette April 胡桃沢 サタニキア マクドウェル Kurumizawa Satanichia McDowell 白羽 ラフィエル エインズワース Shiraha Raphiel Ainsworth
BeatmapID:1203343
BeatmapSetID:566465

[Difficulty]
HPDrainRate:0
CircleSize:2
OverallDifficulty:0
ApproachRate:1
SliderMultiplier:0.64
SliderTickRate:1

[Events]
//Background and Video events
Video,-150,"video.avi"
0,0,"bg.jpg",0,0
//Break Periods
//Storyboard Layer 0 (Background)
//Storyboard Layer 1 (Fail)
//Storyboard Layer 2 (Pass)
//Storyboard Layer 3 (Foreground)
//Storyboard Sound Samples

[TimingPoints]
231,357.142857142857,4,2,1,20,1,0
588,-100,4,2,1,40,0,0
945,-100,4,2,1,60,0,0
1302,-100,4,2,1,70,0,0
1659,-100,4,2,1,75,0,0
3088,-100,4,2,1,80,0,0
3802,-100,4,2,1,50,0,0
3980,-100,4,2,1,80,0,0
5230,-100,4,2,1,50,0,0
5409,-100,4,2,1,80,0,0
6659,-100,4,2,1,50,0,0
6838,-100,4,2,1,80,0,0
8088,-100,4,2,1,50,0,0
8266,-100,4,2,1,80,0,0
8802,-100,4,2,2,80,0,0
10230,357.142857142857,4,2,1,75,1,0
15229,-100,4,2,1,90,0,0
15854,-100,4,2,1,75,0,0
21658,-100,4,2,1,70,0,0
24515,-100,4,1,1,55,0,0
27372,-100,4,2,1,75,0,0
30229,-100,4,1,1,55,0,0
33087,-100,4,2,1,75,0,0
35944,-100,4,1,1,55,0,0
38801,-100,4,2,1,75,0,0
48801,-100,4,2,1,85,0,0
50229,-100,4,2,1,75,0,0
55944,-100,4,2,1,65,0,0
58802,357.142857142857,5,1,1,65,1,0
60409,357.142857142857,5,1,1,65,1,0
62016,357.142857142857,4,1,1,70,1,0
64516,357.142857142857,4,2,1,75,1,0
65944,357.142857142857,4,2,1,75,1,1
71569,-100,4,2,1,75,0,0
71658,-100,4,2,1,75,0,1
81658,-100,4,2,1,65,0,1
83088,357.142857142857,3,2,1,75,1,0
84159,-100,4,2,1,50,0,0

[Colours]
Combo1 : 211,41,46
Combo2 : 242,218,0
Combo3 : 73,45,85
Combo4 : 182,214,243

[HitObjects]
144,80,320,6,0,P|256:44|368:80,1,240,0|2,0:0|0:0,0:0:0:0:
256,304,3088,6,0,P|192:296|136:264,2,128,0|4|0,3:0|0:3|0:0,0:0:0:0:
360,224,5230,1,4,3:0:0:0:
336,96,5945,6,0,P|264:56|216:56,2,128,2|4|2,0:0|3:0|0:0,0:0:0:0:
360,224,8088,1,4,0:3:0:0:
256,304,8802,1,4,0:0:0:0:
48,160,10230,6,0,P|72:80|120:40,1,128,4|8,0:0|0:0,0:0:0:0:
232,24,11658,2,0,L|376:24,1,128,8|8,0:0|0:0,0:0:0:0:
464,104,13087,6,0,P|480:160|464:240,1,128,4|8,0:0|0:0,0:0:0:0:
368,304,14515,1,4,0:0:0:0:
248,264,15229,1,8,0:0:0:0:
176,160,15944,6,0,P|104:152|40:176,1,128,4|8,0:0|0:0,0:0:0:0:
64,296,17372,2,0,P|136:304|200:280,1,128,8|8,0:0|0:0,0:0:0:0:
248,176,18801,5,12,0:0:0:0:
320,72,19515,1,12,0:0:0:0:
440,112,20229,2,0,L|480:176,2,64,12|8|8,0:0|0:0|0:0,0:0:0:0:
320,72,21658,6,0,P|240:64|176:88,1,128,2|2,0:0|0:0,0:0:0:0:
80,136,23087,2,0,P|124:188|192:208,1,128,2|2,0:0|0:0,0:0:0:0:
304,192,24515,6,0,B|368:184|368:184|432:208,1,128,4|8,0:0|0:0,0:0:0:0:
416,336,25944,2,0,B|352:344|352:344|288:320,1,128,0|8,0:0|0:0,0:0:0:0:
200,240,27372,6,0,P|120:224|56:240,1,128,2|2,0:0|0:0,0:0:0:0:
48,104,28801,2,0,P|120:128|184:120,1,128,2|2,0:0|0:0,0:0:0:0:
272,40,30229,6,0,L|304:176,1,128,4|8,0:0|0:0,0:0:0:0:
416,104,31658,2,0,L|448:240,1,128,0|8,0:0|0:0,0:0:0:0:
368,328,33087,6,0,P|288:344|232:328,1,128,4|8,0:0|0:0,0:0:0:0:
136,264,34515,1,8,0:0:0:0:
96,144,35229,1,8,0:0:0:0:
168,40,35944,6,0,B|232:32|232:32|304:64,1,128,4|8,0:0|0:0,0:0:0:0:
408,112,37372,1,0,0:0:0:0:
456,232,38087,1,8,0:0:0:0:
360,312,38801,6,0,P|280:320|232:304,1,128,4|8,0:0|0:0,0:0:0:0:
160,200,40229,1,8,0:0:0:0:
224,88,40944,2,0,P|288:64|360:72,1,128,8|0,0:0|0:0,0:0:0:0:
424,256,44515,6,0,P|368:312|312:328,1,128,4|8,0:0|0:0,0:0:0:0:
192,328,45944,2,0,L|64:328,1,128,2|8,0:0|0:0,0:0:0:0:
48,200,47372,6,0,P|96:152|160:136,1,128,4|10,0:0|0:0,0:0:0:0:
280,136,48801,1,8,0:0:0:0:
408,136,49515,2,0,L|480:136,2,64,8|8|4,0:0|0:0|0:0,0:0:0:0:
312,48,50944,5,8,0:0:0:0:
184,40,51658,2,0,P|112:48|64:88,1,128,0|8,0:0|0:0,0:0:0:0:
48,208,53087,5,8,0:0:0:0:
112,320,53801,1,8,0:0:0:0:
240,320,54515,2,0,P|296:288|328:232,1,128,10|10,0:0|0:0,0:0:0:0:
336,104,55944,5,4,0:0:0:0:
224,40,56658,2,0,P|144:32|88:56,2,128,8|12|8,0:0|0:0|0:0,0:0:0:0:
312,136,58801,6,0,L|400:320,1,192,4|0,0:0|0:0,0:0:0:0:
312,360,60409,2,0,P|216:360|136:312,1,192,4|0,0:0|0:0,0:0:0:0:
120,216,62016,6,0,L|120:80,2,128,4|0|4,0:0|0:0|0:0,0:0:0:0:
360,320,65944,6,0,P|416:264|432:200,1,128,4|8,0:0|0:0,0:0:0:0:
400,96,67372,1,4,0:0:0:0:
280,48,68086,2,0,P|208:56|152:96,1,128,8|0,0:0|0:0,0:0:0:0:
96,192,69515,5,2,0:0:0:0:
56,312,70229,2,0,L|192:288,1,128,8|8,0:0|0:0,0:0:0:0:
208,168,71658,6,0,P|224:120|280:64,1,128,4|8,0:0|0:0,0:0:0:0:
400,48,73086,1,4,0:0:0:0:
488,144,73801,2,0,P|504:208|480:288,1,128,8|0,0:0|0:0,0:0:0:0:
384,336,75229,5,2,0:0:0:0:
256,304,75944,2,0,L|256:168,1,128,8|8,0:0|0:0,0:0:0:0:
168,80,77372,6,0,P|104:88|56:128,1,128,4|10,0:0|0:0,0:0:0:0:
56,256,78801,2,0,P|104:296|168:304,1,128,4|10,0:0|0:0,0:0:0:0:
272,232,80229,5,12,0:0:0:0:
256,104,80944,1,12,0:0:0:0:
376,56,81658,2,0,P|464:120|480:264,1,256,8|0,0:0|0:0,0:0:0:0:
304,328,84159,6,0,P|248:256|240:144,2,192,4|4|4,0:3|0:3|0:3,0:0:0:0:
