osu file format v14

[General]
AudioFilename: drop kick.mp3
AudioLeadIn: 0
PreviewTime: 96100
Countdown: 0
SampleSet: Soft
StackLeniency: 0.7
Mode: 0
LetterboxInBreaks: 0
WidescreenStoryboard: 1

[Editor]
DistanceSpacing: 0.5
BeatDivisor: 4
GridSize: 4
TimelineZoom: 1.8

[Metadata]
Title:Gabriel Drop Kick
TitleUnicode:ガヴリールドロップキック
Artist:Tomita Miyu, Onishi Saori, Ohzora Naomi, Hanazawa Kana
ArtistUnicode:富田美憂、大西沙織、大空直美、花澤香菜
Creator:Doormat
Version:NiNo's Extra
Source:ガヴリールドロップアウト
Tags:Kalibe SnowNiNo_ Karen dropout gabdro dropkick ガヴドロ opening full size tenma gabriel white 天真・ガヴリール・ホワイト tsukinose vignette april 月乃瀬・ヴィネット・エイプリル vigne ヴィーネ kurumizawa satanichia mcdowell 胡桃沢・サタニキア・マクドウェル satania サターニャ shiraha raphiel ainsworth 白羽・ラフィエル・エインズワース
BeatmapID:1233423
BeatmapSetID:576517

[Difficulty]
HPDrainRate:6.5
CircleSize:4
OverallDifficulty:8
ApproachRate:9
SliderMultiplier:2
SliderTickRate:1

[Events]
//Background and Video events
0,0,"dropout_background.jpg",0,0
//Break Periods
//Storyboard Layer 0 (Background)
//Storyboard Layer 1 (Fail)
//Storyboard Layer 2 (Pass)
//Storyboard Layer 3 (Foreground)
//Storyboard Sound Samples

[TimingPoints]
3333,357.142857142857,4,2,2,50,1,0
3333,-166.666666666667,4,2,2,50,0,0
10475,357.142857142857,4,2,1,70,1,0
21903,-166.666666666667,4,2,2,50,0,0
24760,-100,4,2,1,70,0,0
27617,-166.666666666667,4,2,2,50,0,0
30474,-100,4,2,1,70,0,0
41903,-100,4,2,1,5,0,0
44403,-100,4,2,1,70,0,0
49046,-66.6666666666667,4,2,1,70,0,0
50474,-100,4,2,1,70,0,0
56189,-100,4,2,1,60,0,0
58689,-100,4,2,1,80,0,0
59047,357.142857142857,5,2,1,60,1,0
60654,357.142857142857,5,2,1,65,1,0
62261,357.142857142857,4,2,1,70,1,0
64761,357.142857142857,4,2,2,50,1,0
65118,-133.333333333333,4,2,2,50,0,0
65832,-133.333333333333,4,2,1,50,0,0
66190,357.142857142857,4,2,1,70,1,1
66190,-83.3333333333333,4,2,1,70,0,1
69404,-133.333333333333,4,2,1,70,0,1
69761,-83.3333333333333,4,2,1,70,0,1
70475,-55.5555555555556,4,2,1,70,0,1
71547,-111.111111111111,4,2,1,80,0,1
71725,-111.111111111111,4,2,1,5,0,1
71904,-83.3333333333333,4,2,1,70,0,1
74761,-133.333333333333,4,2,1,70,0,1
75475,-83.3333333333333,4,2,1,70,0,1
76190,-55.5555555555556,4,2,1,70,0,1
77261,-111.111111111111,4,2,1,80,0,1
77440,-111.111111111111,4,2,1,5,0,1
77618,-83.3333333333333,4,2,1,70,0,1
78690,-66.6666666666667,4,2,1,80,0,1
79047,-83.3333333333333,4,2,1,70,0,1
80118,-66.6666666666667,4,2,1,80,0,1
80475,-83.3333333333333,4,2,1,70,0,1
80832,-83.3333333333333,4,2,1,80,0,1
81190,-83.3333333333333,4,2,1,70,0,1
81547,-83.3333333333333,4,2,1,80,0,1
81904,-83.3333333333333,4,2,1,90,0,1
83333,357.142857142857,3,2,2,50,1,0
83333,-100,3,2,2,50,0,0
87618,-100,3,2,3,60,0,0
95386,-100,3,2,3,5,0,0
95475,-100,3,2,3,60,0,0
95565,-100,3,2,3,5,0,0
96190,-100,3,2,3,60,0,0
113333,357.142857142857,4,2,1,60,1,0
115833,-100,4,2,1,60,0,0
116190,357.142857142857,4,2,1,70,1,0
120475,-66.6666666666667,4,2,1,70,0,0
121904,-100,4,2,1,70,0,0
127618,-100,4,2,1,60,0,0
130118,-100,4,2,1,80,0,0
130475,357.142857142857,5,2,1,60,1,0
132083,357.142857142857,5,2,1,65,1,0
133690,357.142857142857,4,2,1,70,1,0
136190,357.142857142857,4,2,2,50,1,0
137261,-100,4,2,1,50,0,0
137618,357.142857142857,4,2,1,70,1,1
137618,-83.3333333333333,4,2,1,70,0,1
140832,-133.333333333333,4,2,1,70,0,1
141368,-83.3333333333333,4,2,1,70,0,1
141903,-55.5555555555556,4,2,1,70,0,1
142975,-111.111111111111,4,2,1,80,0,1
143153,-111.111111111111,4,2,1,5,0,1
143332,-83.3333333333333,4,2,1,70,0,1
146546,-133.333333333333,4,2,1,70,0,1
147082,-83.3333333333333,4,2,1,70,0,1
147618,-55.5555555555556,4,2,1,70,0,1
148689,-111.111111111111,4,2,1,80,0,1
148868,-111.111111111111,4,2,1,5,0,1
149046,-83.3333333333333,4,2,1,90,0,1
150385,-83.3333333333333,4,2,1,70,0,1
150475,357.142857142857,4,2,1,80,1,0
154225,-66.6666666666667,4,2,1,80,0,0
156189,-100,4,2,1,80,0,0
159939,-66.6666666666667,4,2,1,80,0,0
161903,-100,4,2,1,70,0,0
173332,-133.333333333333,4,2,1,60,0,0
175832,-133.333333333333,4,2,1,80,0,0
176190,357.142857142857,5,2,1,60,1,0
177797,357.142857142857,5,2,1,65,1,0
179404,357.142857142857,4,2,1,70,1,0
181904,357.142857142857,4,2,2,50,1,0
184404,-100,4,2,1,50,0,0
184761,357.142857142857,4,2,1,70,1,1
184761,-83.3333333333333,4,2,1,70,0,1
187975,-133.333333333333,4,2,1,70,0,1
188332,-83.3333333333333,4,2,1,70,0,1
189046,-55.5555555555556,4,2,1,70,0,1
190118,-111.111111111111,4,2,1,80,0,1
190296,-111.111111111111,4,2,1,5,0,1
190475,-83.3333333333333,4,2,1,70,0,1
193689,-133.333333333333,4,2,1,70,0,1
194046,-83.3333333333333,4,2,1,70,0,1
194761,-55.5555555555556,4,2,1,70,0,1
195832,-111.111111111111,4,2,1,80,0,1
196011,-111.111111111111,4,2,1,5,0,1
196189,-83.3333333333333,4,2,1,70,0,1
197261,-66.6666666666667,4,2,1,80,0,1
197618,-83.3333333333333,4,2,1,70,0,1
198689,-66.6666666666667,4,2,1,80,0,1
199046,-83.3333333333333,4,2,1,70,0,1
199403,-83.3333333333333,4,2,1,80,0,1
199761,-83.3333333333333,4,2,1,70,0,1
200118,-83.3333333333333,4,2,1,80,0,1
200475,-83.3333333333333,4,2,1,90,0,1
201904,357.142857142857,3,2,2,50,1,0
201904,-100,3,2,2,50,0,0

[Colours]
Combo1 : 158,123,189
Combo2 : 227,84,102
Combo3 : 238,162,25
Combo4 : 167,204,49

[HitObjects]
83,274,3333,6,0,P|107:234|193:216,1,119.999996337891,2|0,0:0|0:0,0:0:0:0:
245,265,3868,1,0,0:0:0:0:
245,265,4047,2,0,L|238:334,2,59.9999981689454,2|0|0,0:0|0:0|0:0,0:0:0:0:
301,194,4583,2,0,L|287:60,2,119.999996337891
373,248,5475,2,0,P|401:278|482:295,1,119.999996337891,2|0,0:0|0:0,0:0:0:0:
475,296,6190,6,0,L|462:167,2,119.999996337891,2|0|2,0:0|0:0|0:0,0:0:0:0:
475,296,7261,1,0,0:0:0:0:
306,360,7618,2,0,P|278:329|188:316,1,119.999996337891,2|0,0:0|0:0,0:0:0:0:
297,249,8154,2,0,P|256:257|199:329,1,119.999996337891,0|0,0:0|0:0,0:0:0:0:
125,354,8690,2,0,L|116:280,1,59.9999981689454,0|0,0:0|0:0,0:0:0:0:
109,187,9047,6,0,B|109:43|253:43|253:43|269:59|269:59|285:43|285:43|301:59|301:59|317:43|317:43|333:59|333:59|349:43|349:43|365:59|365:59|381:43|381:43|397:59|397:59|413:43|413:43,1,449.99998626709,2|0,0:0|0:0,0:0:0:0:
469,88,10475,6,0,P|442:149|442:192,1,100,6|0,0:0|0:0,0:0:0:0:
447,205,10742,1,0,0:0:0:0:
446,230,10832,2,0,P|401:250|347:258,1,100,8|0,0:0|0:0,0:0:0:0:
222,217,11189,1,2,0:0:0:0:
297,337,11367,1,0,0:0:0:0:
325,178,11546,1,8,0:0:0:0:
325,178,11635,2,0,L|330:121,1,50,0|0,0:0|0:0,0:0:0:0:
259,45,11814,1,0,0:0:0:0:
259,45,11903,6,0,P|218:67|154:76,1,100,2|0,0:0|0:0,0:0:0:0:
24,30,12260,2,0,L|38:134,1,100,8|0,0:0|0:0,0:0:0:0:
121,237,12617,1,2,0:0:0:0:
165,76,12796,1,0,0:0:0:0:
37,129,12975,1,8,0:0:0:0:
248,185,13153,1,0,0:0:0:0:
272,180,13242,1,0,0:0:0:0:
296,174,13332,6,0,L|418:147,1,100,6|0,0:0|0:0,0:0:0:0:
416,163,13599,1,0,0:0:0:0:
433,181,13688,1,8,0:0:0:0:
446,203,13777,1,0,0:0:0:0:
454,227,13866,1,0,0:0:0:0:
456,251,13956,1,0,0:0:0:0:
452,276,14045,5,2,0:0:0:0:
406,255,14135,1,0,0:0:0:0:
357,253,14224,1,0,0:0:0:0:
311,272,14313,1,0,0:0:0:0:
276,307,14403,1,8,0:0:0:0:
236,337,14492,1,0,0:0:0:0:
186,347,14582,1,0,0:0:0:0:
137,334,14671,1,0,0:0:0:0:
102,298,14760,6,0,P|82:244|79:184,1,100,2|0,0:0|0:0,0:0:0:0:
107,86,15028,1,0,0:0:0:0:
107,86,15117,2,0,P|54:112|0:119,1,100,8|0,0:0|0:0,0:0:0:0:
180,162,15474,2,0,L|240:170,1,50,10|0,0:0|0:0,0:0:0:0:
225,20,15653,2,0,L|165:28,1,50,8|0,0:0|0:0,0:0:0:0:
308,180,15832,2,0,L|368:188,1,50,10|0,0:0|0:0,0:0:0:0:
358,3,16010,2,0,L|298:11,1,50,10|0,0:0|0:0,0:0:0:0:
229,168,16189,6,0,L|241:289,1,100,6|0,0:0|0:0,0:0:0:0:
257,284,16457,1,0,0:0:0:0:
275,300,16546,2,0,L|281:360,1,50,8|0,0:0|0:0,0:0:0:0:
378,373,16724,2,0,L|384:312,1,50,0|0,0:0|0:0,0:0:0:0:
402,148,16903,2,0,P|351:170|302:180,1,100,2|0,0:0|0:0,0:0:0:0:
180,268,17171,1,0,0:0:0:0:
180,268,17260,2,0,P|228:279|274:299,1,100,8|0,0:0|0:0,0:0:0:0:
236,155,17617,6,0,P|217:92|212:43,1,100,2|0,0:0|0:0,0:0:0:0:
216,33,17885,1,0,0:0:0:0:
233,15,17974,1,8,0:0:0:0:
256,7,18064,1,0,0:0:0:0:
280,5,18153,1,0,0:0:0:0:
303,12,18242,1,0,0:0:0:0:
319,31,18332,5,2,0:0:0:0:
352,68,18421,1,0,0:0:0:0:
398,85,18510,1,0,0:0:0:0:
447,89,18599,1,0,0:0:0:0:
495,74,18689,2,0,L|503:18,1,50,8|0,0:0|0:0,0:0:0:0:
341,141,18867,2,0,L|348:190,1,50,0|0,0:0|0:0,0:0:0:0:
491,233,19046,6,0,L|484:283,1,50,2|0,0:0|0:0,0:0:0:0:
361,349,19224,1,0,0:0:0:0:
325,314,19313,1,0,0:0:0:0:
278,299,19402,1,8,0:0:0:0:
228,305,19491,1,0,0:0:0:0:
178,305,19581,1,0,0:0:0:0:
132,286,19670,1,0,0:0:0:0:
94,254,19760,6,0,L|85:195,1,50,10|0,0:0|0:0,0:0:0:0:
212,35,19939,2,0,L|202:94,1,50,8|0,0:0|0:0,0:0:0:0:
23,290,20117,2,0,L|13:230,1,50,8|0,0:0|0:0,0:0:0:0:
245,167,20296,2,0,L|235:226,1,50,8|0,0:0|0:0,0:0:0:0:
96,69,20474,5,0,1:0:0:0:
493,11,20832,1,0,1:0:0:0:
319,365,21189,1,0,1:0:0:0:
319,365,21903,6,0,L|309:241,1,119.999996337891,2|2,0:0|0:0,0:0:0:0:
233,197,22439,1,0,0:0:0:0:
233,197,22617,2,0,L|239:120,2,59.9999981689454,2|0|2,0:0|0:0|0:0,0:0:0:0:
228,287,23153,1,0,0:0:0:0:
228,287,23332,2,0,P|195:260|103:247,2,119.999996337891,2|2|2,0:0|0:0|0:0,0:0:0:0:
228,287,24760,6,0,P|210:205|310:227,1,200,4|0,0:0|0:0,0:0:0:0:
363,283,25296,1,0,0:0:0:0:
228,287,25474,2,0,L|118:274,1,100,8|0,0:0|0:0,0:0:0:0:
300,205,25832,1,0,0:0:0:0:
296,371,26010,6,0,L|186:358,1,100,8|0,0:0|0:0,0:0:0:0:
300,205,26367,1,0,0:0:0:0:
426,361,26546,1,0,0:0:0:0:
228,287,26724,1,0,0:0:0:0:
498,279,26903,2,0,L|485:170,1,100,8|0,0:0|0:0,0:0:0:0:
259,145,27260,1,8,0:0:0:0:
363,283,27439,1,0,3:0:0:0:
363,283,27528,1,0,3:0:0:0:
363,283,27617,6,0,L|226:268,1,119.999996337891,2|2,0:0|0:0,0:0:0:0:
168,220,28153,1,0,0:0:0:0:
168,220,28332,2,0,L|99:227,2,59.9999981689454,2|0|2,0:0|0:0|0:0,0:0:0:0:
248,179,28867,1,0,0:0:0:0:
248,179,29046,2,0,P|226:152|222:65,1,119.999996337891,2|2,0:0|0:0,0:0:0:0:
287,9,29582,1,0,0:0:0:0:
368,46,29760,1,2,0:0:0:0:
368,46,30474,5,4,0:0:0:0:
358,156,30653,2,0,P|310:140|266:4,1,200,0|0,0:0|0:0,0:0:0:0:
459,109,31189,2,0,L|449:228,1,100,8|0,0:0|0:0,0:0:0:0:
440,321,31546,1,0,0:0:0:0:
358,156,31724,2,0,L|348:275,1,100,8|2,0:0|0:3,0:0:0:0:
450,208,32082,1,0,0:0:0:0:
259,189,32260,1,0,0:0:0:0:
440,321,32439,1,0,0:0:0:0:
249,302,32617,5,0,3:0:0:0:
201,286,32706,1,0,3:0:0:0:
165,252,32795,1,0,3:0:0:0:
148,206,32884,1,0,3:0:0:0:
151,156,32974,1,0,3:0:0:0:
176,113,33063,1,0,3:0:0:0:
216,85,33152,1,0,3:0:0:0:
265,76,33242,1,0,3:0:0:0:
313,90,33332,6,0,P|364:107|421:111,1,100,6|0,0:0|0:0,0:0:0:0:
274,205,33689,2,0,P|227:236|186:279,1,100,8|0,0:0|0:0,0:0:0:0:
421,210,34046,2,0,L|408:100,1,100,2|0,0:0|0:0,0:0:0:0:
287,301,34403,1,8,0:0:0:0:
395,341,34582,1,0,0:0:0:0:
313,170,34760,5,2,0:0:0:0:
202,366,34939,2,0,L|195:261,1,100,0|8,0:0|0:0,0:0:0:0:
192,140,35296,1,0,0:0:0:0:
77,306,35474,2,0,L|84:201,1,100,2|0,0:0|0:0,0:0:0:0:
301,200,35832,2,0,L|308:305,1,100,8|0,0:0|0:0,0:0:0:0:
192,140,36189,6,0,P|237:90|367:94,1,200,6|8,0:0|0:0,0:0:0:0:
195,266,36724,1,0,0:0:0:0:
83,206,36903,2,0,L|90:101,1,100,2|0,0:0|0:0,0:0:0:0:
192,140,37260,1,8,0:0:0:0:
188,365,37439,6,0,L|195:260,1,100,0|6,0:0|0:0,0:0:0:0:
301,200,37796,1,0,0:0:0:0:
83,206,37974,2,0,L|89:106,1,100,8|0,0:0|0:0,0:0:0:0:
188,365,38332,5,2,0:0:0:0:
192,140,38510,1,8,0:0:0:0:
93,331,38689,1,2,0:0:0:0:
89,106,38867,1,8,0:0:0:0:
204,252,39046,6,0,P|253:268|313:273,1,100,6|0,0:0|0:0,0:0:0:0:
332,135,39403,1,8,0:0:0:0:
332,135,39582,1,0,0:0:0:0:
192,140,39760,2,0,P|142:156|100:206,1,100,2|0,0:0|0:0,0:0:0:0:
132,342,40117,1,8,0:0:0:0:
204,252,40296,1,0,0:0:0:0:
36,278,40474,5,6,0:0:0:0:
236,325,40653,1,0,0:0:0:0:
109,189,40832,1,8,0:0:0:0:
28,359,41010,1,0,0:0:0:0:
204,252,41189,2,0,L|212:144,1,100,2|0,0:0|0:0,0:0:0:0:
36,278,41546,1,8,0:0:0:0:
452,81,44403,5,2,0:0:0:0:
427,77,44492,1,2,0:0:0:0:
402,73,44581,1,2,0:0:0:0:
377,69,44670,1,2,0:0:0:0:
353,65,44760,6,0,L|251:49,1,100,6|0,0:0|0:0,0:0:0:0:
230,59,45028,1,0,0:0:0:0:
206,67,45117,2,0,L|134:55,1,50,8|0,0:0|0:0,0:0:0:0:
62,15,45296,2,0,L|-9:26,1,50,0|0,0:0|0:0,0:0:0:0:
11,145,45474,2,0,L|82:156,1,50,2|0,0:0|0:0,0:0:0:0:
159,158,45653,1,0,0:0:0:0:
159,158,45742,1,0,0:0:0:0:
159,158,45832,2,0,P|179:214|181:269,1,100,8|0,0:0|0:0,0:0:0:0:
89,351,46189,5,2,0:0:0:0:
89,351,46278,1,0,0:0:0:0:
89,351,46367,2,0,L|96:278,1,50,0|0,0:0|0:0,0:0:0:0:
182,254,46546,1,8,0:0:0:0:
199,271,46635,1,0,0:0:0:0:
220,286,46724,1,0,0:0:0:0:
243,295,46813,1,0,0:0:0:0:
267,301,46903,2,0,P|301:300|324:294,1,50,2|0,0:0|0:0,0:0:0:0:
351,200,47082,2,0,P|375:199|400:204,1,50,0|0,0:0|0:0,0:0:0:0:
493,242,47260,1,8,0:0:0:0:
491,266,47349,1,0,0:0:0:0:
490,291,47438,1,0,0:0:0:0:
488,316,47527,1,0,0:0:0:0:
487,341,47618,5,6,0:0:0:0:
466,326,47707,1,0,0:0:0:0:
443,317,47796,1,0,0:0:0:0:
419,312,47885,1,0,0:0:0:0:
394,312,47974,2,0,P|357:320|336:331,1,50,8|0,0:0|0:0,0:0:0:0:
254,366,48153,2,0,P|217:358|196:347,1,50,0|0,0:0|0:0,0:0:0:0:
134,279,48332,2,0,L|144:168,1,100,2|0,0:0|0:0,0:0:0:0:
158,159,48599,1,0,0:0:0:0:
176,141,48689,2,0,L|186:30,1,100,8|0,0:0|0:0,0:0:0:0:
380,133,49046,6,0,P|351:214|205:230,1,225.000008583069,8|0,0:0|0:0,0:0:0:0:
269,137,49403,2,0,P|333:210|292:336,1,225.000008583069,8|0,0:0|0:0,0:0:0:0:
225,241,49760,2,0,L|236:147,1,75.0000028610231,8|0,0:0|0:0,0:0:0:0:
380,133,49939,2,0,L|369:39,1,75.0000028610231,8|0,0:0|0:0,0:0:0:0:
147,193,50117,2,0,L|158:99,1,75.0000028610231,8|0,0:0|0:0,0:0:0:0:
293,98,50296,2,0,L|282:4,1,75.0000028610231,8|0,0:0|0:0,0:0:0:0:
420,256,50474,6,0,L|415:367,1,100,6|0,0:0|0:0,0:0:0:0:
225,241,50832,1,8,0:0:0:0:
225,241,51010,1,0,0:0:0:0:
354,109,51189,6,0,L|350:184,1,50,2|0,0:0|0:0,0:0:0:0:
348,233,51367,2,0,L|344:308,1,50,0|0,0:0|0:0,0:0:0:0:
210,246,51546,1,8,0:0:0:0:
210,246,51724,1,0,0:0:0:0:
424,156,51903,6,0,L|419:267,1,100,2|0,0:0|0:0,0:0:0:0:
195,251,52260,1,8,0:0:0:0:
195,251,52438,1,0,0:0:0:0:
356,59,52617,6,0,L|352:134,1,50,2|0,0:0|0:0,0:0:0:0:
350,183,52795,2,0,L|346:258,1,50,0|0,0:0|0:0,0:0:0:0:
180,256,52974,1,8,0:0:0:0:
180,256,53152,1,0,0:0:0:0:
350,183,53332,5,8,0:0:0:0:
166,130,53510,1,8,0:0:0:0:
358,202,53689,1,8,0:0:0:0:
174,149,53867,1,8,0:0:0:0:
313,85,54046,5,8,0:0:0:0:
261,268,54224,1,8,0:0:0:0:
333,76,54403,1,8,0:0:0:0:
280,260,54581,1,8,0:0:0:0:
158,146,54760,5,8,0:0:0:0:
374,207,54938,1,8,0:0:0:0:
148,123,55117,1,8,0:0:0:0:
364,185,55295,1,8,0:0:0:0:
179,255,55474,5,8,0:0:0:0:
243,30,55652,1,8,0:0:0:0:
202,245,55831,1,8,0:0:0:0:
266,20,56009,1,8,0:0:0:0:
364,185,56189,6,0,L|371:290,1,100,6|0,0:0|0:0,0:0:0:0:
141,222,56546,2,0,L|148:117,1,100,2|0,0:0|0:0,0:0:0:0:
279,32,56903,1,2,0:0:0:0:
262,150,57082,1,0,0:0:0:0:
164,4,57260,1,2,0:0:0:0:
147,122,57439,1,0,0:0:0:0:
339,102,57617,6,0,L|443:93,1,100,6|0,0:0|0:0,0:0:0:0:
164,4,57974,1,2,0:0:0:0:
262,150,58153,1,4,0:0:0:0:
147,122,58332,2,0,L|43:113,1,100,2|0,0:0|0:0,0:0:0:0:
241,54,58689,2,0,P|261:103|256:169,1,100,2|0,0:1|0:0,0:0:0:0:
172,280,59047,5,6,0:0:0:0:
147,122,59225,1,2,0:0:0:0:
147,122,59404,1,2,0:0:0:0:
264,248,59582,5,6,0:0:0:0:
91,204,59761,1,2,0:0:0:0:
91,204,59939,1,2,0:0:0:0:
261,149,60118,5,6,0:0:0:0:
202,346,60297,1,2,0:0:0:0:
202,346,60475,1,2,0:0:0:0:
147,122,60654,5,6,0:0:0:0:
346,214,60832,1,2,0:0:0:0:
346,214,61011,1,2,0:0:0:0:
132,314,61189,5,6,0:0:0:0:
241,114,61368,1,2,0:0:0:0:
241,114,61546,1,2,0:0:0:0:
278,344,61725,5,6,0:0:0:0:
69,240,61904,1,2,0:0:0:0:
69,240,62082,1,2,0:0:0:0:
332,141,62261,5,6,0:0:0:0:
200,355,62439,1,2,0:0:0:0:
200,355,62618,1,2,0:0:0:0:
147,122,62796,5,6,0:0:0:0:
394,225,62975,1,2,0:0:0:0:
394,225,63153,1,2,0:0:0:0:
126,302,63332,5,6,0:0:0:0:
271,69,63511,1,2,0:0:0:0:
271,69,63689,5,6,0:0:0:0:
298,267,63868,1,2,0:0:0:0:
121,174,64046,1,2,0:0:0:0:
321,163,64225,1,2,0:0:0:0:
213,330,64403,1,2,0:0:0:0:
192,126,64582,1,2,0:0:0:0:
298,267,64761,5,0,0:0:0:0:
390,244,64939,1,2,0:0:0:0:
390,244,65028,1,2,0:0:0:0:
390,244,65118,2,0,L|396:153,1,75.0000028610231,2|2,0:0|0:0,0:0:0:0:
380,80,65475,1,2,0:0:0:0:
311,138,65653,1,2,0:0:0:0:
463,111,65832,1,2,0:0:0:0:
297,49,66011,1,2,0:0:0:0:
297,49,66100,1,2,0:0:0:0:
297,49,66190,6,0,L|285:176,1,119.999996337891,6|0,0:0|0:0,0:0:0:0:
212,73,66457,2,0,L|200:200,1,119.999996337891,0|0,0:0|0:0,0:0:0:0:
262,256,66725,1,0,0:0:0:0:
127,146,66904,6,0,L|115:273,1,119.999996337891,2|0,0:0|0:0,0:0:0:0:
42,170,67171,2,0,L|30:297,1,119.999996337891,0|0,0:0|0:0,0:0:0:0:
92,353,67439,1,0,0:0:0:0:
234,286,67618,6,0,L|112:265,1,119.999996337891,2|0,0:0|0:0,0:0:0:0:
200,192,67886,2,0,L|322:171,1,119.999996337891,0|0,0:0|0:0,0:0:0:0:
373,253,68154,1,0,0:0:0:0:
396,73,68332,5,2,0:0:0:0:
477,276,68511,1,0,0:0:0:0:
477,276,68600,1,0,0:0:0:0:
477,276,68690,1,8,0:0:0:0:
500,96,68868,1,0,0:0:0:0:
318,171,69047,5,6,0:0:0:0:
318,171,69404,2,0,P|271:146|310:188,1,150.000005722046,0|0,0:0|0:0,0:0:0:0:
348,85,69940,6,0,P|315:68|275:69,1,59.9999981689454,8|0,0:0|0:0,0:0:0:0:
228,251,70118,2,0,P|261:268|301:267,1,59.9999981689454,8|0,0:0|0:0,0:0:0:0:
191,131,70297,1,0,0:0:0:0:
191,131,70386,1,0,0:0:0:0:
191,131,70475,6,0,L|3:153,1,179.999994506836,6|0,0:0|0:0,0:0:0:0:
60,228,70743,2,0,P|102:147|45:69,1,179.999994506836,6|0,0:0|0:0,0:0:0:0:
12,151,71011,2,0,L|120:163,1,89.9999972534181,2|0,0:0|0:0,0:0:0:0:
191,131,71190,1,6,0:0:0:0:
103,35,71368,6,0,L|13:25,1,89.9999972534181,8|0,0:1|0:0,0:0:0:0:
8,240,71547,6,0,L|98:250,1,89.9999972534181,8|0,0:1|0:0,0:0:0:0:
187,220,71904,6,0,L|174:351,1,119.999996337891,6|0,0:0|0:0,0:0:0:0:
280,196,72172,2,0,L|267:327,1,119.999996337891
344,376,72440,1,0,0:0:0:0:
373,172,72618,6,0,L|360:303,1,119.999996337891,2|0,0:0|0:0,0:0:0:0:
466,148,72886,2,0,L|453:279,1,119.999996337891,0|0,0:0|0:0,0:0:0:0:
344,376,73154,1,0,0:0:0:0:
268,315,73332,6,0,L|137:300,1,119.999996337891,2|0,0:0|0:0,0:0:0:0:
253,185,73600,2,0,L|384:170,1,119.999996337891,0|0,0:0|0:0,0:0:0:0:
361,291,73868,1,0,0:0:0:0:
189,233,74047,5,2,0:0:0:0:
380,179,74225,1,0,0:0:0:0:
380,179,74315,1,0,0:0:0:0:
380,179,74404,1,8,0:0:0:0:
200,113,74582,1,0,0:0:0:0:
268,315,74761,5,6,0:0:0:0:
268,315,75118,2,0,P|300:280|246:298,1,150.000005722046,0|0,0:0|0:0,0:0:0:0:
370,312,75654,6,0,P|372:272|362:242,1,59.9999981689454,8|0,0:0|0:0,0:0:0:0:
174,262,75832,2,0,P|172:302|182:332,1,59.9999981689454,8|0,0:0|0:0,0:0:0:0:
329,169,76011,1,0,0:0:0:0:
329,169,76100,1,0,0:0:0:0:
329,169,76190,6,0,L|137:155,1,179.999994506836,6|0,0:0|0:0,0:0:0:0:
224,79,76457,2,0,L|416:93,1,179.999994506836,6|0,0:0|0:0,0:0:0:0:
366,253,76725,2,0,L|270:246,1,89.9999972534181,2|0,0:0|0:0,0:0:0:0:
149,155,76904,1,6,0:0:0:0:
224,79,77082,6,0,P|253:125|251:173,1,89.9999972534181,8|0,0:1|0:0,0:0:0:0:
72,230,77261,6,0,P|43:184|45:136,1,89.9999972534181,8|0,0:1|0:0,0:0:0:0:
176,260,77618,6,0,P|144:319|82:347,1,119.999996337891,6|0,0:0|0:0,0:0:0:0:
158,359,77886,2,0,L|282:344,1,119.999996337891,0|0,0:0|0:0,0:0:0:0:
336,334,78154,1,0,0:0:0:0:
388,235,78332,2,0,P|323:217|259:169,1,119.999996337891,2|0,0:0|0:0,0:0:0:0:
187,78,78690,6,0,B|253:40|253:40|344:61,1,150.000005722046,6|0,0:0|0:0,0:0:0:0:
161,232,79047,6,0,L|30:220,1,119.999996337891,6|0,0:0|0:0,0:0:0:0:
67,88,79315,1,0,0:0:0:0:
67,88,79404,2,0,L|198:76,1,119.999996337891,2|0,0:0|0:0,0:0:0:0:
353,189,79761,2,0,L|222:177,1,119.999996337891,2|0,0:0|0:0,0:0:0:0:
377,76,80118,6,0,B|441:118|441:118|462:197,1,150.000005722046,6|0,0:0|0:0,0:0:0:0:
338,368,80475,6,0,L|354:175,1,179.999994506836,6|0,0:0|0:0,0:0:0:0:
310,231,80832,2,0,P|251:263|185:262,1,119.999996337891,2|0,0:0|0:0,0:0:0:0:
100,99,81190,2,0,L|288:122,1,179.999994506836,6|0,0:0|0:0,0:0:0:0:
235,163,81547,2,0,P|175:167|124:197,1,119.999996337891,2|0,0:0|0:0,0:0:0:0:
199,265,81904,5,6,0:0:0:0:
199,265,82082,1,8,0:0:0:0:
100,99,82261,1,2,0:0:0:0:
100,99,82440,1,8,0:0:0:0:
85,265,82618,1,2,0:0:0:0:
85,265,82797,1,8,0:0:0:0:
214,99,82975,1,2,0:0:0:0:
214,99,83153,1,8,0:0:0:0:
272,299,83332,5,2,0:0:0:0:
272,299,83690,2,0,P|296:254|289:329,2,200,2|2|2,0:0|0:0|0:0,0:0:0:0:
272,299,84761,1,2,0:0:0:0:
180,339,85118,1,2,0:0:0:0:
129,252,85475,1,2,0:0:0:0:
129,252,86190,5,2,0:0:0:0:
304,192,86547,1,2,0:0:0:0:
304,192,87618,6,0,L|512:174,2,200,12|8|8,0:0|0:0|0:0,0:0:0:0:
234,264,88511,1,0,0:0:0:0:
234,264,88690,2,0,P|202:198|283:96,2,200,12|8|8,0:3|0:0|0:0,0:0:0:0:
331,288,89583,1,0,0:0:0:0:
331,288,89761,2,0,P|277:353|161:334,2,200,8|8|8,0:3|0:0|0:0,0:0:0:0:
304,192,90654,1,0,0:0:0:0:
304,192,90833,6,0,L|310:88,1,100,8|0,0:3|0:0,0:0:0:0:
218,198,91190,2,0,L|224:94,1,100,8|0,0:0|0:0,0:0:0:0:
131,204,91547,2,0,L|137:100,1,100,8|0,0:0|0:0,0:0:0:0:
19,53,91904,6,0,P|109:29|224:24,2,200,12|8|8,0:0|0:0|0:0,0:0:0:0:
21,143,92797,1,0,0:0:0:0:
21,143,92975,2,0,L|4:358,2,200,12|8|8,0:3|0:0|0:0,0:0:0:0:
12,43,93868,1,0,0:0:0:0:
12,43,94047,2,0,P|66:53|115:178,2,200,12|8|8,0:3|0:0|0:0,0:0:0:0:
20,142,94940,1,0,0:0:0:0:
20,142,95118,6,0,L|188:122,1,150,12|0,0:3|0:0,0:0:0:0:
219,127,95475,1,2,0:0:0:0:
219,127,96190,6,0,P|248:71|376:72,2,200,12|8|8,0:0|0:0|0:0,0:0:0:0:
254,220,97083,1,0,0:0:0:0:
254,220,97261,1,12,0:3:0:0:
154,205,97440,2,0,B|7:195|7:195|54:258,1,200,0|0,0:0|0:0,0:0:0:0:
111,304,97975,2,0,L|217:311,1,100,8|0,0:0|0:0,0:0:0:0:
254,220,98333,5,12,0:3:0:0:
254,220,98511,2,0,P|205:192|207:57,1,200,0|0,0:0|0:0,0:0:0:0:
301,47,99047,2,0,P|367:77|407:76,1,100,8|0,0:0|0:0,0:0:0:0:
471,14,99404,5,12,0:3:0:0:
471,14,99583,1,0,0:0:0:0:
487,112,99761,1,8,0:0:0:0:
487,112,99940,1,0,0:0:0:0:
503,210,100118,1,8,0:0:0:0:
503,210,100297,1,0,0:0:0:0:
393,77,100475,6,0,L|291:89,1,100,12|0,0:0|0:0,0:0:0:0:
224,15,100833,2,0,L|122:3,1,100,8|0,0:0|0:0,0:0:0:0:
27,25,101190,2,0,P|68:69|78:165,1,150,8|0,0:0|0:0,0:0:0:0:
60,201,101547,6,0,P|111:180|186:181,1,100,12|0,0:3|0:0,0:0:0:0:
193,325,101904,2,0,P|142:346|67:345,1,100,8|0,0:0|0:0,0:0:0:0:
128,264,102261,1,8,0:0:0:0:
128,264,102440,1,0,0:0:0:0:
215,231,102618,6,0,L|329:238,1,100,12|0,0:3|0:0,0:0:0:0:
190,92,102975,2,0,L|76:99,1,100,8|0,0:0|0:0,0:0:0:0:
45,200,103333,2,0,P|72:243|52:342,1,150,8|0,0:0|0:0,0:0:0:0:
15,366,103690,5,12,0:3:0:0:
15,366,103868,1,0,0:0:0:0:
138,355,104047,1,12,0:3:0:0:
138,355,104225,1,0,0:0:0:0:
261,344,104404,1,12,0:3:0:0:
261,344,104583,1,0,0:0:0:0:
188,239,104761,6,0,L|177:137,1,100,12|0,0:0|0:0,0:0:0:0:
155,41,105118,2,0,L|248:82,1,100,8|0,0:0|0:0,0:0:0:0:
342,110,105475,2,0,L|259:170,1,100,8|0,0:0|0:0,0:0:0:0:
161,224,105832,6,0,L|176:123,1,100,12|0,0:3|0:0,0:0:0:0:
180,25,106189,2,0,L|260:89,1,100,8|0,0:0|0:0,0:0:0:0:
343,140,106546,2,0,L|247:177,1,100,8|0,0:0|0:0,0:0:0:0:
138,204,106904,5,12,0:3:0:0:
138,204,107082,1,0,0:0:0:0:
220,263,107261,2,0,L|324:270,1,100,8|0,0:0|0:0,0:0:0:0:
376,352,107618,2,0,L|475:345,1,100,8|0,0:0|0:0,0:0:0:0:
498,247,107975,5,12,0:3:0:0:
498,247,108154,1,0,0:0:0:0:
401,219,108332,1,8,0:0:0:0:
401,219,108511,1,0,0:0:0:0:
304,191,108690,1,8,0:0:0:0:
304,191,108868,1,0,0:0:0:0:
220,263,109047,6,0,L|229:375,1,100,12|0,0:0|0:0,0:0:0:0:
121,217,109404,2,0,L|112:329,1,100,8|0,0:0|0:0,0:0:0:0:
22,171,109761,2,0,L|31:283,1,100,8|0,0:0|0:0,0:0:0:0:
111,107,110118,6,0,P|184:113|248:7,2,200,12|8|8,0:3|0:0|0:0,0:0:0:0:
20,64,111011,1,0,0:0:0:0:
20,64,111190,6,0,L|13:171,1,100,12|0,0:0|0:0,0:0:0:0:
111,107,111547,2,0,L|118:214,1,100,8|0,0:0|0:0,0:0:0:0:
205,151,111904,2,0,L|198:258,1,100,8|0,0:0|0:0,0:0:0:0:
239,342,112261,6,0,P|294:271|398:272,2,200,12|8|8,0:0|0:0|0:0,0:0:0:0:
239,342,113333,1,2,0:0:0:0:
256,192,113422,12,0,115475,0:0:0:0:
426,97,115833,5,2,0:0:0:0:
401,93,115922,1,2,0:0:0:0:
376,89,116011,1,2,0:0:0:0:
351,86,116100,1,2,0:0:0:0:
327,82,116190,6,0,L|220:61,1,100,6|0,0:0|0:0,0:0:0:0:
136,167,116547,1,8,0:0:0:0:
234,167,116725,1,0,0:0:0:0:
130,62,116904,5,2,0:0:0:0:
186,253,117082,1,0,0:0:0:0:
229,63,117261,1,8,0:0:0:0:
42,120,117440,1,0,0:0:0:0:
234,167,117618,5,2,0:0:0:0:
138,69,117797,1,0,0:0:0:0:
138,69,117886,1,0,0:0:0:0:
138,69,117975,2,0,L|129:140,1,50,8|0,0:0|0:0,0:0:0:0:
131,242,118154,1,0,0:0:0:0:
242,174,118332,1,2,0:0:0:0:
242,174,118422,1,0,0:0:0:0:
242,174,118511,2,0,L|251:245,1,50,0|0,0:0|0:0,0:0:0:0:
213,337,118690,1,8,0:0:0:0:
234,324,118779,1,0,0:0:0:0:
257,315,118868,1,0,0:0:0:0:
282,310,118957,1,0,0:0:0:0:
307,309,119047,6,0,P|320:327|498:345,1,200,6|8,0:0|0:0,0:0:0:0:
492,333,119493,1,0,0:0:0:0:
496,308,119582,1,0,0:0:0:0:
493,282,119672,1,0,0:0:0:0:
482,259,119761,2,0,P|439:228|383:218,1,100,2|0,0:0|0:0,0:0:0:0:
368,221,120029,1,0,0:0:0:0:
345,231,120118,2,0,P|278:248|231:242,1,100,8|0,0:0|0:0,0:0:0:0:
149,135,120475,6,0,P|227:174|226:299,1,225.000008583069,8|0,0:0|0:0,0:0:0:0:
48,383,120832,2,0,P|42:295|151:234,1,225.000008583069,8|0,0:0|0:0,0:0:0:0:
213,339,121190,2,0,L|111:332,1,75.0000028610231,8|0,0:0|0:0,0:0:0:0:
53,165,121368,2,0,L|155:158,1,75.0000028610231,8|0,0:0|0:0,0:0:0:0:
301,304,121547,2,0,L|199:297,1,75.0000028610231,8|0,0:0|0:0,0:0:0:0:
92,83,121725,2,0,L|194:76,1,75.0000028610231,8|0,0:0|0:0,0:0:0:0:
392,232,121904,6,0,L|317:226,1,50,6|0,0:0|0:0,0:0:0:0:
242,216,122082,2,0,L|167:210,1,50,0|0,0:0|0:0,0:0:0:0:
166,77,122261,1,8,0:0:0:0:
166,77,122440,1,0,0:0:0:0:
330,209,122618,5,2,0:0:0:0:
305,206,122707,1,0,0:0:0:0:
280,203,122796,1,0,0:0:0:0:
255,201,122885,1,0,0:0:0:0:
230,198,122975,1,8,0:0:0:0:
158,69,123154,1,0,0:0:0:0:
391,272,123332,6,0,L|316:266,1,50,2|0,0:0|0:0,0:0:0:0:
241,256,123510,2,0,L|166:250,1,50,0|0,0:0|0:0,0:0:0:0:
154,65,123690,1,8,0:0:0:0:
154,65,123869,1,0,0:0:0:0:
329,249,124046,5,2,0:0:0:0:
304,246,124135,1,0,0:0:0:0:
279,243,124224,1,0,0:0:0:0:
254,241,124315,1,0,0:0:0:0:
229,238,124404,1,8,0:0:0:0:
148,59,124582,1,0,0:0:0:0:
302,128,124761,5,8,0:0:0:0:
153,219,124940,1,8,0:0:0:0:
294,106,125118,1,8,0:0:0:0:
145,197,125297,1,8,0:0:0:0:
148,59,125475,5,8,0:0:0:0:
261,209,125654,1,8,0:0:0:0:
157,42,125832,1,8,0:0:0:0:
270,192,126011,1,8,0:0:0:0:
83,123,126190,5,8,0:0:0:0:
296,96,126368,1,8,0:0:0:0:
94,138,126547,1,8,0:0:0:0:
307,111,126725,1,8,0:0:0:0:
120,242,126904,5,8,0:0:0:0:
143,18,127082,1,8,0:0:0:0:
135,250,127261,1,8,0:0:0:0:
160,29,127439,1,8,0:0:0:0:
235,135,127618,6,0,P|189:157|137:157,1,100,6|0,0:0|0:0,0:0:0:0:
20,43,127975,2,0,L|35:151,1,100,2|0,0:0|0:0,0:0:0:0:
52,233,128332,1,2,0:0:0:0:
121,66,128511,1,0,0:0:0:0:
150,253,128689,1,2,0:0:0:0:
33,142,128868,1,0,0:0:0:0:
235,135,129047,6,0,L|245:247,1,100,6|0,0:0|0:0,0:0:0:0:
221,14,129404,1,2,0:0:0:0:
121,66,129582,1,4,0:0:0:0:
335,83,129761,2,0,P|394:78|446:62,1,100,2|0,0:0|0:0,0:0:0:0:
244,235,130118,2,0,P|195:222|145:219,1,100,2|0,0:1|0:0,0:0:0:0:
352,189,130475,5,6,0:0:0:0:
227,129,130653,1,2,0:0:0:0:
227,129,130832,1,2,0:0:0:0:
244,235,131010,5,6,0:0:0:0:
335,83,131189,1,2,0:0:0:0:
335,83,131367,1,2,0:0:0:0:
148,114,131546,5,6,0:0:0:0:
302,181,131725,1,2,0:0:0:0:
302,181,131903,1,2,0:0:0:0:
184,18,132082,5,6,0:0:0:0:
181,204,132261,1,2,0:0:0:0:
181,204,132440,1,2,0:0:0:0:
268,73,132618,5,6,0:0:0:0:
89,107,132797,1,2,0:0:0:0:
89,107,132975,1,2,0:0:0:0:
259,203,133154,5,6,0:0:0:0:
184,18,133333,1,2,0:0:0:0:
184,18,133511,1,2,0:0:0:0:
108,226,133690,5,6,0:0:0:0:
301,126,133868,1,2,0:0:0:0:
301,126,134047,1,2,0:0:0:0:
77,76,134225,5,6,0:0:0:0:
241,258,134404,1,2,0:0:0:0:
241,258,134582,1,2,0:0:0:0:
237,23,134761,5,6,0:0:0:0:
52,194,134940,1,2,0:0:0:0:
52,194,135118,5,6,0:0:0:0:
258,143,135297,1,2,0:0:0:0:
96,72,135475,1,2,0:0:0:0:
135,273,135654,1,2,0:0:0:0:
196,63,135832,1,2,0:0:0:0:
52,194,136011,1,2,0:0:0:0:
258,143,136190,5,0,0:0:0:0:
241,249,136368,1,2,0:0:0:0:
241,249,136457,1,2,0:0:0:0:
241,249,136547,2,0,L|345:242,1,100,2|2,0:0|0:0,0:0:0:0:
430,198,136904,1,2,0:0:0:0:
425,98,137082,1,2,0:0:0:0:
326,77,137261,1,2,0:0:0:0:
277,164,137440,1,2,0:0:0:0:
277,164,137529,1,2,0:0:0:0:
277,164,137618,6,0,L|140:153,1,119.999996337891,6|0,0:0|0:0,0:0:0:0:
157,64,137885,2,0,L|20:75,1,119.999996337891,0|0,0:0|0:0,0:0:0:0:
13,161,138153,1,0,0:0:0:0:
110,257,138332,6,0,L|229:247,1,119.999996337891,2|0,0:0|0:0,0:0:0:0:
258,333,138600,2,0,L|377:342,1,119.999996337891,0|0,0:0|0:0,0:0:0:0:
463,371,138868,1,0,0:0:0:0:
451,151,139046,6,0,L|435:15,1,119.999996337891,2|0,0:0|0:0,0:0:0:0:
391,223,139314,2,0,L|375:359,1,119.999996337891,0|0,0:0|0:0,0:0:0:0:
334,150,139582,1,0,0:0:0:0:
508,224,139760,5,2,0:0:0:0:
274,222,139939,1,0,0:0:0:0:
274,222,140028,1,0,0:0:0:0:
274,222,140118,1,8,0:0:0:0:
451,151,140296,1,0,0:0:0:0:
376,342,140475,5,6,0:0:0:0:
376,342,140832,2,0,B|408:270|344:270|376:198,1,150.000005722046,0|0,0:0|0:0,0:0:0:0:
249,298,141368,6,0,P|284:304|312:304,1,59.9999981689454,8|0,0:0|0:0,0:0:0:0:
503,228,141546,2,0,P|468:234|440:234,1,59.9999981689454,8|0,0:0|0:0,0:0:0:0:
312,144,141725,1,0,0:0:0:0:
440,359,141903,6,0,L|447:159,1,179.999994506836,6|0,0:0|0:0,0:0:0:0:
465,82,142171,2,0,P|386:98|353:212,1,179.999994506836,6|0,0:0|0:0,0:0:0:0:
379,290,142439,2,0,P|428:262|446:224,1,89.9999972534181,2|0,0:0|0:0,0:0:0:0:
270,265,142618,1,6,0:0:0:0:
440,359,142796,6,0,L|445:261,1,89.9999972534181,8|0,0:1|0:0,0:0:0:0:
265,175,142975,6,0,L|270:273,1,89.9999972534181,8|0,0:1|0:0,0:0:0:0:
345,182,143332,6,0,L|226:170,1,119.999996337891,6|0,0:0|0:0,0:0:0:0:
168,240,143600,2,0,L|49:251,1,119.999996337891,0|0,0:0|0:0,0:0:0:0:
23,339,143868,1,0,0:0:0:0:
170,352,144046,6,0,L|288:363,1,119.999996337891,2|0,0:0|0:0,0:0:0:0:
347,294,144314,2,0,L|465:282,1,119.999996337891,0|0,0:0|0:0,0:0:0:0:
492,195,144582,1,0,0:0:0:0:
337,174,144760,6,0,L|347:297,1,119.999996337891,2|0,0:0|0:0,0:0:0:0:
423,121,145028,2,0,L|433:-2,1,119.999996337891,0|0,0:0|0:0,0:0:0:0:
268,100,145296,1,0,0:0:0:0:
421,222,145475,5,2,0:0:0:0:
337,23,145653,1,0,0:0:0:0:
337,23,145743,1,0,0:0:0:0:
337,23,145832,1,8,0:0:0:0:
238,238,146010,1,0,0:0:0:0:
423,121,146189,5,6,0:0:0:0:
423,121,146546,2,0,B|344:115|366:175|287:170,1,150.000005722046,0|0,0:0|0:0,0:0:0:0:
421,257,147082,6,0,P|420:227|414:197,1,59.9999981689454,8|0,0:0|0:0,0:0:0:0:
304,34,147260,2,0,P|298:63|297:93,1,59.9999981689454,8|0,0:0|0:0,0:0:0:0:
238,238,147439,1,0,0:0:0:0:
423,121,147618,6,0,L|238:80,1,179.999994506836,6|0,0:0|0:0,0:0:0:0:
156,26,147885,2,0,P|211:43|252:174,1,179.999994506836,6|0,0:0|0:0,0:0:0:0:
151,218,148153,2,0,L|160:116,1,89.9999972534181,2|0,0:0|0:0,0:0:0:0:
70,80,148332,1,6,0:0:0:0:
259,147,148510,6,0,L|268:249,1,89.9999972534181,8|0,0:1|0:0,0:0:0:0:
46,277,148689,6,0,L|53:187,1,89.9999972534181,8|0,0:1|0:0,0:0:0:0:
179,314,149046,5,6,0:0:0:0:
179,314,149225,1,8,0:0:0:0:
259,147,149403,1,2,0:0:0:0:
259,147,149582,1,8,0:0:0:0:
279,333,149760,1,2,0:0:0:0:
279,333,149939,1,8,0:0:0:0:
159,128,150118,1,2,0:0:0:0:
159,128,150297,1,8,0:0:0:0:
358,213,150475,6,0,L|368:329,1,100,6|0,0:0|0:0,0:0:0:0:
262,224,150832,1,8,0:0:0:0:
425,141,151010,1,0,0:0:0:0:
466,327,151189,2,0,L|355:311,1,100,2|0,0:0|0:0,0:0:0:0:
206,136,151546,2,0,L|317:120,1,100,8|0,0:0|0:0,0:0:0:0:
208,259,151903,6,0,P|149:245|111:214,1,100,2|0,0:0|0:0,0:0:0:0:
186,49,152260,1,8,0:0:0:0:
304,121,152439,1,0,0:0:0:0:
208,259,152617,2,0,L|201:375,1,100,2|0,0:0|0:0,0:0:0:0:
145,133,152975,5,8,0:0:0:0:
337,254,153153,1,0,0:0:0:0:
106,313,153332,1,6,0:0:0:0:
106,313,154225,6,0,L|113:235,1,75.0000028610231,8|0,0:0|0:0,0:0:0:0:
242,146,154403,2,0,L|249:223,1,75.0000028610231,8|0,0:0|0:0,0:0:0:0:
193,306,154582,1,0,0:0:0:0:
155,152,154760,6,0,L|326:139,1,150.000005722046,6|0,0:0|0:0,0:0:0:0:
72,109,155028,2,0,P|65:178|121:241,1,150.000005722046,6|0,0:0|0:0,0:0:0:0:
193,306,155296,2,0,P|215:258|214:223,1,75.0000028610231,2|0,0:0|0:0,0:0:0:0:
155,152,155475,1,6,0:0:0:0:
20,282,155653,6,0,L|32:378,1,75.0000028610231,8|0,0:1|0:0,0:0:0:0:
225,310,155832,2,0,L|213:214,1,75.0000028610231,8|0,0:1|0:0,0:0:0:0:
113,237,156010,1,0,0:0:0:0:
257,150,156189,6,0,P|312:146|369:123,1,100,6|0,0:0|0:0,0:0:0:0:
116,137,156546,2,0,L|112:254,1,100,8|0,0:0|0:0,0:0:0:0:
158,52,156903,1,2,0:0:0:0:
215,235,157082,1,0,0:0:0:0:
30,194,157260,2,0,L|33:94,1,100,8|0,0:0|0:0,0:0:0:0:
211,129,157617,6,0,P|160:145|109:134,1,100,2|0,0:0|0:0,0:0:0:0:
126,186,157885,2,0,P|169:236|180:280,1,100,0|0,0:0|0:0,0:0:0:0:
161,315,158153,1,0,0:0:0:0:
261,202,158332,5,2,0:0:0:0:
89,270,158510,1,2,0:0:0:0:
235,336,158689,1,10,0:0:0:0:
115,136,158867,1,2,0:0:0:0:
33,361,159046,5,6,0:0:0:0:
33,361,159939,6,0,L|110:355,1,75.0000028610231,8|0,0:0|0:0,0:0:0:0:
261,202,160117,2,0,L|184:196,1,75.0000028610231,8|0,0:0|0:0,0:0:0:0:
89,270,160296,1,0,0:0:0:0:
252,304,160475,6,0,L|270:131,1,150.000005722046,6|0,0:0|0:0,0:0:0:0:
387,263,160742,2,0,P|336:301|227:292,1,150.000005722046,6|0,0:0|0:0,0:0:0:0:
267,154,161010,2,0,L|363:167,1,75.0000028610231,2|0,0:0|0:0,0:0:0:0:
449,173,161189,1,6,0:0:0:0:
403,74,161367,6,0,L|328:63,1,75.0000028610231,8|0,0:1|0:0,0:0:0:0:
313,253,161546,2,0,L|387:263,1,75.0000028610231,8|0,0:1|0:0,0:0:0:0:
449,173,161725,1,0,0:0:0:0:
267,154,161903,6,0,P|225:185|205:236,1,100,6|0,0:0|0:0,0:0:0:0:
374,327,162260,2,0,P|353:282|313:253,1,100,8|0,0:0|0:0,0:0:0:0:
238,332,162617,1,2,0:0:0:0:
304,244,162796,1,0,0:0:0:0:
329,243,162885,1,0,0:0:0:0:
354,241,162974,1,8,0:0:0:0:
378,240,163063,1,0,0:0:0:0:
403,239,163153,1,0,0:0:0:0:
428,238,163242,1,0,0:0:0:0:
453,236,163332,6,0,P|484:168|481:130,1,100,2|0,0:0|0:0,0:0:0:0:
312,29,163689,2,0,L|322:136,1,100,8|0,0:0|0:0,0:0:0:0:
378,240,164046,1,2,0:0:0:0:
405,108,164225,1,0,0:0:0:0:
273,219,164403,1,8,0:0:0:0:
249,228,164492,1,0,0:0:0:0:
225,234,164581,1,0,0:0:0:0:
200,237,164670,1,0,0:0:0:0:
176,237,164760,6,0,P|123:229|71:203,1,100,6|0,0:0|0:0,0:0:0:0:
91,105,165117,2,0,L|99:55,4,50,8|0|0|0|2,0:0|0:0|0:0|0:0|0:0,0:0:0:0:
140,108,165564,1,0,0:0:0:0:
178,139,165653,1,0,0:0:0:0:
196,185,165742,1,0,0:0:0:0:
232,220,165832,1,8,0:0:0:0:
279,234,165921,1,0,0:0:0:0:
328,241,166010,1,0,0:0:0:0:
375,225,166100,1,0,0:0:0:0:
412,192,166189,6,0,L|418:125,1,50,2|0,0:0|0:0,0:0:0:0:
477,82,166367,2,0,L|471:15,1,50,0|0,0:0|0:0,0:0:0:0:
380,24,166546,1,8,0:0:0:0:
346,61,166635,1,0,0:0:0:0:
302,83,166724,1,0,0:0:0:0:
253,89,166813,1,0,0:0:0:0:
205,77,166903,2,0,L|151:66,1,50,10|0,0:0|0:0,0:0:0:0:
8,29,167082,2,0,L|61:18,1,50,8|0,0:0|0:0,0:0:0:0:
162,149,167260,2,0,L|54:128,1,100,8|8,0:0|0:0,0:0:0:0:
204,76,167617,6,0,P|235:115|242:164,1,100,6|0,0:0|0:0,0:0:0:0:
222,210,167885,1,0,0:0:0:0:
216,260,167975,1,8,0:0:0:0:
235,305,168064,1,0,0:0:0:0:
273,337,168153,1,0,0:0:0:0:
321,346,168242,1,0,0:0:0:0:
370,336,168332,2,0,P|429:316|467:281,1,100,2|0,0:0|0:0,0:0:0:0:
480,150,168689,2,0,L|365:136,1,100,8|0,0:0|0:0,0:0:0:0:
228,80,169046,5,2,0:0:0:0:
364,50,169225,1,0,0:0:0:0:
277,195,169403,2,0,L|213:187,3,50,8|0|0|0,0:0|0:0|0:0|0:0,0:0:0:0:
245,236,169761,1,2,0:0:0:0:
247,285,169850,1,0,0:0:0:0:
280,322,169939,1,0,0:0:0:0:
328,334,170028,1,0,0:0:0:0:
375,318,170117,5,8,0:0:0:0:
391,270,170207,1,0,0:0:0:0:
407,222,170296,1,0,0:0:0:0:
423,175,170385,1,0,0:0:0:0:
437,126,170475,6,0,L|462:17,1,100,2|0,0:0|0:0,0:0:0:0:
437,15,170742,1,0,0:0:0:0:
411,12,170832,2,0,P|342:28|297:53,1,100,8|0,0:0|0:0,0:0:0:0:
299,59,171100,1,0,0:0:0:0:
289,82,171189,5,10,0:0:0:0:
459,28,171367,1,8,0:0:0:0:
337,209,171546,1,8,0:0:0:0:
230,22,171725,1,8,0:0:0:0:
441,152,171903,5,0,1:0:0:0:
105,349,172260,1,0,1:0:0:0:
230,22,172617,1,0,1:0:0:0:
230,22,173332,6,0,L|242:185,1,150.000005722046,4|0,0:0|0:0,0:0:0:0:
338,226,173867,1,0,0:0:0:0:
338,226,174046,2,0,L|345:128,2,75.0000028610231,0|0|0,0:0|0:0|0:0,0:0:0:0:
241,284,174582,1,0,0:0:0:0:
241,171,174760,6,0,P|203:125|105:128,1,150.000005722046,4|0,0:0|0:0,0:0:0:0:
13,203,175296,2,0,P|71:193|118:106,1,150.000005722046
79,37,175832,1,2,0:1:0:0:
79,37,176190,5,6,0:0:0:0:
226,72,176368,1,2,0:0:0:0:
226,72,176547,1,2,0:0:0:0:
94,154,176725,5,6,0:0:0:0:
159,17,176904,1,2,0:0:0:0:
159,17,177082,1,2,0:0:0:0:
205,165,177261,5,6,0:0:0:0:
79,37,177440,1,2,0:0:0:0:
79,37,177618,1,2,0:0:0:0:
258,47,177797,5,6,0:0:0:0:
122,196,177975,1,2,0:0:0:0:
122,196,178154,1,2,0:0:0:0:
185,16,178332,5,6,0:0:0:0:
314,174,178511,1,2,0:0:0:0:
314,174,178689,1,2,0:0:0:0:
129,112,178868,5,6,0:0:0:0:
318,26,179047,1,2,0:0:0:0:
318,26,179225,1,2,0:0:0:0:
208,222,179404,5,6,0:0:0:0:
150,15,179582,1,2,0:0:0:0:
150,15,179761,1,2,0:0:0:0:
350,126,179939,5,6,0:0:0:0:
116,208,180118,1,2,0:0:0:0:
116,208,180296,1,2,0:0:0:0:
272,13,180475,5,6,0:0:0:0:
296,259,180654,1,2,0:0:0:0:
296,259,180832,5,6,0:0:0:0:
168,104,181011,1,2,0:0:0:0:
365,78,181189,1,2,0:0:0:0:
213,209,181368,1,2,0:0:0:0:
172,13,181546,1,2,0:0:0:0:
305,162,181725,1,2,0:0:0:0:
76,66,181904,5,0,0:0:0:0:
105,182,182082,1,2,0:0:0:0:
105,182,182171,1,2,0:0:0:0:
105,182,182261,2,0,L|98:288,1,100,2|2,0:0|0:0,0:0:0:0:
128,356,182618,1,2,0:0:0:0:
203,329,182796,1,2,0:0:0:0:
173,254,182975,1,2,0:0:0:0:
98,281,183153,1,2,0:0:0:0:
203,329,183332,6,0,L|316:323,1,100,0|0,0:0|0:0,0:0:0:0:
343,322,183600,1,0,0:0:0:0:
343,322,183689,1,2,0:0:0:0:
399,265,183868,1,2,0:0:0:0:
336,214,184046,1,2,0:0:0:0:
392,157,184225,1,2,0:0:0:0:
255,90,184404,5,2,0:0:0:0:
243,241,184582,1,2,0:0:0:0:
243,241,184671,1,2,0:0:0:0:
243,241,184761,6,0,P|194:201|124:208,1,119.999996337891,6|0,0:0|0:0,0:0:0:0:
61,157,185028,2,0,P|50:219|91:276,1,119.999996337891,0|0,0:0|0:0,0:0:0:0:
166,287,185296,1,0,0:0:0:0:
138,109,185475,6,0,P|89:69|19:76,1,119.999996337891,2|0,0:0|0:0,0:0:0:0:
139,201,185743,2,0,P|198:178|227:114,1,119.999996337891,0|0,0:0|0:0,0:0:0:0:
61,157,186011,1,0,0:0:0:0:
62,249,186189,6,0,P|106:286|173:283,1,119.999996337891,2|0,0:0|0:0,0:0:0:0:
231,349,186457,2,0,P|276:311|335:312,1,119.999996337891,0|0,0:0|0:0,0:0:0:0:
415,353,186725,1,0,0:0:0:0:
334,167,186903,5,2,0:0:0:0:
166,285,187082,1,0,0:0:0:0:
166,285,187171,1,0,0:0:0:0:
166,285,187261,1,8,0:0:0:0:
335,312,187439,1,0,0:0:0:0:
165,140,187618,5,6,0:0:0:0:
165,140,187975,2,0,B|237:119|237:119|210:193,1,150.000005722046,0|0,0:0|0:0,0:0:0:0:
148,65,188511,6,0,L|217:44,1,59.9999981689454,8|0,0:0|0:0,0:0:0:0:
307,153,188689,2,0,L|281:224,1,59.9999981689454,8|0,0:0|0:0,0:0:0:0:
286,70,188868,1,0,0:0:0:0:
286,70,188957,1,0,0:0:0:0:
286,70,189046,6,0,P|345:76|385:185,1,179.999994506836,6|0,0:0|0:0,0:0:0:0:
408,259,189314,2,0,P|349:253|309:144,1,179.999994506836,6|0,0:0|0:0,0:0:0:0:
469,201,189582,2,0,P|491:245|485:293,1,89.9999972534181,2|0,0:0|0:0,0:0:0:0:
426,340,189761,1,6,0:0:0:0:
387,176,189939,6,0,L|393:73,1,89.9999972534181,8|0,0:1|0:0,0:0:0:0:
240,280,190118,6,0,L|234:177,1,89.9999972534181,8|0,0:1|0:0,0:0:0:0:
318,317,190475,6,0,P|271:363|196:355,1,119.999996337891,6|0,0:0|0:0,0:0:0:0:
149,219,190743,2,0,P|212:236|242:305,1,119.999996337891
158,306,191011,1,0,0:0:0:0:
88,155,191189,6,0,P|148:131|204:152,1,119.999996337891,2|0,0:0|0:0,0:0:0:0:
64,239,191457,2,0,P|13:199|3:140,1,119.999996337891,0|0,0:0|0:0,0:0:0:0:
148,218,191725,1,0,0:0:0:0:
124,302,191903,6,0,P|70:327|9:308,1,119.999996337891,2|0,0:0|0:0,0:0:0:0:
208,281,192171,2,0,P|264:265|318:290,1,119.999996337891,0|0,0:0|0:0,0:0:0:0:
365,368,192439,1,0,0:0:0:0:
394,158,192618,5,2,0:0:0:0:
265,355,192796,1,0,0:0:0:0:
265,355,192886,1,0,0:0:0:0:
265,355,192975,1,8,0:0:0:0:
458,312,193153,1,0,0:0:0:0:
262,177,193332,5,6,0:0:0:0:
262,177,193689,2,0,B|243:102|243:102|177:146,1,150.000005722046,0|0,0:0|0:0,0:0:0:0:
332,154,194225,6,0,L|316:92,1,59.9999981689454,8|0,0:0|0:0,0:0:0:0:
199,42,194403,2,0,L|140:81,1,59.9999981689454,8|0,0:0|0:0,0:0:0:0:
201,231,194582,1,0,0:0:0:0:
201,231,194671,1,0,0:0:0:0:
201,231,194761,6,0,L|23:202,1,179.999994506836,6|0,0:0|0:0,0:0:0:0:
262,177,195028,2,0,P|282:234|199:313,1,179.999994506836,6|0,0:0|0:0,0:0:0:0:
327,326,195296,2,0,P|349:288|359:229,1,89.9999972534181,2|0,0:0|0:0,0:0:0:0:
355,145,195475,1,6,0:0:0:0:
404,354,195653,6,0,L|495:351,1,89.9999972534181,8|0,0:1|0:0,0:0:0:0:
445,148,195832,6,0,L|354:145,1,89.9999972534181,8|0,0:1|0:0,0:0:0:0:
422,264,196189,6,0,P|444:191|442:129,1,119.999996337891,6|0,0:0|0:0,0:0:0:0:
440,117,196457,1,0,0:0:0:0:
427,89,196546,2,0,L|303:66,1,119.999996337891,2|0,0:0|0:0,0:0:0:0:
176,97,196903,2,0,P|239:140|269:196,1,119.999996337891,2|0,0:0|0:0,0:0:0:0:
353,310,197261,6,0,B|344:233|344:233|386:162,1,150.000005722046,6|0,0:0|0:0,0:0:0:0:
233,284,197618,6,0,P|166:313|114:317,1,119.999996337891,6|0,0:0|0:0,0:0:0:0:
90,308,197886,1,0,0:0:0:0:
70,285,197975,2,0,L|58:154,1,119.999996337891,2|0,0:0|0:0,0:0:0:0:
24,35,198332,2,0,P|76:68|144:84,1,119.999996337891,2|0,0:0|0:0,0:0:0:0:
306,49,198689,6,0,B|236:72|236:72|191:151,1,150.000005722046,6|0,0:0|0:0,0:0:0:0:
195,261,199046,6,0,P|269:242|318:142,1,179.999994506836,6|0,0:0|0:0,0:0:0:0:
341,100,199403,2,0,P|362:174|399:215,1,119.999996337891,2|0,0:0|0:0,0:0:0:0:
502,312,199761,2,0,L|311:329,1,179.999994506836,6|0,0:0|0:0,0:0:0:0:
270,358,200118,2,0,P|287:282|274:229,1,119.999996337891,2|0,0:0|0:0,0:0:0:0:
232,104,200475,5,6,0:0:0:0:
232,104,200653,1,8,0:0:0:0:
388,206,200832,1,2,0:0:0:0:
388,206,201011,1,8,0:0:0:0:
179,234,201189,1,2,0:0:0:0:
179,234,201368,1,8,0:0:0:0:
337,61,201546,1,2,0:0:0:0:
337,61,201725,1,8,0:0:0:0:
279,241,201903,5,2,0:0:0:0:
279,241,202261,2,0,P|226:212|302:214,2,200,2|2|2,0:0|0:0|0:0,0:0:0:0:
377,256,203332,1,2,0:0:0:0:
436,175,203689,1,2,0:0:0:0:
367,102,204046,1,2,0:0:0:0:
367,102,204761,5,2,0:0:0:0:
256,288,205118,1,2,0:0:0:0:
