osu file format v14

[General]
AudioFilename: drop kick.mp3
AudioLeadIn: 0
PreviewTime: 96100
Countdown: 0
SampleSet: Soft
StackLeniency: 0.5
Mode: 0
LetterboxInBreaks: 0
WidescreenStoryboard: 1

[Editor]
DistanceSpacing: 1.2
BeatDivisor: 4
GridSize: 4
TimelineZoom: 1.8

[Metadata]
Title:Gabriel Drop Kick
TitleUnicode:ガヴリールドロップキック
Artist:Tomita Miyu, Onishi Saori, Ohzora Naomi, Hanazawa Kana
ArtistUnicode:富田美憂、大西沙織、大空直美、花澤香菜
Creator:Doormat
Version:Karen's Hard
Source:ガヴリールドロップアウト
Tags:Kalibe SnowNiNo_ Karen dropout gabdro dropkick ガヴドロ opening full size tenma gabriel white 天真・ガヴリール・ホワイト tsukinose vignette april 月乃瀬・ヴィネット・エイプリル vigne ヴィーネ kurumizawa satanichia mcdowell 胡桃沢・サタニキア・マクドウェル satania サターニャ shiraha raphiel ainsworth 白羽・ラフィエル・エインズワース
BeatmapID:1242477
BeatmapSetID:576517

[Difficulty]
HPDrainRate:5
CircleSize:3.8
OverallDifficulty:6
ApproachRate:7
SliderMultiplier:1.6
SliderTickRate:1

[Events]
//Background and Video events
0,0,"dropout_background.jpg",0,0
//Break Periods
2,42103,43860
//Storyboard Layer 0 (Background)
//Storyboard Layer 1 (Fail)
//Storyboard Layer 2 (Pass)
//Storyboard Layer 3 (Foreground)
//Storyboard Sound Samples

[TimingPoints]
3333,357.142857142857,4,2,2,50,1,0
3333,-133.333333333333,4,2,2,50,0,0
10475,357.142857142857,4,2,1,70,1,0
21903,-133.333333333333,4,2,2,50,0,0
24760,-133.333333333333,4,2,1,70,0,0
27617,-133.333333333333,4,2,2,50,0,0
30474,-133.333333333333,4,2,1,70,0,0
33332,-117.647058823529,4,2,1,70,0,0
41903,-117.647058823529,4,2,1,5,0,0
44403,-117.647058823529,4,2,1,70,0,0
44760,-117.647058823529,4,2,1,70,0,0
56189,-117.647058823529,4,2,1,60,0,0
58689,-117.647058823529,4,2,1,80,0,0
59047,357.142857142857,5,2,1,60,1,0
59047,-117.647058823529,5,2,1,60,0,0
60654,357.142857142857,5,2,1,65,1,0
60654,-117.647058823529,5,2,1,65,0,0
62261,357.142857142857,4,2,1,70,1,0
62261,-117.647058823529,4,2,1,70,0,0
64761,357.142857142857,4,2,2,50,1,0
64761,-117.647058823529,4,2,2,50,0,0
65832,-117.647058823529,4,2,1,50,0,0
66190,357.142857142857,4,2,1,70,1,1
71547,-100,4,2,1,80,0,1
71815,-100,4,2,1,70,0,1
77261,-100,4,2,1,80,0,1
77529,-100,4,2,1,70,0,1
78690,-100,4,2,1,80,0,1
79047,-100,4,2,1,70,0,1
80118,-100,4,2,1,80,0,1
80475,-100,4,2,1,70,0,1
80832,-100,4,2,1,80,0,1
81190,-100,4,2,1,70,0,1
81547,-100,4,2,1,80,0,1
81904,-100,4,2,1,90,0,1
83332,-100,3,2,1,90,0,0
83333,357.142857142857,3,2,2,50,1,0
83333,-133.333333333333,3,2,2,50,0,0
87618,-133.333333333333,3,2,3,60,0,0
95565,-133.333333333333,3,2,3,5,0,0
96190,-133.333333333333,3,2,3,60,0,0
113333,357.142857142857,4,2,1,60,1,0
115833,-100,4,2,1,60,0,0
116190,357.142857142857,4,2,1,70,1,0
116190,-117.647058823529,4,2,1,70,0,0
127618,-117.647058823529,4,2,1,60,0,0
130118,-117.647058823529,4,2,1,80,0,0
130475,357.142857142857,5,2,1,60,1,0
130475,-117.647058823529,5,2,1,60,0,0
132083,357.142857142857,5,2,1,65,1,0
132083,-117.647058823529,5,2,1,65,0,0
133690,357.142857142857,4,2,1,70,1,0
133690,-117.647058823529,4,2,1,70,0,0
136190,357.142857142857,4,2,2,50,1,0
136190,-117.647058823529,4,2,2,50,0,0
137261,-117.647058823529,4,2,1,50,0,0
137618,357.142857142857,4,2,1,70,1,1
142975,-100,4,2,1,80,0,1
143243,-100,4,2,1,70,0,1
148689,-100,4,2,1,80,0,1
149046,-100,4,2,1,90,0,1
150385,-100,4,2,1,70,0,1
150475,357.142857142857,4,2,1,80,1,0
161903,-100,4,2,1,70,0,0
173332,-117.647058823529,4,2,1,60,0,0
175832,-117.647058823529,4,2,1,80,0,0
176190,357.142857142857,5,2,1,60,1,0
176190,-117.647058823529,5,2,1,60,0,0
177797,357.142857142857,5,2,1,65,1,0
177797,-117.647058823529,5,2,1,65,0,0
179404,357.142857142857,4,2,1,70,1,0
179404,-117.647058823529,4,2,1,70,0,0
181904,357.142857142857,4,2,2,50,1,0
181904,-117.647058823529,4,2,2,50,0,0
184404,-117.647058823529,4,2,1,50,0,0
184761,357.142857142857,4,2,1,70,1,1
190118,-100,4,2,1,80,0,1
190386,-100,4,2,1,70,0,1
195832,-100,4,2,1,80,0,1
196100,-100,4,2,1,70,0,1
197261,-100,4,2,1,80,0,1
197618,-100,4,2,1,70,0,1
198689,-100,4,2,1,80,0,1
199046,-100,4,2,1,70,0,1
199403,-100,4,2,1,80,0,1
199761,-100,4,2,1,70,0,1
200118,-100,4,2,1,80,0,1
200475,-100,4,2,1,90,0,1
201904,357.142857142857,3,2,2,50,1,0
201904,-133.333333333333,3,2,2,50,0,0

[Colours]
Combo1 : 158,123,189
Combo2 : 227,84,102
Combo3 : 238,162,25
Combo4 : 167,204,49

[HitObjects]
150,211,3333,6,0,P|230:206|303:283,1,180.000006866455,2|0,0:0|0:0,0:0:0:0:
378,242,4047,1,2,0:0:0:0:
378,242,4225,2,0,L|448:231,1,60.0000022888184
504,181,4583,1,0,0:0:0:0:
454,113,4761,2,0,P|383:160|283:124,1,180.000006866455,2|0,0:0|0:0,0:0:0:0:
246,69,5475,2,0,L|125:72,1,120.000004577637,2|0,0:0|0:0,0:0:0:0:
38,213,6190,6,0,B|64:275|64:275|58:339,1,120.000004577637,2|0,0:0|0:0,0:0:0:0:
182,214,6904,2,0,B|156:276|156:276|162:340,1,120.000004577637,2|0,0:0|0:0,0:0:0:0:
115,136,7618,2,0,L|381:140,2,240.000009155274,2|2|2,0:0|0:0|0:0,0:0:0:0:
211,302,9761,6,0,B|205:260|205:260|232:230|232:230|280:231|280:231|309:263|309:263|299:302,1,210.000008010865,0|0,0:0|0:0,0:0:0:0:
300,297,10475,6,0,P|370:285|422:354,1,160,6|8,0:0|0:0,0:0:0:0:
472,267,11010,1,0,0:0:0:0:
472,267,11189,2,0,P|455:226|455:188,1,80,2|0,0:0|0:0,0:0:0:0:
488,100,11546,1,8,0:0:0:0:
415,37,11725,1,0,0:0:0:0:
415,37,11814,1,0,0:0:0:0:
415,37,11903,6,0,P|374:50|321:55,1,80,2|0,0:0|0:0,0:0:0:0:
234,125,12260,2,0,P|273:130|311:142,1,80,8|0,0:0|0:0,0:0:0:0:
338,235,12617,1,2,0:0:0:0:
338,235,12796,1,0,0:0:0:0:
279,311,12975,1,8,0:0:0:0:
195,283,13153,1,0,0:0:0:0:
195,283,13242,1,0,0:0:0:0:
195,283,13332,6,0,P|201:317|198:373,1,80,6|0,0:0|0:0,0:0:0:0:
70,349,13689,2,0,P|76:303|93:270,1,80,8|0,0:0|0:0,0:0:0:0:
144,193,14046,1,2,0:0:0:0:
144,193,14224,1,0,0:0:0:0:
100,107,14403,1,8,0:0:0:0:
171,42,14582,1,0,0:0:0:0:
171,42,14671,1,0,0:0:0:0:
171,42,14760,6,0,P|213:65|257:68,1,80,2|0,0:0|0:0,0:0:0:0:
404,4,15117,2,0,P|364:10|330:31,1,80,8|0,0:0|0:0,0:0:0:0:
293,153,15474,1,10,0:0:0:0:
293,153,15653,1,8,0:0:0:0:
296,249,15832,1,8,0:0:0:0:
296,249,16010,1,8,0:0:0:0:
383,281,16189,6,0,L|395:197,1,80,6|0,0:0|0:0,0:0:0:0:
475,253,16546,1,8,0:0:0:0:
475,253,16724,1,0,0:0:0:0:
441,116,16903,2,0,L|347:121,1,80,2|0,0:0|0:0,0:0:0:0:
402,33,17260,1,8,0:0:0:0:
402,33,17439,1,0,0:0:0:0:
278,67,17617,6,0,B|277:167|277:167|327:225,1,160,2|8,0:0|0:0,0:0:0:0:
412,281,18153,1,0,0:0:0:0:
412,281,18242,1,0,0:0:0:0:
412,281,18332,2,0,P|415:232|406:191,1,80,2|0,0:0|0:0,0:0:0:0:
361,120,18689,1,8,0:0:0:0:
361,120,18867,1,0,0:0:0:0:
266,135,19046,6,0,L|217:152,3,40,2|0|0|0,0:0|0:0|0:0|0:0,0:0:0:0:
180,142,19403,2,0,L|113:120,3,40,8|0|0|0,0:0|0:0|0:0|0:0,0:0:0:0:
96,148,19760,2,0,P|52:168|12:160,1,80,12|8,0:0|0:0,0:0:0:0:
40,68,20117,1,8,0:0:0:0:
40,68,20296,1,8,0:0:0:0:
132,36,20474,5,0,1:0:0:0:
298,133,20832,1,0,1:0:0:0:
149,248,21189,1,0,1:0:0:0:
149,248,21903,6,0,P|85:244|30:274,1,120.000004577637,2|2,0:0|0:0,0:0:0:0:
155,348,22617,2,0,P|219:352|274:322,1,120.000004577637,2|2,0:0|0:0,0:0:0:0:
370,226,23332,2,0,L|361:353,1,120.000004577637,2|2,0:0|0:0,0:0:0:0:
274,231,24046,2,0,L|282:111,1,120.000004577637,2|2,0:0|0:0,0:0:0:0:
399,27,24760,6,0,B|476:13|476:13|512:54,1,120.000004577637,4|0,0:0|0:0,0:0:0:0:
472,122,25296,1,0,0:0:0:0:
472,122,25474,2,0,L|471:191,1,60.0000022888184,8|0,0:0|0:0,0:0:0:0:
493,263,25832,1,0,0:0:0:0:
475,348,26010,1,8,0:0:0:0:
475,348,26367,6,0,L|403:335,1,60.0000022888184,0|0,0:0|0:0,0:0:0:0:
356,277,26724,1,0,0:0:0:0:
282,318,26903,2,0,P|274:271|284:240,1,60.0000022888184,8|0,0:0|0:0,0:0:0:0:
327,192,27260,1,8,0:0:0:0:
374,125,27439,1,0,3:0:0:0:
374,125,27528,1,0,3:0:0:0:
374,125,27617,6,0,P|344:146|256:136,1,120.000004577637,2|2,0:0|0:0,0:0:0:0:
111,70,28332,2,0,P|141:49|229:59,1,120.000004577637,2|2,0:0|0:0,0:0:0:0:
167,254,29046,2,0,L|174:132,1,120.000004577637,2|2,0:0|0:0,0:0:0:0:
22,61,29760,2,0,L|15:180,1,120.000004577637,2|2,0:0|0:0,0:0:0:0:
75,337,30474,6,0,P|131:309|207:306,1,120.000004577637,4|0,0:0|0:0,0:0:0:0:
257,218,31010,1,0,0:0:0:0:
257,218,31189,2,0,P|188:223|128:192,1,120.000004577637,8|0,0:0|0:0,0:0:0:0:
92,136,31724,1,8,0:0:0:0:
92,136,32082,5,0,0:0:0:0:
151,76,32260,2,0,L|214:64,1,60.0000022888184,0|0,0:0|0:0,0:0:0:0:
287,97,32617,2,0,L|304:55,3,30.0000011444092,0|0|0|0,3:0|3:0|3:0|3:0,0:0:0:0:
331,42,32974,2,0,L|372:41,3,30.0000011444092,0|0|0|0,3:0|3:0|3:0|3:0,0:0:0:0:
403,64,33332,6,0,P|447:84|522:32,2,136.000002593994,6|8|2,0:0|0:0|0:0,0:0:0:0:
301,225,34403,2,0,L|300:311,1,68.0000012969971,8|0,0:0|0:0,0:0:0:0:
391,322,34760,6,0,P|458:314|509:356,2,136.000002593994,2|8|2,0:0|0:0|0:0,0:0:0:0:
209,380,35832,2,0,L|135:361,1,68.0000012969971,8|0,0:0|0:0,0:0:0:0:
150,267,36189,6,0,P|167:193|128:120,1,136.000002593994,6|8,0:0|0:0,0:0:0:0:
264,192,36724,1,0,0:0:0:0:
264,192,36903,2,0,L|257:272,1,68.0000012969971,2|0,0:0|0:0,0:0:0:0:
346,294,37260,1,8,0:0:0:0:
346,294,37439,6,0,L|361:134,1,136.000002593994,0|0,0:0|0:0,0:0:0:0:
428,94,37974,2,0,P|467:110|508:100,1,68.0000012969971,8|0,0:0|0:0,0:0:0:0:
429,0,38332,1,2,0:0:0:0:
429,0,38510,1,8,0:0:0:0:
333,0,38689,1,2,0:0:0:0:
333,0,38867,1,8,0:0:0:0:
265,66,39046,6,0,P|205:92|119:61,1,136.000002593994,6|8,0:0|0:0,0:0:0:0:
44,59,39582,1,0,0:0:0:0:
44,59,39760,2,0,P|50:93|43:137,1,68.0000012969971,2|0,0:0|0:0,0:0:0:0:
128,234,40117,2,0,P|122:200|129:156,1,68.0000012969971,8|0,0:0|0:0,0:0:0:0:
229,98,40474,6,0,B|271:95|271:95|319:111|319:111|382:102,1,136.000002593994,6|8,0:0|0:0,0:0:0:0:
357,295,41189,2,0,B|314:301|314:301|266:285|266:285|224:288,2,136.000002593994,2|8|0,0:0|0:0|0:0,0:0:0:0:
137,115,44760,6,0,P|183:112|213:135,1,68.0000012969971,6|0,0:0|0:0,0:0:0:0:
160,208,45117,1,8,0:0:0:0:
160,208,45296,1,0,0:0:0:0:
185,299,45474,2,0,P|139:302|109:279,1,68.0000012969971,2|0,0:0|0:0,0:0:0:0:
160,208,45832,1,8,0:0:0:0:
160,208,46010,1,0,0:0:0:0:
274,261,46189,6,0,L|267:333,1,68.0000012969971,2|0,0:0|0:0,0:0:0:0:
359,304,46546,1,8,0:0:0:0:
359,304,46724,1,0,0:0:0:0:
446,340,46903,2,0,L|446:265,1,68.0000012969971,2|0,0:0|0:0,0:0:0:0:
359,304,47260,1,8,0:0:0:0:
359,304,47438,1,0,0:0:0:0:
422,184,47617,6,0,P|464:182|498:199,2,68.0000012969971,6|0|8,0:0|0:0|0:0,0:0:0:0:
364,108,48153,1,0,0:0:0:0:
364,108,48332,2,0,P|361:74|349:42,1,68.0000012969971,2|0,0:0|0:0,0:0:0:0:
466,29,48689,2,0,P|454:60|451:94,1,68.0000012969971,8|0,0:0|0:0,0:0:0:0:
333,199,49046,5,8,0:0:0:0:
333,199,49403,1,8,0:0:0:0:
333,199,49760,6,0,L|320:280,1,68.0000012969971,8|8,0:0|0:0,0:0:0:0:
254,149,50117,2,0,L|241:230,1,68.0000012969971,8|8,0:0|0:0,0:0:0:0:
177,285,50474,6,0,P|136:280|90:299,1,68.0000012969971,6|0,0:0|0:0,0:0:0:0:
76,376,50832,1,8,0:0:0:0:
76,376,51010,1,0,0:0:0:0:
93,194,51189,2,0,P|63:207|25:246,1,68.0000012969971,2|0,0:0|0:0,0:0:0:0:
3,319,51546,1,8,0:0:0:0:
3,319,51724,1,0,0:0:0:0:
170,360,51903,6,0,L|255:359,1,68.0000012969971,2|0,0:0|0:0,0:0:0:0:
323,316,52260,2,0,L|362:345,2,34.0000006484985,8|0|0,0:0|0:0|0:0,0:0:0:0:
203,243,52617,2,0,P|200:210|215:160,1,68.0000012969971,2|0,0:0|0:0,0:0:0:0:
284,120,52974,1,8,0:0:0:0:
284,120,53153,1,0,0:0:0:0:
359,221,53332,6,0,L|277:212,1,68.0000012969971,8|8,0:0|0:0,0:0:0:0:
284,120,53689,2,0,L|351:127,1,68.0000012969971,8|8,0:0|0:0,0:0:0:0:
449,200,54046,2,0,L|437:283,1,68.0000012969971,8|8,0:0|0:0,0:0:0:0:
349,288,54403,2,0,L|358:220,1,68.0000012969971,8|8,0:0|0:0,0:0:0:0:
440,103,54760,6,0,L|456:67,2,34.0000006484985,8|0|8,0:0|0:0|0:0,0:0:0:0:
369,38,55117,2,0,P|328:27|290:30,1,68.0000012969971,8|8,0:0|0:0,0:0:0:0:
230,90,55474,1,8,0:0:0:0:
135,105,55653,2,0,L|143:146,2,34.0000006484985,8|0|8,0:0|0:0|0:0,0:0:0:0:
174,17,56010,1,8,0:0:0:0:
174,17,56189,6,0,P|126:51|38:37,1,136.000002593994,6|2,0:0|0:0,0:0:0:0:
0,143,56724,1,0,0:0:0:0:
0,143,56814,1,0,0:0:0:0:
0,143,56903,2,0,P|37:133|76:140,1,68.0000012969971,2|0,0:0|0:0,0:0:0:0:
126,218,57260,1,2,0:0:0:0:
126,218,57617,6,0,P|108:286|113:370,1,136.000002593994,6|2,0:0|0:0,0:0:0:0:
20,384,58153,2,0,P|24:348|18:298,1,68.0000012969971,4|2,0:0|0:0,0:0:0:0:
36,222,58510,1,0,0:0:0:0:
131,311,58689,1,2,0:1:0:0:
131,311,59047,6,0,P|172:298|207:307,1,68.0000012969971,6|2,0:0|0:0,0:0:0:0:
270,361,59404,1,2,0:0:0:0:
268,244,59582,2,0,P|236:215|203:209,1,68.0000012969971,6|2,0:0|0:0,0:0:0:0:
117,210,59939,1,2,0:0:0:0:
193,120,60118,2,0,P|234:120|282:142,1,68.0000012969971,6|2,0:0|0:0,0:0:0:0:
341,177,60475,1,2,0:0:0:0:
426,133,60654,6,0,P|428:98|418:54,2,68.0000012969971,6|2|2,0:0|0:0|0:0,0:0:0:0:
444,231,61189,2,0,P|475:215|508:184,2,68.0000012969971,6|2|2,0:0|0:0|0:0,0:0:0:0:
373,298,61725,2,0,P|402:317|445:330,2,68.0000012969971,6|2|2,0:0|0:0|0:0,0:0:0:0:
341,177,62261,6,0,B|252:195|252:195|181:172,1,136.000002593994,6|2,0:0|0:0,0:0:0:0:
263,103,62796,2,0,P|265:68|250:30,2,68.0000012969971,6|2|2,0:0|0:0|0:0,0:0:0:0:
276,246,63332,2,0,P|268:283|280:324,1,68.0000012969971,6|2,0:0|0:0,0:0:0:0:
196,367,63689,6,0,L|107:349,1,68.0000012969971,6|2,0:0|0:0,0:0:0:0:
95,201,64046,2,0,L|123:287,1,68.0000012969971,2|2,0:0|0:0,0:0:0:0:
6,379,64403,2,0,L|66:310,1,68.0000012969971,2|2,0:0|0:0,0:0:0:0:
12,240,64761,5,0,0:0:0:0:
31,147,64939,1,2,0:0:0:0:
31,147,65028,1,2,0:0:0:0:
31,147,65118,2,0,P|41:96|34:56,1,68.0000012969971,2|2,0:0|0:0,0:0:0:0:
138,19,65475,2,0,P|128:70|135:110,1,68.0000012969971,2|2,0:0|0:0,0:0:0:0:
185,162,65832,1,2,0:0:0:0:
273,127,66011,1,2,0:0:0:0:
273,127,66100,1,2,0:0:0:0:
273,127,66189,6,0,P|316:115|383:139,1,102.000001945496,6|0,0:0|0:0,0:0:0:0:
388,174,66547,2,0,L|375:257,1,80,8|0,0:0|0:0,0:0:0:0:
291,354,66904,2,0,P|303:301|280:241,1,120,2|0,0:0|0:0,0:0:0:0:
233,252,67261,2,0,L|154:249,1,80,8|0,0:0|0:0,0:0:0:0:
64,210,67618,6,0,P|52:157|85:92,1,120,2|0,0:0|0:0,0:0:0:0:
120,75,67975,1,8,0:0:0:0:
191,139,68154,1,0,0:0:0:0:
288,55,68332,1,2,0:0:0:0:
292,154,68511,1,0,0:0:0:0:
292,154,68600,1,0,0:0:0:0:
292,154,68690,2,0,L|377:141,1,80,8|0,0:0|0:0,0:0:0:0:
345,234,69047,5,6,0:0:0:0:
345,234,69940,1,8,0:0:0:0:
321,361,70118,2,0,L|402:345,1,80,8|0,0:0|0:0,0:0:0:0:
405,297,70386,1,0,0:0:0:0:
405,297,70475,6,0,P|455:284|516:327,2,120,6|6|2,0:0|0:0|0:0,0:0:0:0:
321,361,71190,1,6,0:0:0:0:
345,234,71368,1,8,0:1:0:0:
345,234,71547,1,8,0:1:0:0:
173,320,71904,6,0,P|190:269|155:189,1,120,6|0,0:0|0:0,0:0:0:0:
170,158,72261,2,0,L|261:175,1,80,8|0,0:0|0:0,0:0:0:0:
336,56,72618,2,0,P|283:83|212:65,1,120,2|0,0:0|0:0,0:0:0:0:
186,43,72975,2,0,L|101:59,1,80,8|0,0:0|0:0,0:0:0:0:
27,3,73332,6,0,P|11:53|48:138,1,120,2|0,0:0|0:0,0:0:0:0:
67,146,73690,1,8,0:0:0:0:
50,240,73868,1,0,0:0:0:0:
87,328,74047,2,0,P|144:328|175:302,1,80,2|0,0:0|0:0,0:0:0:0:
185,277,74315,1,0,0:0:0:0:
185,277,74404,2,0,L|173:175,1,80,8|0,0:0|0:0,0:0:0:0:
263,160,74761,5,6,0:0:0:0:
263,160,75654,1,8,0:0:0:0:
312,62,75832,2,0,L|213:62,1,80,8|0,0:0|0:0,0:0:0:0:
200,100,76100,1,0,0:0:0:0:
200,100,76190,6,0,P|184:40|107:15,2,120,6|6|2,0:0|0:0|0:0,0:0:0:0:
127,163,76904,1,6,0:0:0:0:
263,160,77082,1,8,0:1:0:0:
263,160,77261,2,0,L|349:143,1,80,8|0,0:1|0:0,0:0:0:0:
372,235,77618,6,0,P|418:260|495:239,1,120,6|0,0:0|0:0,0:0:0:0:
499,203,77975,1,2,0:0:0:0:
447,121,78154,1,0,0:0:0:0:
372,235,78332,2,0,L|370:372,1,120,2|0,0:0|0:0,0:0:0:0:
326,377,78690,2,0,P|282:364|229:375,1,80,6|0,0:0|0:0,0:0:0:0:
175,269,79047,6,0,P|230:290|302:251,1,120,6|0,0:0|0:0,0:0:0:0:
284,221,79404,1,2,0:0:0:0:
239,136,79582,1,0,0:0:0:0:
311,41,79761,2,0,L|166:33,1,120,2|0,0:0|0:0,0:0:0:0:
148,11,80118,2,0,P|106:15|67:44,1,80,6|0,0:0|0:0,0:0:0:0:
143,124,80475,6,0,P|147:185|112:250,1,120,6|0,0:0|0:0,0:0:0:0:
75,242,80832,2,0,L|88:329,1,80,2|0,0:0|0:0,0:0:0:0:
197,374,81190,2,0,P|193:313|228:248,1,120,6|0,0:0|0:0,0:0:0:0:
265,256,81547,2,0,L|245:169,1,80,2|0,0:0|0:0,0:0:0:0:
208,60,81904,6,0,P|257:48|295:58,1,80,6|8,0:0|0:0,0:0:0:0:
328,140,82261,2,0,P|367:145|410:128,1,80,2|8,0:0|0:0,0:0:0:0:
487,92,82618,2,0,P|493:139|480:185,1,80,2|8,0:0|0:0,0:0:0:0:
413,225,82975,2,0,P|406:264|413:304,1,80,2|8,0:0|0:0,0:0:0:0:
497,261,83333,5,2,0:0:0:0:
346,368,83690,2,0,L|226:356,1,120.000004577637,2|2,0:0|0:0,0:0:0:0:
118,227,84404,1,2,0:0:0:0:
26,367,84761,2,0,L|146:355,1,120.000004577637,2|2,0:0|0:0,0:0:0:0:
254,226,85475,5,2,0:0:0:0:
254,226,86190,2,0,P|246:167|266:98,1,120.000004577637,2|2,0:0|0:0,0:0:0:0:
260,109,87618,6,0,L|131:98,1,120.000004577637,12|8,0:0|0:0,0:0:0:0:
54,243,88333,1,8,0:0:0:0:
54,243,88511,1,0,0:0:0:0:
54,243,88690,2,0,P|67:187|46:114,2,120.000004577637,12|8|8,0:3|0:0|0:0,0:0:0:0:
109,316,89583,1,0,0:0:0:0:
109,316,89761,6,0,P|163:294|228:327,1,120.000004577637,8|8,0:3|0:0,0:0:0:0:
378,363,90475,1,8,0:0:0:0:
378,363,90654,1,0,0:0:0:0:
378,363,90833,2,0,L|383:303,1,60.0000022888184,8|0,0:3|0:0,0:0:0:0:
306,220,91190,2,0,L|300:279,1,60.0000022888184,8|0,0:0|0:0,0:0:0:0:
395,215,91547,2,0,L|400:155,1,60.0000022888184,8|0,0:0|0:0,0:0:0:0:
359,52,91904,6,0,P|295:36|243:63,1,120.000004577637,12|8,0:0|0:0,0:0:0:0:
118,164,92618,1,8,0:0:0:0:
118,164,92797,1,0,0:0:0:0:
118,164,92975,2,0,B|132:87|132:87|106:39,2,120.000004577637,12|8|8,0:3|0:0|0:0,0:0:0:0:
48,117,93868,1,0,0:0:0:0:
48,117,94047,6,0,L|35:186,1,60.0000022888184,12|0,0:3|0:0,0:0:0:0:
56,270,94404,2,0,P|24:256|-16:257,1,60.0000022888184,8|0,0:0|0:0,0:0:0:0:
45,359,94761,2,0,P|74:356|101:343,1,60.0000022888184,8|0,0:0|0:0,0:0:0:0:
142,269,95118,1,12,0:3:0:0:
272,340,95475,1,2,0:0:0:0:
272,340,96190,6,0,P|307:326|398:364,1,120.000004577637,12|8,0:0|0:0,0:0:0:0:
490,218,96904,1,8,0:0:0:0:
490,218,97083,1,0,0:0:0:0:
490,218,97261,2,0,P|455:232|364:194,2,120.000004577637,12|8|8,0:3|0:0|0:0,0:0:0:0:
443,148,98154,1,0,0:0:0:0:
443,148,98333,6,0,L|454:20,1,120.000004577637,12|8,0:3|0:0,0:0:0:0:
288,61,99047,1,8,0:0:0:0:
288,61,99225,1,0,0:0:0:0:
288,61,99404,2,0,L|297:131,1,60.0000022888184,12|0,0:3|0:0,0:0:0:0:
352,182,99761,2,0,L|332:251,1,60.0000022888184,8|0,0:0|0:0,0:0:0:0:
362,319,100118,2,0,L|299:364,1,60.0000022888184,8|0,0:0|0:0,0:0:0:0:
216,348,100475,6,0,P|173:324|93:342,2,120.000004577637,12|8|8,0:0|0:0|0:0,0:0:0:0:
254,272,101368,1,0,0:0:0:0:
254,272,101547,2,0,P|250:239|263:196,1,60.0000022888184,12|0,0:3|0:0,0:0:0:0:
338,199,101904,2,0,L|335:61,1,120.000004577637,8|8,0:0|0:0,0:0:0:0:
420,106,102440,1,0,0:0:0:0:
420,106,102618,6,0,L|420:166,1,60.0000022888184,12|0,0:3|0:0,0:0:0:0:
500,190,102975,2,0,L|500:130,1,60.0000022888184,8|0,0:0|0:0,0:0:0:0:
460,20,103333,2,0,P|404:13|344:55,1,120.000004577637,8|12,0:0|0:3,0:0:0:0:
273,14,103868,1,0,0:0:0:0:
273,14,104047,2,0,L|197:23,1,60.0000022888184,12|0,0:3|0:0,0:0:0:0:
221,104,104404,2,0,L|148:89,1,60.0000022888184,12|0,0:3|0:0,0:0:0:0:
103,32,104761,6,0,B|82:78|82:78|89:163,2,120.000004577637,12|8|8,0:0|0:0|0:0,0:0:0:0:
167,95,105654,1,0,0:0:0:0:
167,95,105832,2,0,B|172:164|172:164|151:210,2,120.000004577637,12|8|8,0:3|0:0|0:0,0:0:0:0:
216,26,106725,1,0,0:0:0:0:
216,26,106904,6,0,P|271:8|337:51,2,120.000004577637,12|8|8,0:3|0:0|0:0,0:0:0:0:
270,100,107797,1,0,0:0:0:0:
270,100,107975,2,0,P|275:140|269:173,1,60.0000022888184,12|0,0:3|0:0,0:0:0:0:
356,166,108332,2,0,P|340:203|318:228,1,60.0000022888184,8|0,0:0|0:0,0:0:0:0:
394,271,108690,2,0,P|361:295|330:306,1,60.0000022888184,8|0,0:0|0:0,0:0:0:0:
245,245,109047,6,0,P|196:235|132:263,1,120.000004577637,12|8,0:0|0:0,0:0:0:0:
9,374,109761,1,8,0:0:0:0:
9,374,109940,1,0,0:0:0:0:
9,374,110118,2,0,L|18:235,2,120.000004577637,12|8|8,0:3|0:0|0:0,0:0:0:0:
91,340,111011,1,0,0:0:0:0:
91,340,111190,6,0,P|126:346|157:345,1,60.0000022888184,12|0,0:0|0:0,0:0:0:0:
211,287,111547,2,0,P|240:287|270:292,1,60.0000022888184,8|0,0:0|0:0,0:0:0:0:
328,353,111904,2,0,P|363:359|394:358,1,60.0000022888184,8|0,0:0|0:0,0:0:0:0:
436,290,112261,2,0,P|428:229|459:169,1,120.000004577637,12|8,0:0|0:0,0:0:0:0:
408,105,112797,1,0,0:0:0:0:
408,105,112975,2,0,L|410:26,1,60.0000022888184,8|0,0:0|0:0,0:0:0:0:
498,21,113333,5,2,0:0:0:0:
256,192,113422,12,0,114761,0:0:0:0:
313,95,116190,6,0,P|346:86|403:94,1,68.0000012969971,6|0,0:0|0:0,0:0:0:0:
443,158,116547,1,8,0:0:0:0:
443,158,116725,1,0,0:0:0:0:
416,249,116904,2,0,P|383:258|326:250,1,68.0000012969971,2|0,0:0|0:0,0:0:0:0:
276,207,117261,1,8,0:0:0:0:
276,207,117439,1,0,0:0:0:0:
224,287,117618,6,0,P|232:328|229:363,1,68.0000012969971,2|0,0:0|0:0,0:0:0:0:
137,332,117975,1,8,0:0:0:0:
137,332,118154,1,0,0:0:0:0:
44,352,118332,2,0,P|43:318|50:284,1,68.0000012969971,2|0,0:0|0:0,0:0:0:0:
137,332,118690,1,8,0:0:0:0:
137,332,118869,1,0,0:0:0:0:
114,210,119047,6,0,B|7:211|7:211|38:176,1,136.000002593994,6|8,0:0|0:0,0:0:0:0:
93,121,119582,1,0,0:0:0:0:
93,121,119761,2,0,P|92:67|88:45,1,68.0000012969971,2|0,0:0|0:0,0:0:0:0:
182,0,120118,2,0,P|183:54|187:76,1,68.0000012969971,8|0,0:0|0:0,0:0:0:0:
265,166,120475,5,8,0:0:0:0:
265,166,120832,1,8,0:0:0:0:
265,166,121190,6,0,L|345:149,1,68.0000012969971,8|8,0:0|0:0,0:0:0:0:
345,57,121547,2,0,L|278:71,1,68.0000012969971,8|8,0:0|0:0,0:0:0:0:
192,28,121904,6,0,P|151:23|105:42,1,68.0000012969971,6|0,0:0|0:0,0:0:0:0:
162,118,122262,1,8,0:0:0:0:
162,118,122440,1,0,0:0:0:0:
42,166,122619,2,0,P|33:206|47:260,1,68.0000012969971,2|0,0:0|0:0,0:0:0:0:
128,207,122976,1,8,0:0:0:0:
128,207,123154,1,0,0:0:0:0:
170,329,123333,6,0,L|255:328,1,68.0000012969971,2|0,0:0|0:0,0:0:0:0:
330,350,123690,2,0,L|339:390,2,34.0000006484985,8|0|0,0:0|0:0|0:0,0:0:0:0:
416,276,124047,2,0,P|413:243|428:193,1,68.0000012969971,2|0,0:0|0:0,0:0:0:0:
506,249,124404,1,8,0:0:0:0:
506,249,124583,1,0,0:0:0:0:
451,118,124762,6,0,L|369:109,1,68.0000012969971,8|8,0:0|0:0,0:0:0:0:
418,21,125119,2,0,L|351:14,1,68.0000012969971,8|8,0:0|0:0,0:0:0:0:
298,94,125476,2,0,L|286:177,1,68.0000012969971,8|8,0:0|0:0,0:0:0:0:
201,122,125833,2,0,L|192:190,1,68.0000012969971,8|8,0:0|0:0,0:0:0:0:
106,230,126190,6,0,L|84:185,2,34.0000006484985,8|0|8,0:0|0:0|0:0,0:0:0:0:
182,287,126547,2,0,P|219:278|260:286,1,68.0000012969971,8|8,0:0|0:0,0:0:0:0:
318,345,126904,1,8,0:0:0:0:
385,277,127083,2,0,L|390:241,2,34.0000006484985,8|0|8,0:0|0:0|0:0,0:0:0:0:
318,345,127440,1,8,0:0:0:0:
318,345,127618,6,0,P|372:328|453:370,1,136.000002593994,6|2,0:0|0:0,0:0:0:0:
485,272,128154,1,0,0:0:0:0:
485,272,128244,1,0,0:0:0:0:
485,272,128332,2,0,P|476:229|483:183,1,68.0000012969971,2|0,0:0|0:0,0:0:0:0:
507,114,128690,1,2,0:0:0:0:
507,114,129047,6,0,L|363:133,1,136.000002593994,6|2,0:0|0:0,0:0:0:0:
283,97,129583,2,0,P|287:61|281:11,1,68.0000012969971,4|2,0:0|0:0,0:0:0:0:
192,5,129940,1,0,0:0:0:0:
192,130,130119,1,2,0:1:0:0:
192,130,130475,6,0,P|150:121|114:128,1,68.0000012969971,6|2,0:0|0:0,0:0:0:0:
45,176,130832,1,2,0:0:0:0:
150,213,131010,2,0,P|186:227|217:262,1,68.0000012969971,6|2,0:0|0:0,0:0:0:0:
231,339,131367,1,2,0:0:0:0:
131,306,131546,2,0,P|91:299|52:301,1,68.0000012969971,6|2,0:0|0:0,0:0:0:0:
0,369,131903,1,2,0:0:0:0:
0,220,132083,6,0,P|-2:174|9:137,2,68.0000012969971,6|2|2,0:0|0:0|0:0,0:0:0:0:
90,191,132618,2,0,P|105:159|141:123,2,68.0000012969971,6|2|2,0:0|0:0|0:0,0:0:0:0:
183,210,133154,2,0,P|212:190|261:177,2,68.0000012969971,6|2|2,0:0|0:0|0:0,0:0:0:0:
253,273,133690,6,0,L|404:251,1,136.000002593994,6|2,0:0|0:0,0:0:0:0:
464,196,134226,2,0,P|471:162|465:119,2,68.0000012969971,6|2|0,0:0|0:0|0:0,0:0:0:0:
376,158,134761,2,0,P|372:121|382:84,1,68.0000012969971,6|2,0:0|0:0,0:0:0:0:
404,2,135119,6,0,L|319:8,1,68.0000012969971,6|2,0:0|0:0,0:0:0:0:
212,67,135475,2,0,L|188:-25,1,68.0000012969971,2|2,0:0|0:0,0:0:0:0:
297,101,135832,2,0,L|279:178,1,68.0000012969971,2|2,0:0|0:0,0:0:0:0:
292,263,136191,5,0,0:0:0:0:
385,306,136369,1,2,0:0:0:0:
385,306,136458,1,2,0:0:0:0:
385,306,136548,2,0,P|395:255|388:215,1,68.0000012969971,2|0,0:0|0:0,0:0:0:0:
487,219,136905,2,0,P|477:270|484:310,1,68.0000012969971,2|0,0:0|0:0,0:0:0:0:
484,380,137262,1,2,0:0:0:0:
385,306,137440,1,2,0:0:0:0:
385,306,137530,1,2,0:0:0:0:
385,306,137618,6,0,P|318:289|254:321,1,120,6|0,0:0|0:0,0:0:0:0:
257,351,137975,2,0,L|174:339,1,80,8|0,0:0|0:0,0:0:0:0:
58,363,138332,2,0,P|76:304|45:236,1,120,2|0,0:0|0:0,0:0:0:0:
15,226,138689,2,0,L|37:143,1,80,8|0,0:0|0:0,0:0:0:0:
136,71,139046,6,0,P|122:120|150:211,1,120,2|0,0:0|0:0,0:0:0:0:
170,219,139403,1,8,0:0:0:0:
255,175,139582,1,0,0:0:0:0:
339,257,139760,2,0,P|381:262|437:244,1,80,2|0,0:0|0:0,0:0:0:0:
451,219,140028,1,0,0:0:0:0:
451,219,140118,2,0,L|451:315,1,80,8|0,0:0|0:0,0:0:0:0:
377,361,140475,5,6,0:0:0:0:
377,361,141368,1,8,0:0:0:0:
246,359,141546,1,8,0:0:0:0:
187,282,141725,1,0,0:0:0:0:
187,282,141814,1,0,0:0:0:0:
187,282,141903,6,0,P|168:224|195:160,2,120,6|6|2,0:0|0:0|0:0,0:0:0:0:
264,223,142618,1,6,0:0:0:0:
230,88,142796,1,8,0:1:0:0:
230,88,142975,1,8,0:1:0:0:
53,31,143332,6,0,P|72:84|56:157,1,120,6|0,0:0|0:0,0:0:0:0:
27,179,143689,2,0,L|30:271,1,80,8|0,0:0|0:0,0:0:0:0:
82,368,144046,2,0,L|209:349,1,120,2|0,0:0|0:0,0:0:0:0:
231,313,144403,2,0,P|268:304|316:324,1,80,8|0,0:0|0:0,0:0:0:0:
411,384,144760,6,0,L|410:239,1,120,2|0,0:0|0:0,0:0:0:0:
392,218,145118,1,8,0:0:0:0:
421,126,145296,1,0,0:0:0:0:
325,38,145475,2,0,P|271:34|238:56,1,80,2|0,0:0|0:0,0:0:0:0:
237,94,145743,1,0,0:0:0:0:
237,94,145832,2,0,L|245:192,1,80,8|0,0:0|0:0,0:0:0:0:
331,134,146189,5,6,0:0:0:0:
331,134,147082,1,8,0:0:0:0:
299,260,147260,2,0,L|249:248,2,40,8|0|0,0:0|0:0|0:0,0:0:0:0:
358,336,147618,6,0,P|404:324|479:358,2,120,6|6|2,0:0|0:0|0:0,0:0:0:0:
269,374,148332,1,6,0:0:0:0:
299,260,148510,1,8,0:1:0:0:
299,260,148689,2,0,L|306:169,1,80,8|0,0:1|0:0,0:0:0:0:
342,91,149046,6,0,P|298:84|254:107,1,80,6|8,0:0|0:0,0:0:0:0:
251,1,149403,2,0,P|209:16|182:58,1,80,2|8,0:0|0:0,0:0:0:0:
79,133,149760,2,0,P|123:140|167:117,1,80,2|8,0:0|0:0,0:0:0:0:
170,223,150117,2,0,P|211:207|238:165,1,80,2|8,0:0|0:0,0:0:0:0:
320,117,150475,6,0,L|308:282,1,160,6|8,0:0|0:0,0:0:0:0:
357,358,151010,1,0,0:0:0:0:
357,358,151189,2,0,P|403:347|438:362,1,80,2|0,0:0|0:0,0:0:0:0:
491,266,151546,2,0,P|445:277|410:262,1,80,8|0,0:0|0:0,0:0:0:0:
308,276,151903,6,0,B|189:265|189:265|243:310,1,160,2|8,0:0|0:0,0:0:0:0:
265,375,152439,1,0,0:0:0:0:
265,375,152617,2,0,L|170:365,1,80,2|0,0:0|0:0,0:0:0:0:
109,306,152975,1,8,0:0:0:0:
109,306,153153,1,0,0:0:0:0:
0,361,153332,5,6,0:0:0:0:
0,361,154225,1,8,0:0:0:0:
109,306,154403,2,0,P|125:254|117:216,1,80,8|0,0:0|0:0,0:0:0:0:
27,135,154760,6,0,L|31:258,2,120,6|6|2,0:0|0:0|0:0,0:0:0:0:
65,46,155475,1,6,0:0:0:0:
161,122,155653,1,8,0:1:0:0:
161,122,155832,2,0,P|197:134|256:125,1,80,8|0,0:1|0:0,0:0:0:0:
278,43,156189,6,0,P|347:34|422:109,1,160,6|8,0:0|0:0,0:0:0:0:
506,60,156725,1,0,0:0:0:0:
506,60,156903,2,0,L|497:153,1,80,2|0,0:0|0:0,0:0:0:0:
419,195,157260,2,0,L|366:190,2,40,8|0|0,0:0|0:0|0:0,0:0:0:0:
454,284,157617,6,0,L|287:265,1,160,2|8,0:0|0:0,0:0:0:0:
218,324,158153,1,0,0:0:0:0:
218,324,158332,2,0,P|161:317|138:304,1,80,2|2,0:0|0:0,0:0:0:0:
121,212,158689,2,0,P|178:219|201:232,1,80,10|2,0:0|0:0,0:0:0:0:
303,166,159046,5,6,0:0:0:0:
303,166,159939,1,8,0:0:0:0:
197,229,160117,2,0,L|192:148,1,80,8|0,0:0|0:0,0:0:0:0:
244,67,160475,6,0,P|184:51|115:91,2,120,6|6|2,0:0|0:0|0:0,0:0:0:0:
335,37,161189,1,6,0:0:0:0:
303,166,161367,1,8,0:1:0:0:
303,166,161546,2,0,L|384:152,1,80,8|0,0:1|0:0,0:0:0:0:
469,191,161903,6,0,P|452:269|473:346,1,160,6|8,0:0|0:0,0:0:0:0:
378,365,162438,1,0,0:0:0:0:
378,365,162617,2,0,P|381:328|372:281,1,80,2|0,0:0|0:0,0:0:0:0:
295,230,162974,1,8,0:0:0:0:
227,298,163153,1,0,0:0:0:0:
227,298,163242,1,0,0:0:0:0:
227,298,163331,6,0,P|188:302|134:289,1,80,2|0,0:0|0:0,0:0:0:0:
146,197,163689,2,0,P|106:189|67:193,1,80,8|0,0:0|0:0,0:0:0:0:
10,270,164045,1,2,0:0:0:0:
10,270,164224,1,0,0:0:0:0:
69,346,164403,1,8,0:0:0:0:
148,294,164581,1,0,0:0:0:0:
148,294,164670,1,0,0:0:0:0:
148,294,164760,6,0,P|154:328|151:384,1,80,6|0,0:0|0:0,0:0:0:0:
247,357,165117,2,0,P|253:311|270:278,1,80,8|0,0:0|0:0,0:0:0:0:
206,206,165474,1,2,0:0:0:0:
206,206,165652,1,0,0:0:0:0:
177,114,165831,1,8,0:0:0:0:
244,45,166010,1,0,0:0:0:0:
244,45,166099,1,0,0:0:0:0:
244,45,166188,6,0,P|286:68|330:71,1,80,2|0,0:0|0:0,0:0:0:0:
473,86,166546,2,0,P|431:109|387:112,1,80,8|0,0:0|0:0,0:0:0:0:
316,176,166902,1,10,0:0:0:0:
316,176,167081,1,8,0:0:0:0:
401,218,167260,1,8,0:0:0:0:
401,218,167438,1,8,0:0:0:0:
495,201,167617,6,0,L|483:280,1,80,6|0,0:0|0:0,0:0:0:0:
436,364,167974,1,8,0:0:0:0:
436,364,168152,1,0,0:0:0:0:
357,307,168331,2,0,L|263:312,1,80,2|0,0:0|0:0,0:0:0:0:
207,244,168688,1,8,0:0:0:0:
207,244,168867,1,0,0:0:0:0:
114,316,169046,6,0,B|112:214|112:214|153:157,1,160,2|8,0:0|0:0,0:0:0:0:
241,156,169581,1,0,0:0:0:0:
241,156,169670,1,0,0:0:0:0:
241,156,169760,2,0,P|244:107|235:66,1,80,2|0,0:0|0:0,0:0:0:0:
165,13,170117,1,8,0:0:0:0:
165,13,170295,1,0,0:0:0:0:
83,64,170474,6,0,L|34:81,3,40,2|0|0|0,0:0|0:0|0:0|0:0,0:0:0:0:
23,120,170832,2,0,L|29:190,3,40,8|0|0|0,0:0|0:0|0:0|0:0,0:0:0:0:
57,196,171189,2,0,P|68:238|55:287,1,80,10|8,0:0|0:0,0:0:0:0:
13,356,171546,1,8,0:0:0:0:
13,356,171725,1,8,0:0:0:0:
146,337,171902,5,0,1:0:0:0:
57,196,172260,1,0,1:0:0:0:
13,356,172617,1,0,1:0:0:0:
13,356,173332,6,0,P|82:335|145:378,1,136.000002593994,4|0,0:0|0:0,0:0:0:0:
205,300,173867,1,0,0:0:0:0:
205,300,174046,2,0,L|290:294,1,68.0000012969971,0|0,0:0|0:0,0:0:0:0:
326,373,174403,2,0,L|413:353,1,68.0000012969971,0|0,0:0|0:0,0:0:0:0:
441,275,174760,2,0,P|434:161|519:86,2,204.000003890991,4|0|2,0:0|0:0|0:1,0:0:0:0:
277,175,176190,6,0,P|232:165|183:183,1,68.0000012969971,6|2,0:0|0:0,0:0:0:0:
140,232,176547,1,2,0:0:0:0:
208,81,176725,2,0,P|164:94|130:134,1,68.0000012969971,6|2,0:0|0:0,0:0:0:0:
117,198,177082,1,2,0:0:0:0:
101,33,177261,2,0,P|69:66|60:118,1,68.0000012969971,6|2,0:0|0:0,0:0:0:0:
81,180,177618,1,2,0:0:0:0:
34,284,177797,6,0,L|33:369,2,68.0000012969971,6|2|2,0:0|0:0|0:0,0:0:0:0:
126,303,178332,2,0,L|125:388,2,68.0000012969971,6|2|2,0:0|0:0|0:0,0:0:0:0:
220,316,178868,2,0,L|219:401,2,68.0000012969971,6|2|2,0:0|0:0|0:0,0:0:0:0:
261,207,179404,6,0,P|311:200|386:253,1,136.000002593994,6|2,0:0|0:0,0:0:0:0:
458,189,179939,2,0,L|450:112,1,68.0000012969971,6|2,0:0|0:0,0:0:0:0:
403,38,180296,1,2,0:0:0:0:
403,38,180475,2,0,P|369:52|323:54,1,68.0000012969971,6|2,0:0|0:0,0:0:0:0:
215,28,180832,6,0,L|228:118,1,68.0000012969971,6|2,0:0|0:0,0:0:0:0:
225,213,181189,2,0,L|278:170,1,68.0000012969971,2|2,0:0|0:0,0:0:0:0:
155,156,181546,2,0,L|91:130,1,68.0000012969971,2|2,0:0|0:0,0:0:0:0:
32,206,181904,5,0,0:0:0:0:
103,281,182082,1,2,0:0:0:0:
103,281,182171,1,2,0:0:0:0:
103,281,182261,2,0,P|111:322|100:357,1,68.0000012969971,2|2,0:0|0:0,0:0:0:0:
199,360,182618,2,0,P|191:319|202:284,1,68.0000012969971,2|2,0:0|0:0,0:0:0:0:
267,230,182975,1,2,0:0:0:0:
267,230,183154,1,2,0:0:0:0:
330,300,183332,5,0,0:0:0:0:
416,259,183511,1,0,0:0:0:0:
416,259,183600,1,0,0:0:0:0:
416,259,183689,2,0,L|410:341,1,68.0000012969971,2|2,0:0|0:0,0:0:0:0:
500,360,184046,2,0,L|504:292,1,68.0000012969971,2|2,0:0|0:0,0:0:0:0:
487,197,184404,1,2,0:0:0:0:
510,109,184582,1,2,0:0:0:0:
510,109,184671,1,2,0:0:0:0:
510,109,184761,6,0,P|455:122|376:87,1,120,6|0,0:0|0:0,0:0:0:0:
387,55,185118,2,0,L|297:53,1,80,8|0,0:0|0:0,0:0:0:0:
260,159,185475,2,0,P|239:215|263:296,1,120,2|0,0:0|0:0,0:0:0:0:
295,286,185832,2,0,L|280:389,1,80,8|0,0:0|0:0,0:0:0:0:
165,341,186189,6,0,P|144:302|52:296,1,120,2|0,0:0|0:0,0:0:0:0:
40,319,186546,1,8,0:0:0:0:
15,225,186725,1,0,0:0:0:0:
38,90,186903,2,0,P|79:82|125:106,1,80,2|0,0:0|0:0,0:0:0:0:
140,142,187171,1,0,0:0:0:0:
140,142,187261,2,0,L|236:136,1,80,8|0,0:0|0:0,0:0:0:0:
274,58,187618,5,6,0:0:0:0:
274,58,188511,1,8,0:0:0:0:
313,187,188689,1,8,0:0:0:0:
258,266,188868,1,0,0:0:0:0:
258,266,188957,1,0,0:0:0:0:
258,266,189046,6,0,P|317:284|369:260,2,120,6|6|2,0:0|0:0|0:0,0:0:0:0:
220,355,189761,1,6,0:0:0:0:
97,327,189939,1,8,0:1:0:0:
97,327,190118,1,8,0:1:0:0:
167,131,190475,6,0,P|148:193|179:261,1,120,6|0,0:0|0:0,0:0:0:0:
208,262,190832,2,0,L|288:237,1,80,8|0,0:0|0:0,0:0:0:0:
414,252,191189,2,0,P|433:190|402:122,1,120,2|0,0:0|0:0,0:0:0:0:
373,121,191546,2,0,L|293:146,1,80,8|0,0:0|0:0,0:0:0:0:
222,45,191903,6,0,P|156:31|100:55,1,120,2|0,0:0|0:0,0:0:0:0:
67,75,192261,1,8,0:0:0:0:
135,142,192439,1,0,0:0:0:0:
44,215,192618,2,0,P|76:256|120:275,1,80,2|0,0:0|0:0,0:0:0:0:
144,244,192886,1,0,0:0:0:0:
144,244,192975,2,0,L|238:249,1,80,8|0,0:0|0:0,0:0:0:0:
271,331,193332,5,6,0:0:0:0:
271,331,194225,1,8,0:0:0:0:
388,271,194403,1,8,0:0:0:0:
476,323,194582,1,0,0:0:0:0:
476,323,194671,1,0,0:0:0:0:
476,323,194761,6,0,P|490:267|470:202,2,120,6|6|2,0:0|0:0|0:0,0:0:0:0:
388,271,195475,1,6,0:0:0:0:
282,322,195653,1,8,0:1:0:0:
282,322,195832,2,0,L|192:315,1,80,8|0,0:1|0:0,0:0:0:0:
105,250,196189,6,0,B|98:170|98:170|123:118,1,120,6|0,0:0|0:0,0:0:0:0:
156,109,196546,1,2,0:0:0:0:
236,162,196725,1,0,0:0:0:0:
326,130,196903,2,0,L|459:127,1,120,2|0,0:0|0:0,0:0:0:0:
475,88,197261,2,0,P|476:42|457:-3,1,80,6|0,0:0|0:0,0:0:0:0:
347,32,197618,6,0,L|227:34,1,120,6|0,0:0|0:0,0:0:0:0:
182,15,197975,1,2,0:0:0:0:
96,57,198153,1,0,0:0:0:0:
164,124,198332,2,0,P|181:177|152:257,1,120,2|0,0:0|0:0,0:0:0:0:
121,257,198689,2,0,L|139:347,1,80,6|0,0:0|0:0,0:0:0:0:
254,343,199046,6,0,P|248:278|286:206,1,120,6|0,0:0|0:0,0:0:0:0:
312,211,199403,2,0,P|323:169|308:119,1,80,2|0,0:0|0:0,0:0:0:0:
434,120,199761,2,0,P|413:175|420:234,1,120,6|0,0:0|0:0,0:0:0:0:
455,268,200118,2,0,P|461:307|451:345,1,80,2|0,0:0|0:0,0:0:0:0:
325,335,200475,6,0,L|236:322,1,80,6|8,0:0|0:0,0:0:0:0:
268,229,200832,2,0,L|174:251,1,80,2|8,0:0|0:0,0:0:0:0:
97,274,201189,2,0,L|115:196,1,80,2|8,0:0|0:0,0:0:0:0:
20,219,201546,2,0,L|8:139,1,80,2|8,0:0|0:0,0:0:0:0:
76,70,201904,5,2,0:0:0:0:
76,70,202261,2,0,P|125:95|209:80,1,120.000004577637,2|2,0:0|0:0,0:0:0:0:
305,8,202975,1,2,0:0:0:0:
436,70,203332,2,0,P|387:95|303:80,1,120.000004577637,2|2,0:0|0:0,0:0:0:0:
193,8,204046,1,2,0:0:0:0:
193,8,204761,6,0,L|184:144,1,120.000004577637,2|2,0:0|0:0,0:0:0:0:
