osu file format v14

[General]
AudioFilename: drop kick.mp3
AudioLeadIn: 0
PreviewTime: 96100
Countdown: 0
SampleSet: Soft
StackLeniency: 0.7
Mode: 0
LetterboxInBreaks: 0
WidescreenStoryboard: 1

[Editor]
DistanceSpacing: 1
BeatDivisor: 4
GridSize: 4
TimelineZoom: 1.4

[Metadata]
Title:Gabriel Drop Kick
TitleUnicode:ガヴリールドロップキック
Artist:Tomita Miyu, Onishi Saori, Ohzora Naomi, Hanazawa Kana
ArtistUnicode:富田美憂、大西沙織、大空直美、花澤香菜
Creator:Doormat
Version:Doormat's Easy
Source:ガヴリールドロップアウト
Tags:Kalibe SnowNiNo_ Karen dropout gabdro dropkick ガヴドロ opening full size tenma gabriel white 天真・ガヴリール・ホワイト tsukinose vignette april 月乃瀬・ヴィネット・エイプリル vigne ヴィーネ kurumizawa satanichia mcdowell 胡桃沢・サタニキア・マクドウェル satania サターニャ shiraha raphiel ainsworth 白羽・ラフィエル・エインズワース
BeatmapID:1221737
BeatmapSetID:576517

[Difficulty]
HPDrainRate:2
CircleSize:3
OverallDifficulty:2
ApproachRate:3
SliderMultiplier:0.999999999999999
SliderTickRate:1

[Events]
//Background and Video events
0,0,"dropout_background.jpg",0,0
//Break Periods
2,87618,94750
2,162104,171892
//Storyboard Layer 0 (Background)
//Storyboard Layer 1 (Fail)
//Storyboard Layer 2 (Pass)
//Storyboard Layer 3 (Foreground)
//Storyboard Sound Samples

[TimingPoints]
3333,357.142857142857,4,2,2,50,1,0
3333,-100,4,2,2,50,0,0
10475,357.142857142857,4,2,1,70,1,0
21903,-100,4,2,2,50,0,0
24760,-100,4,2,1,70,0,0
27617,-100,4,2,2,50,0,0
30474,-100,4,2,1,70,0,0
33332,-100,4,2,1,70,0,0
41903,-100,4,2,1,5,0,0
44403,-100,4,2,1,70,0,0
56189,-100,4,2,1,60,0,0
58689,-100,4,2,1,80,0,0
59047,357.142857142857,5,2,1,60,1,0
60654,357.142857142857,5,2,1,65,1,0
62261,357.142857142857,4,2,1,70,1,0
64761,357.142857142857,4,2,2,50,1,0
65832,-100,4,2,1,50,0,0
66190,357.142857142857,4,2,1,70,1,1
66190,-100,4,2,1,70,0,1
69047,-100,4,2,1,70,0,0
69940,-100,4,2,1,70,0,1
71547,-100,4,2,1,80,0,1
71815,-100,4,2,1,70,0,0
71904,-100,4,2,1,70,0,1
74761,-100,4,2,1,70,0,0
75654,-100,4,2,1,70,0,1
77261,-100,4,2,1,80,0,1
77529,-100,4,2,1,70,0,0
77618,-100,4,2,1,70,0,1
78690,-100,4,2,1,80,0,1
79047,-100,4,2,1,70,0,1
80118,-100,4,2,1,80,0,1
80475,-100,4,2,1,70,0,1
80832,-100,4,2,1,80,0,1
81190,-100,4,2,1,70,0,1
81547,-100,4,2,1,80,0,1
81904,-100,4,2,1,90,0,1
83333,357.142857142857,3,2,2,50,1,0
83333,-100,3,2,2,50,0,0
87618,-100,3,2,3,60,0,0
95565,-100,3,2,3,5,0,0
96190,-100,3,2,3,60,0,0
113333,357.142857142857,4,2,1,60,1,0
115833,-100,4,2,1,60,0,0
116190,357.142857142857,4,2,1,70,1,0
127618,-100,4,2,1,60,0,0
130118,-100,4,2,1,80,0,0
130475,357.142857142857,5,2,1,60,1,0
132083,357.142857142857,5,2,1,65,1,0
133690,357.142857142857,4,2,1,70,1,0
136190,357.142857142857,4,2,2,50,1,0
137261,-100,4,2,1,50,0,0
137618,357.142857142857,4,2,1,70,1,1
137618,-100,4,2,1,70,0,1
140475,-100,4,2,1,70,0,0
141368,-100,4,2,1,70,0,1
142975,-100,4,2,1,80,0,1
143243,-100,4,2,1,70,0,0
143332,-100,4,2,1,70,0,1
146189,-100,4,2,1,70,0,0
147082,-100,4,2,1,70,0,1
148689,-100,4,2,1,80,0,1
149046,-100,4,2,1,90,0,1
150385,-100,4,2,1,70,0,0
150475,357.142857142857,4,2,1,80,1,1
150475,-100,4,2,1,80,0,1
153332,-100,4,2,1,80,0,0
154225,-100,4,2,1,80,0,1
156100,-100,4,2,1,80,0,0
156189,-100,4,2,1,80,0,1
159046,-100,4,2,1,80,0,0
159939,-100,4,2,1,80,0,1
161546,-100,4,2,1,80,0,1
161903,-100,4,2,1,70,0,0
173332,-100,4,2,1,60,0,0
175832,-100,4,2,1,80,0,0
176190,357.142857142857,5,2,1,60,1,0
177797,357.142857142857,5,2,1,65,1,0
179404,357.142857142857,4,2,1,70,1,0
181904,357.142857142857,4,2,2,50,1,0
184404,-100,4,2,1,50,0,0
184761,357.142857142857,4,2,1,70,1,1
184761,-100,4,2,1,70,0,1
187618,-100,4,2,1,70,0,0
188511,-100,4,2,1,70,0,1
190118,-100,4,2,1,80,0,1
190386,-100,4,2,1,70,0,0
190475,-100,4,2,1,70,0,1
193332,-100,4,2,1,70,0,0
194225,-100,4,2,1,70,0,1
195832,-100,4,2,1,80,0,1
196100,-100,4,2,1,70,0,0
196189,-100,4,2,1,70,0,1
197261,-100,4,2,1,80,0,1
197618,-100,4,2,1,70,0,1
198689,-100,4,2,1,80,0,1
199046,-100,4,2,1,70,0,1
199403,-100,4,2,1,80,0,1
199761,-100,4,2,1,70,0,1
200118,-100,4,2,1,80,0,1
200475,-100,4,2,1,90,0,1
201904,357.142857142857,3,2,2,50,1,0
201904,-100,3,2,2,50,0,0

[Colours]
Combo1 : 158,123,189
Combo2 : 227,84,102
Combo3 : 238,162,25
Combo4 : 167,204,49

[HitObjects]
172,296,3333,6,0,P|130:207|156:112,1,200,2|2,0:0|0:0,0:0:0:0:
332,92,4761,2,0,P|373:180|347:275,1,200,2|2,0:0|0:0,0:0:0:0:
172,296,6190,6,0,L|72:284,1,99.9999999999999,2|0,0:0|0:0,0:0:0:0:
116,204,6904,2,0,L|215:192,1,99.9999999999999,2|0,0:0|0:0,0:0:0:0:
271,119,7618,2,0,P|308:184|276:260,2,150,2|0|0,0:0|0:0|0:0,0:0:0:0:
220,48,9047,6,0,B|268:20|320:48|320:48|372:76|420:48,1,200,2|0,0:0|0:0,0:0:0:0:
508,204,10475,6,0,L|492:302,1,99.9999999999999,6|8,0:0|0:0,0:0:0:0:
412,344,11189,2,0,L|396:245,1,99.9999999999999,2|8,0:0|0:0,0:0:0:0:
331,184,11903,2,0,P|376:161|425:162,2,99.9999999999999,2|8|2,0:0|0:0|0:0,0:0:0:0:
268,248,12975,1,8,0:0:0:0:
196,196,13332,6,0,P|185:147|183:97,1,99.9999999999999,6|8,0:0|0:0,0:0:0:0:
96,124,14046,2,0,P|84:172|82:222,1,99.9999999999999,2|8,0:0|0:0,0:0:0:0:
28,296,14760,2,0,P|74:313|122:304,1,99.9999999999999,2|8,0:0|0:0,0:0:0:0:
192,248,15474,1,10,0:0:0:0:
276,280,15832,1,8,0:0:0:0:
345,222,16189,6,0,P|352:173|351:123,1,99.9999999999999,6|8,0:0|0:0,0:0:0:0:
308,44,16903,2,0,P|267:73|233:109,1,99.9999999999999,2|8,0:0|0:0,0:0:0:0:
160,164,17617,2,0,P|130:123|94:89,2,99.9999999999999,2|8|2,0:0|0:0|0:0,0:0:0:0:
192,248,18689,1,8,0:0:0:0:
279,224,19046,6,0,P|327:208|376:213,1,99.9999999999999,2|8,0:0|0:0,0:0:0:0:
388,304,19760,2,0,P|340:319|291:314,1,99.9999999999999,10|8,0:0|0:0,0:0:0:0:
212,276,20474,1,0,1:0:0:0:
279,224,20832,1,0,1:0:0:0:
227,156,21189,1,0,1:0:0:0:
368,44,21903,6,0,L|480:56,2,99.9999999999999,2|2|2,0:0|0:0|0:0,0:0:0:0:
288,84,22974,1,2,0:0:0:0:
335,159,23332,2,0,P|345:209|339:258,1,99.9999999999999,2|2,0:0|0:0,0:0:0:0:
252,280,24046,2,0,P|230:234|222:185,1,99.9999999999999,2|2,0:0|0:0,0:0:0:0:
204,100,24760,6,0,L|104:89,1,99.9999999999999,4|0,0:0|0:0,0:0:0:0:
28,140,25474,2,0,P|14:68|58:9,2,150,8|8|0,0:0|0:0|0:0,0:0:0:0:
68,220,26903,1,8,0:0:0:0:
32,304,27260,1,8,0:0:0:0:
72,384,27617,6,0,L|180:368,1,99.9999999999999,2|2,0:0|0:0,0:0:0:0:
256,336,28332,2,0,L|354:350,1,99.9999999999999,2|2,0:0|0:0,0:0:0:0:
436,316,29046,2,0,P|427:266|428:216,1,99.9999999999999,2|2,0:0|0:0,0:0:0:0:
356,164,29760,2,0,P|344:212|323:257,1,99.9999999999999,2|2,0:0|0:0,0:0:0:0:
248,204,30474,6,0,P|239:154|240:104,1,99.9999999999999,4|0,0:0|0:0,0:0:0:0:
304,40,31189,2,0,P|232:16|165:49,2,150,8|8|0,0:0|0:0|0:0,0:0:0:0:
388,72,32617,2,0,L|500:52,1,99.9999999999999,0|0,3:0|3:0,0:0:0:0:
488,147,33332,6,0,P|479:197|478:247,1,99.9999999999999,6|8,0:0|0:0,0:0:0:0:
396,284,34046,2,0,P|381:236|361:190,1,99.9999999999999,2|8,0:0|0:0,0:0:0:0:
276,220,34760,2,0,L|259:318,1,99.9999999999999,2|8,0:0|0:0,0:0:0:0:
172,304,35474,2,0,L|188:205,1,99.9999999999999,2|8,0:0|0:0,0:0:0:0:
156,119,36189,6,0,P|110:139|60:136,1,99.9999999999999,6|8,0:0|0:0,0:0:0:0:
43,48,36903,2,0,P|89:28|139:31,1,99.9999999999999,2|8,0:0|0:0,0:0:0:0:
224,60,37617,2,0,P|273:62|319:43,1,99.9999999999999,6|8,0:0|0:0,0:0:0:0:
400,4,38332,1,2,0:0:0:0:
474,54,38689,1,2,0:0:0:0:
467,142,39046,6,0,P|459:192|455:242,1,99.9999999999999,6|8,0:0|0:0,0:0:0:0:
384,296,39760,2,0,P|368:248|347:203,1,99.9999999999999,2|8,0:0|0:0,0:0:0:0:
268,248,40474,2,0,L|254:347,1,99.9999999999999,6|8,0:0|0:0,0:0:0:0:
164,336,41189,2,0,L|151:236,2,99.9999999999999,2|8|0,0:0|0:0|0:0,0:0:0:0:
164,336,44760,5,6,0:0:0:0:
76,320,45117,1,8,0:0:0:0:
133,251,45474,2,0,L|246:251,1,99.9999999999999,2|8,0:0|0:0,0:0:0:0:
306,198,46189,2,0,P|322:244|310:294,2,99.9999999999999,2|8|2,0:0|0:0|0:0,0:0:0:0:
236,140,47260,1,8,0:0:0:0:
320,112,47617,6,0,L|419:100,1,99.9999999999999,6|8,0:0|0:0,0:0:0:0:
392,12,48332,2,0,L|293:24,1,99.9999999999999,2|8,0:0|0:0,0:0:0:0:
208,56,49046,1,8,0:0:0:0:
124,28,49403,1,8,0:0:0:0:
47,71,49760,2,0,P|40:120|50:170,1,99.9999999999999,8|8,0:0|0:0,0:0:0:0:
116,232,50474,5,6,0:0:0:0:
203,206,50831,1,8,0:0:0:0:
229,293,51189,2,0,L|114:327,1,99.9999999999999,2|8,0:0|0:0,0:0:0:0:
52,364,51903,1,2,0:0:0:0:
36,275,52260,1,8,0:0:0:0:
116,232,52617,2,0,P|129:184|117:136,1,99.9999999999999,2|8,0:0|0:0,0:0:0:0:
52,72,53332,5,8,0:0:0:0:
124,18,53689,1,8,0:0:0:0:
196,69,54046,2,0,P|245:80|293:67,1,99.9999999999999,8|8,0:0|0:0,0:0:0:0:
376,32,54760,2,0,P|424:21|472:34,1,99.9999999999999,8|8,0:0|0:0,0:0:0:0:
500,120,55474,2,0,P|498:169|473:212,1,99.9999999999999,8|8,0:0|0:0,0:0:0:0:
412,144,56188,6,0,L|313:163,1,99.9999999999999,6|2,0:0|0:0,0:0:0:0:
304,252,56903,2,0,L|396:288,1,99.9999999999999,2|2,0:0|0:0,0:0:0:0:
416,376,57617,2,0,P|472:340|476:248,2,150,6|4|2,0:0|0:0|0:1,0:0:0:0:
332,348,59046,6,0,P|260:327|186:336,2,150,6|6|6,0:0|0:0|0:0,0:0:0:0:
372,220,60654,2,0,P|308:181|234:170,2,150,6|6|6,0:0|0:0|0:0,0:0:0:0:
443,106,62261,2,0,P|391:52|322:23,2,150,6|6|6,0:0|0:0|0:0,0:0:0:0:
484,188,63689,5,6,0:0:0:0:
436,264,64046,1,2,0:0:0:0:
348,240,64403,2,0,P|304:232|240:252,1,99.9999999999999,2|0,0:0|0:0,0:0:0:0:
251,245,66189,6,0,L|241:145,1,99.9999999999999,6|8,0:0|0:0,0:0:0:0:
156,180,66904,2,0,L|165:279,1,99.9999999999999,2|8,0:0|0:0,0:0:0:0:
116,352,67618,2,0,P|176:368|224:344,2,99.9999999999999,2|8|2,0:0|0:0|0:0,0:0:0:0:
40,300,68690,1,8,0:0:0:0:
68,216,69047,1,6,0:0:0:0:
208,40,69940,6,0,L|268:44,1,50,8|8,0:0|0:0,0:0:0:0:
276,132,70475,2,0,L|166:124,1,99.9999999999999,6|0,0:0|0:0,0:0:0:0:
168,216,71190,2,0,L|277:223,1,99.9999999999999,6|8,0:0|0:1,0:0:0:0:
340,273,71904,6,0,P|355:226|343:179,1,99.9999999999999,6|8,0:0|0:0,0:0:0:0:
328,88,72618,2,0,P|371:64|420:66,1,99.9999999999999,2|8,0:0|0:0,0:0:0:0:
496,116,73332,2,0,P|511:68|499:21,2,99.9999999999999,2|8|2,0:0|0:0|0:0,0:0:0:0:
448,192,74404,1,8,0:0:0:0:
492,272,74761,1,6,0:0:0:0:
296,380,75654,6,0,L|236:372,1,50,8|8,0:0|0:0,0:0:0:0:
288,292,76190,2,0,L|387:279,1,99.9999999999999,6|0,0:0|0:0,0:0:0:0:
379,191,76904,2,0,L|279:203,1,99.9999999999999,6|8,0:0|0:1,0:0:0:0:
196,160,77618,6,0,P|186:208|202:254,2,99.9999999999999,6|2|2,0:0|0:0|0:0,0:0:0:0:
260,100,78690,1,6,0:0:0:0:
175,75,79047,2,0,L|74:67,2,99.9999999999999,6|2|2,0:0|0:0|0:0,0:0:0:0:
239,15,80118,1,6,0:0:0:0:
327,27,80475,6,0,P|376:35|425:26,1,99.9999999999999,6|2,0:0|0:0,0:0:0:0:
428,116,81190,2,0,P|396:154|379:201,1,99.9999999999999,6|2,0:0|0:0,0:0:0:0:
388,292,81904,1,6,0:0:0:0:
312,340,82261,1,2,0:0:0:0:
240,288,82618,1,2,0:0:0:0:
164,336,82975,1,2,0:0:0:0:
92,283,83333,6,0,P|84:183|88:83,1,200,2|2,0:0|0:0,0:0:0:0:
144,12,84404,1,2,0:0:0:0:
224,60,84761,2,0,P|272:68|318:50,1,99.9999999999999,2|2,0:0|0:0,0:0:0:0:
396,8,85475,1,2,0:0:0:0:
472,172,86190,6,0,P|480:220|461:266,1,99.9999999999999,2|2,0:0|0:0,0:0:0:0:
428,160,96190,6,0,L|439:259,2,99.9999999999999,12|8|8,0:0|0:0|0:0,0:0:0:0:
475,83,97261,2,0,B|427:55|380:82|380:82|334:107|283:84,1,200,12|8,0:3|0:0,0:0:0:0:
196,100,98333,6,0,P|201:51|237:9,2,99.9999999999999,12|8|8,0:3|0:0|0:0,0:0:0:0:
236,180,99404,1,12,0:3:0:0:
172,242,99761,1,8,0:0:0:0:
212,322,100118,1,8,0:0:0:0:
148,384,100475,6,0,L|44:368,1,99.9999999999999,12|8,0:0|0:0,0:0:0:0:
20,280,101190,1,8,0:0:0:0:
62,196,101547,2,0,B|101:172|153:200|153:200|205:228|253:200,1,200,12|8,0:3|0:0,0:0:0:0:
316,136,102618,6,0,P|340:180|336:230,1,99.9999999999999,12|8,0:3|0:0,0:0:0:0:
280,296,103333,1,8,0:0:0:0:
347,353,103690,1,12,0:3:0:0:
419,302,104047,1,12,0:3:0:0:
491,251,104404,1,12,0:3:0:0:
439,178,104761,6,0,P|426:130|437:82,2,99.9999999999999,12|8|8,0:0|0:0|0:0,0:0:0:0:
491,251,105832,2,0,P|503:298|492:346,2,99.9999999999999,12|8|8,0:3|0:0|0:0,0:0:0:0:
416,300,106904,6,0,L|316:287,1,99.9999999999999,12|8,0:3|0:0,0:0:0:0:
244,236,107618,1,8,0:0:0:0:
168,284,107975,2,0,P|152:320|156:388,2,99.9999999999999,12|8|8,0:3|0:0|0:0,0:0:0:0:
244,236,109047,6,0,P|247:186|229:140,1,99.9999999999999,12|8,0:0|0:0,0:0:0:0:
168,76,109761,1,8,0:0:0:0:
236,16,110118,2,0,L|336:24,2,99.9999999999999,12|8|8,0:3|0:0|0:0,0:0:0:0:
168,76,111190,6,0,B|140:124|164:172|164:172|192:224|172:267,1,200,12|8,0:0|0:0,0:0:0:0:
120,340,112261,2,0,L|20:332,2,99.9999999999999,12|8|8,0:0|0:0|0:0,0:0:0:0:
208,352,113332,5,2,0:0:0:0:
256,192,113511,12,0,114761,0:0:0:0:
13,263,116190,5,6,0:0:0:0:
92,304,116547,1,8,0:0:0:0:
168,256,116904,2,0,L|178:156,1,99.9999999999999,2|8,0:0|0:0,0:0:0:0:
268,176,117618,2,0,L|367:186,1,99.9999999999999,2|8,0:0|0:0,0:0:0:0:
352,96,118332,2,0,L|252:85,1,99.9999999999999,2|8,0:0|0:0,0:0:0:0:
180,28,119047,6,0,P|160:73|169:122,1,99.9999999999999,6|8,0:0|0:0,0:0:0:0:
224,196,119761,2,0,P|232:244|213:290,1,99.9999999999999,2|8,0:0|0:0,0:0:0:0:
140,344,120475,1,8,0:0:0:0:
223,380,120832,1,8,0:0:0:0:
296,326,121190,2,0,P|336:316|404:332,1,99.9999999999999,8|8,0:0|0:0,0:0:0:0:
480,344,121904,6,0,L|468:244,1,99.9999999999999,6|8,0:0|0:0,0:0:0:0:
500,160,122618,2,0,L|488:60,1,99.9999999999999,2|8,0:0|0:0,0:0:0:0:
407,15,123332,2,0,P|378:56|332:75,1,99.9999999999999,2|8,0:0|0:0,0:0:0:0:
247,40,124047,2,0,P|199:33|154:54,1,99.9999999999999,2|8,0:0|0:0,0:0:0:0:
88,116,124761,5,8,0:0:0:0:
126,198,125119,1,8,0:0:0:0:
216,185,125475,2,0,P|264:175|313:184,1,99.9999999999999,8|8,0:0|0:0,0:0:0:0:
368,116,126190,2,0,P|389:71|392:21,1,99.9999999999999,8|8,0:0|0:0,0:0:0:0:
480,48,126904,2,0,P|502:92|506:141,1,99.9999999999999,8|8,0:0|0:0,0:0:0:0:
472,224,127618,6,0,L|373:206,1,99.9999999999999,6|2,0:0|0:0,0:0:0:0:
284,184,128332,2,0,L|185:201,1,99.9999999999999,2|2,0:0|0:0,0:0:0:0:
140,280,129047,2,0,P|96:221|113:151,2,150,6|4|2,0:0|0:0|0:1,0:0:0:0:
208,340,130475,6,0,P|280:319|354:328,2,150,6|6|6,0:0|0:0|0:0,0:0:0:0:
168,212,132083,2,0,P|232:173|306:162,2,150,6|6|6,0:0|0:0|0:0,0:0:0:0:
97,98,133690,2,0,P|149:44|218:15,2,150,6|6|6,0:0|0:0|0:0,0:0:0:0:
56,180,135118,5,6,0:0:0:0:
104,256,135475,1,2,0:0:0:0:
192,251,135832,2,0,L|292:244,1,99.9999999999999,2|0,0:0|0:0,0:0:0:0:
292,244,137618,6,0,P|279:292|285:342,1,99.9999999999999,6|8,0:0|0:0,0:0:0:0:
375,348,138332,2,0,P|388:299|383:250,1,99.9999999999999,2|8,0:0|0:0,0:0:0:0:
343,167,139046,2,0,P|337:117|350:69,2,99.9999999999999,2|8|2,0:0|0:0|0:0,0:0:0:0:
292,244,140118,1,8,0:0:0:0:
215,193,140475,1,6,0:0:0:0:
44,48,141368,6,0,L|32:120,1,50,8|8,0:0|0:0,0:0:0:0:
4,180,141903,2,0,P|16:228|11:277,1,99.9999999999999,6|0,0:0|0:0,0:0:0:0:
80,336,142618,2,0,P|105:293|144:261,1,99.9999999999999,6|8,0:0|0:1,0:0:0:0:
232,236,143332,6,0,L|244:352,1,99.9999999999999,6|8,0:0|0:0,0:0:0:0:
328,304,144046,2,0,L|338:204,1,99.9999999999999,2|8,0:0|0:0,0:0:0:0:
388,128,144760,2,0,P|344:112|291:127,2,99.9999999999999,2|8|2,0:0|0:0|0:0,0:0:0:0:
468,164,145832,1,8,0:0:0:0:
500,80,146189,1,6,0:0:0:0:
284,20,147082,6,0,L|216:32,1,50,8|8,0:0|0:0,0:0:0:0:
156,72,147618,2,0,P|109:55|59:59,1,99.9999999999999,6|0,0:0|0:0,0:0:0:0:
48,148,148332,2,0,P|94:164|144:160,1,99.9999999999999,6|8,0:0|0:1,0:0:0:0:
228,128,149046,5,6,0:0:0:0:
297,184,149403,1,2,0:0:0:0:
380,151,149760,1,2,0:0:0:0:
449,207,150117,1,2,0:0:0:0:
433,295,150475,6,0,P|399:330|353:349,1,99.9999999999999,6|8,0:0|0:0,0:0:0:0:
264,336,151189,2,0,P|221:310|172:303,1,99.9999999999999,2|8,0:0|0:0,0:0:0:0:
92,348,151903,2,0,P|79:300|95:253,1,99.9999999999999,2|8,0:0|0:0,0:0:0:0:
175,210,152617,2,0,P|187:162|171:115,1,99.9999999999999,2|8,0:0|0:0,0:0:0:0:
104,52,153332,1,6,0:0:0:0:
324,16,154225,6,0,L|392:28,1,50,8|8,0:0|0:0,0:0:0:0:
332,104,154760,2,0,B|232:117|232:117|230:170|279:198,1,200,6|6,0:0|0:0,0:0:0:0:
368,196,155832,1,8,0:1:0:0:
442,140,156189,6,0,P|459:180|448:242,1,99.9999999999999,6|8,0:0|0:0,0:0:0:0:
396,304,156903,2,0,P|347:295|301:313,1,99.9999999999999,2|8,0:0|0:0,0:0:0:0:
212,336,157617,2,0,L|113:321,1,99.9999999999999,2|8,0:0|0:0,0:0:0:0:
84,236,158332,2,0,L|182:221,1,99.9999999999999,2|10,0:0|0:0,0:0:0:0:
272,208,159046,1,6,0:0:0:0:
60,128,159939,6,0,L|52:68,1,50,8|8,0:0|0:0,0:0:0:0:
132,36,160475,2,0,B|146:135|146:135|199:136|227:86,1,200,6|6,0:0|0:0,0:0:0:0:
284,20,161546,1,8,0:1:0:0:
341,86,161904,5,6,0:0:0:0:
16,212,173332,6,0,P|112:192|200:236,1,200,4|0,0:0|0:0,0:0:0:0:
272,288,174403,1,0,0:0:0:0:
352,248,174760,2,0,P|351:172|340:76,2,150,4|0|2,0:0|0:0|0:1,0:0:0:0:
348,340,176190,6,0,P|272:324|180:344,2,150,6|6|6,0:0|0:0|0:0,0:0:0:0:
300,216,177797,2,0,P|230:180|136:176,2,150,6|6|6,0:0|0:0|0:0,0:0:0:0:
285,83,179404,2,0,P|227:31|137:2,2,150,6|6|6,0:0|0:0|0:0,0:0:0:0:
352,144,180832,5,6,0:0:0:0:
432,100,181189,1,2,0:0:0:0:
499,161,181546,2,0,L|488:264,1,99.9999999999999,2|0,0:0|0:0,0:0:0:0:
175,81,183332,6,0,B|152:128|172:180|172:180|131:210|130:267|130:267|152:311|207:321,1,300,0|2,0:0|0:0,0:0:0:0:
288,363,184761,6,0,P|295:315|280:267,1,99.9999999999999,6|8,0:0|0:0,0:0:0:0:
340,200,185475,2,0,P|388:210|426:242,1,99.9999999999999,2|8,0:0|0:0,0:0:0:0:
488,176,186189,2,0,L|503:77,1,99.9999999999999,2|8,0:0|0:0,0:0:0:0:
428,28,186903,2,0,L|382:117,1,99.9999999999999,2|8,0:0|0:0,0:0:0:0:
340,200,187618,1,6,0:0:0:0:
136,100,188511,6,0,L|128:40,1,50,8|8,0:0|0:0,0:0:0:0:
51,96,189046,2,0,P|43:145|46:194,1,99.9999999999999,6|0,0:0|0:0,0:0:0:0:
104,264,189761,2,0,P|137:226|178:198,1,99.9999999999999,6|8,0:0|0:1,0:0:0:0:
240,264,190475,6,0,L|232:380,1,99.9999999999999,6|8,0:0|0:0,0:0:0:0:
320,348,191189,2,0,L|328:232,1,99.9999999999999,2|8,0:0|0:0,0:0:0:0:
384,176,191903,2,0,P|337:158|288:165,1,99.9999999999999,2|8,0:0|0:0,0:0:0:0:
204,192,192618,2,0,P|155:184|116:153,1,99.9999999999999,2|8,0:0|0:0,0:0:0:0:
76,72,193332,1,6,0:0:0:0:
292,0,194225,6,0,L|360:8,1,50,8|8,0:0|0:0,0:0:0:0:
424,39,194761,2,0,P|411:87|415:136,1,99.9999999999999,6|0,0:0|0:0,0:0:0:0:
468,212,195475,2,0,P|425:237|392:275,1,99.9999999999999,6|8,0:0|0:1,0:0:0:0:
352,356,196189,6,0,P|400:363|447:346,2,99.9999999999999,6|2|2,0:0|0:0|0:0,0:0:0:0:
280,304,197261,1,6,0:0:0:0:
208,252,197618,2,0,L|216:148,2,99.9999999999999,6|2|2,0:0|0:0|0:0,0:0:0:0:
126,288,198690,1,6,0:0:0:0:
53,235,199046,6,0,P|47:186|56:137,1,99.9999999999999,6|2,0:0|0:0,0:0:0:0:
112,64,199761,2,0,P|150:95|196:115,1,99.9999999999999,6|2,0:0|0:0,0:0:0:0:
284,96,200475,1,6,0:0:0:0:
329,173,200832,1,2,0:0:0:0:
417,154,201190,1,2,0:0:0:0:
462,231,201547,1,2,0:0:0:0:
401,298,201904,6,0,P|340:288|196:284,1,200,2|2,0:0|0:0,0:0:0:0:
116,308,202975,1,2,0:0:0:0:
56,240,203332,2,0,P|48:191|65:144,1,99.9999999999999,2|2,0:0|0:0,0:0:0:0:
128,80,204046,1,2,0:0:0:0:
272,196,204761,6,0,P|320:204|367:187,1,99.9999999999999,2|2,0:0|0:0,0:0:0:0:
