osu file format v14

[General]
AudioFilename: drop kick.mp3
AudioLeadIn: 0
PreviewTime: 96100
Countdown: 0
SampleSet: Soft
StackLeniency: 0.7
Mode: 0
LetterboxInBreaks: 0
WidescreenStoryboard: 0

[Editor]
DistanceSpacing: 1
BeatDivisor: 4
GridSize: 4
TimelineZoom: 1.5

[Metadata]
Title:Gabriel Drop Kick
TitleUnicode:ガヴリールドロップキック
Artist:Tomita Miyu, Onishi Saori, Ohzora Naomi, Hanazawa Kana
ArtistUnicode:富田美憂、大西沙織、大空直美、花澤香菜
Creator:Doormat
Version:Angel & Devil
Source:ガヴリールドロップアウト
Tags:Kalibe SnowNiNo_ Karen dropout gabdro dropkick ガヴドロ opening full size tenma gabriel white 天真・ガヴリール・ホワイト tsukinose vignette april 月乃瀬・ヴィネット・エイプリル vigne ヴィーネ kurumizawa satanichia mcdowell 胡桃沢・サタニキア・マクドウェル satania サターニャ shiraha raphiel ainsworth 白羽・ラフィエル・エインズワース
BeatmapID:1220498
BeatmapSetID:576517

[Difficulty]
HPDrainRate:6.5
CircleSize:4
OverallDifficulty:8.5
ApproachRate:9.3
SliderMultiplier:1.7
SliderTickRate:1

[Events]
//Background and Video events
0,0,"dropout_background.jpg",0,0
//Break Periods
//Storyboard Layer 0 (Background)
//Storyboard Layer 1 (Fail)
//Storyboard Layer 2 (Pass)
//Storyboard Layer 3 (Foreground)
//Storyboard Sound Samples

[TimingPoints]
3333,357.142857142857,4,2,2,50,1,0
3333,-166.666666666667,4,2,2,50,0,0
10475,357.142857142857,4,2,1,70,1,0
21903,-117.647058823529,4,2,2,50,0,0
24760,-166.666666666667,4,2,1,70,0,0
27617,-117.647058823529,4,2,2,50,0,0
30474,-166.666666666667,4,2,1,70,0,0
33332,-100,4,2,1,70,0,0
41903,-100,4,2,1,5,0,0
44403,-100,4,2,1,70,0,0
56189,-100,4,2,1,60,0,0
58689,-83.3333333333333,4,2,1,80,0,0
59047,357.142857142857,5,2,1,60,1,0
60654,357.142857142857,5,2,1,65,1,0
62261,357.142857142857,4,2,1,70,1,0
64761,357.142857142857,4,2,2,50,1,0
65832,-100,4,2,1,50,0,0
66190,357.142857142857,4,2,1,70,1,1
66190,-90.9090909090909,4,2,1,70,0,1
69047,-90.9090909090909,4,2,1,70,0,0
69940,-90.9090909090909,4,2,1,70,0,1
71547,-83.3333333333333,4,2,1,80,0,1
71815,-90.9090909090909,4,2,1,70,0,0
71904,-90.9090909090909,4,2,1,70,0,1
74761,-90.9090909090909,4,2,1,70,0,0
75654,-90.9090909090909,4,2,1,70,0,1
77261,-83.3333333333333,4,2,1,80,0,1
77529,-90.9090909090909,4,2,1,70,0,0
77618,-90.9090909090909,4,2,1,70,0,1
78690,-66.6666666666667,4,2,1,80,0,1
79047,-90.9090909090909,4,2,1,70,0,1
80118,-66.6666666666667,4,2,1,80,0,1
80475,-90.9090909090909,4,2,1,70,0,1
80832,-66.6666666666667,4,2,1,80,0,1
81190,-90.9090909090909,4,2,1,70,0,1
81547,-66.6666666666667,4,2,1,80,0,1
81904,-90.9090909090909,4,2,1,90,0,1
83333,357.142857142857,3,2,2,50,1,0
83333,-166.666666666667,3,2,2,50,0,0
87618,-117.647058823529,3,2,3,60,0,0
95565,-117.647058823529,3,2,3,5,0,0
96190,-117.647058823529,3,2,3,60,0,0
113333,357.142857142857,4,2,1,60,1,0
115833,-100,4,2,1,60,0,0
116190,357.142857142857,4,2,1,70,1,0
127618,-100,4,2,1,60,0,0
130118,-83.3333333333333,4,2,1,80,0,0
130475,357.142857142857,5,2,1,60,1,0
132083,357.142857142857,5,2,1,65,1,0
133690,357.142857142857,4,2,1,70,1,0
136190,357.142857142857,4,2,2,50,1,0
137261,-100,4,2,1,50,0,0
137618,357.142857142857,4,2,1,70,1,1
137618,-90.9090909090909,4,2,1,70,0,1
140475,-90.9090909090909,4,2,1,70,0,0
141368,-90.9090909090909,4,2,1,70,0,1
142975,-83.3333333333333,4,2,1,80,0,1
143243,-90.9090909090909,4,2,1,70,0,0
143332,-90.9090909090909,4,2,1,70,0,1
146189,-90.9090909090909,4,2,1,70,0,0
147082,-90.9090909090909,4,2,1,70,0,1
148689,-83.3333333333333,4,2,1,80,0,1
149046,-90.9090909090909,4,2,1,90,0,1
150385,-90.9090909090909,4,2,1,70,0,0
150475,357.142857142857,4,2,1,80,1,1
150475,-90.9090909090909,4,2,1,80,0,1
153332,-90.9090909090909,4,2,1,80,0,0
154225,-90.9090909090909,4,2,1,80,0,1
156100,-90.9090909090909,4,2,1,80,0,0
156189,-90.9090909090909,4,2,1,80,0,1
159046,-90.9090909090909,4,2,1,80,0,0
159939,-90.9090909090909,4,2,1,80,0,1
161546,-83.3333333333333,4,2,1,80,0,1
161903,-100,4,2,1,70,0,0
173332,-117.647058823529,4,2,1,60,0,0
175832,-83.3333333333333,4,2,1,80,0,0
176190,357.142857142857,5,2,1,60,1,0
177797,357.142857142857,5,2,1,65,1,0
179404,357.142857142857,4,2,1,70,1,0
181904,357.142857142857,4,2,2,50,1,0
184404,-100,4,2,1,50,0,0
184761,357.142857142857,4,2,1,70,1,1
184761,-90.9090909090909,4,2,1,70,0,1
187618,-90.9090909090909,4,2,1,70,0,0
188511,-90.9090909090909,4,2,1,70,0,1
190118,-83.3333333333333,4,2,1,80,0,1
190386,-90.9090909090909,4,2,1,70,0,0
190475,-90.9090909090909,4,2,1,70,0,1
193332,-90.9090909090909,4,2,1,70,0,0
194225,-90.9090909090909,4,2,1,70,0,1
195832,-83.3333333333333,4,2,1,80,0,1
196100,-90.9090909090909,4,2,1,70,0,0
196189,-90.9090909090909,4,2,1,70,0,1
197261,-66.6666666666667,4,2,1,80,0,1
197618,-90.9090909090909,4,2,1,70,0,1
198689,-66.6666666666667,4,2,1,80,0,1
199046,-90.9090909090909,4,2,1,70,0,1
199403,-66.6666666666667,4,2,1,80,0,1
199761,-90.9090909090909,4,2,1,70,0,1
200118,-66.6666666666667,4,2,1,80,0,1
200475,-90.9090909090909,4,2,1,90,0,1
201904,357.142857142857,3,2,2,50,1,0
201904,-166.666666666667,3,2,2,50,0,0

[Colours]
Combo1 : 158,123,189
Combo2 : 227,84,102
Combo3 : 238,162,25
Combo4 : 167,204,49

[HitObjects]
104,168,3333,6,0,P|175:147|243:179,1,152.999995330811,2|0,0:0|0:0,0:0:0:0:
315,253,4047,2,0,L|307:321,1,50.9999984436036,2|0,0:0|0:0,0:0:0:0:
387,181,4404,2,0,L|395:113,1,50.9999984436036,0|0,0:0|0:0,0:0:0:0:
424,20,4761,5,2,0:0:0:0:
312,51,4940,2,0,P|262:59|214:44,1,101.999996887207,0|0,0:0|0:0,0:0:0:0:
95,144,5475,2,0,P|145:135|193:150,1,101.999996887207,2|0,0:0|0:0,0:0:0:0:
400,284,6190,5,2,0:0:0:0:
140,232,6547,1,0,0:0:0:0:
380,121,6904,1,2,0:0:0:0:
250,352,7261,1,0,0:0:0:0:
218,87,7618,6,0,P|217:138|198:185,1,101.999996887207,2|0,0:0|0:0,0:0:0:0:
96,164,8154,1,0,0:0:0:0:
96,164,8332,2,0,P|97:113|116:66,1,101.999996887207,2|0,0:0|0:0,0:0:0:0:
256,256,9047,5,2,0:0:0:0:
256,192,9136,12,0,10297,0:0:0:0:
368,140,10475,5,6,0:0:0:0:
160,212,10653,2,0,L|166:127,1,85,0|8,0:0|0:0,0:0:0:0:
244,188,10921,2,0,L|250:272,1,85,0|0,0:0|0:0,0:0:0:0:
256,364,11189,1,2,0:0:0:0:
56,280,11367,1,0,0:0:0:0:
228,112,11546,1,8,0:0:0:0:
228,112,11635,2,0,P|176:116|124:92,1,85,0|0,0:0|0:0,0:0:0:0:
192,20,11903,6,0,L|234:17,1,42.5,2|0,0:0|0:0,0:0:0:0:
316,60,12082,2,0,L|358:57,1,42.5,0|0,0:0|0:0,0:0:0:0:
448,75,12260,1,8,0:0:0:0:
442,107,12350,1,0,0:0:0:0:
438,139,12439,1,0,0:0:0:0:
436,170,12528,1,0,0:0:0:0:
435,199,12617,2,0,P|436:221|434:242,1,42.5,2|0,0:0|0:0,0:0:0:0:
312,332,12796,2,0,P|310:310|310:289,1,42.5,0|0,0:0|0:0,0:0:0:0:
460,380,12975,1,8,0:0:0:0:
312,148,13153,1,0,0:0:0:0:
312,148,13242,1,0,0:0:0:0:
312,148,13332,1,6,0:0:0:0:
117,349,13510,5,0,0:0:0:0:
145,327,13599,1,0,0:0:0:0:
177,313,13689,1,8,0:0:0:0:
212,306,13778,1,0,0:0:0:0:
247,307,13867,1,0,0:0:0:0:
281,316,13957,1,0,0:0:0:0:
312,332,14046,5,2,0:0:0:0:
341,313,14135,1,0,0:0:0:0:
365,287,14224,1,0,0:0:0:0:
379,255,14314,1,0,0:0:0:0:
384,220,14403,1,8,0:0:0:0:
377,186,14492,1,0,0:0:0:0:
360,155,14582,1,0,0:0:0:0:
100,228,14760,6,0,L|141:219,1,42.5,2|0,0:0|0:0,0:0:0:0:
264,108,14939,2,0,L|223:117,1,42.5,0|0,0:0|0:0,0:0:0:0:
80,252,15117,2,0,L|121:243,1,42.5,8|0,0:0|0:0,0:0:0:0:
284,124,15296,2,0,L|243:133,1,42.5,0|0,0:0|0:0,0:0:0:0:
28,116,15474,5,10,0:0:0:0:
272,216,15653,1,8,0:0:0:0:
28,116,15832,1,8,0:0:0:0:
272,216,16010,1,8,0:0:0:0:
16,360,16189,6,0,L|184:337,1,170,6|8,0:0|0:0,0:0:0:0:
340,276,16724,1,0,0:0:0:0:
248,136,16903,2,0,P|240:94|243:52,1,85,2|0,0:0|0:0,0:0:0:0:
416,112,17260,2,0,P|419:154|411:195,1,85,8|0,0:0|0:0,0:0:0:0:
152,328,17617,6,0,L|235:309,1,85,2|0,0:0|0:0,0:0:0:0:
368,196,17974,2,0,L|284:177,1,85,8|0,0:0|0:0,0:0:0:0:
128,100,18332,2,0,L|211:81,1,85,2|0,0:0|0:0,0:0:0:0:
210,81,18599,1,0,0:0:0:0:
210,81,18689,1,8,0:0:0:0:
80,248,18867,1,0,0:0:0:0:
328,344,19046,5,2,0:0:0:0:
328,344,19135,1,0,0:0:0:0:
328,344,19224,2,0,L|322:301,1,42.5,0|0,0:0|0:0,0:0:0:0:
212,164,19403,1,8,0:0:0:0:
212,164,19492,1,0,0:0:0:0:
212,164,19582,2,0,L|206:207,1,42.5,0|0,0:0|0:0,0:0:0:0:
378,238,19760,6,0,P|398:228|416:215,1,42.5,10|0,0:0|0:0,0:0:0:0:
302,69,19939,2,0,P|293:50|280:32,1,42.5,8|0,0:0|0:0,0:0:0:0:
133,145,20117,2,0,P|114:155|97:168,1,42.5,8|0,0:0|0:0,0:0:0:0:
209,314,20296,2,0,P|220:333|233:351,1,42.5,8|0,0:0|0:0,0:0:0:0:
378,238,20474,5,0,1:0:0:0:
48,359,20832,1,0,1:0:0:0:
108,12,21189,1,0,1:0:0:0:
108,12,21903,6,0,P|107:85|110:157,1,144.500002756119,2|2,0:0|0:0,0:0:0:0:
152,244,22439,1,0,0:0:0:0:
72,300,22617,2,0,L|0:292,1,72.2500013780594,2|0,0:0|0:0,0:0:0:0:
160,341,22974,2,0,L|231:333,1,72.2500013780594,2|0,0:0|0:0,0:0:0:0:
280,236,23332,6,0,P|284:201|277:165,1,72.2500013780594,2|0,0:0|0:0,0:0:0:0:
399,272,23689,2,0,P|395:308|402:344,1,72.2500013780594,2|0,0:0|0:0,0:0:0:0:
512,168,24046,2,0,P|445:146|381:175,1,144.500002756119,2|2,0:0|0:0,0:0:0:0:
381,175,24760,6,0,L|392:56,1,101.999996887207,4|0,0:0|0:0,0:0:0:0:
256,160,25296,1,0,0:0:0:0:
472,212,25474,1,8,0:0:0:0:
364,60,25653,1,0,0:0:0:0:
300,276,25832,1,0,0:0:0:0:
129,89,26010,6,0,B|177:72|177:72|227:81,1,101.999996887207,8|0,0:0|0:0,0:0:0:0:
392,164,26546,1,0,0:0:0:0:
186,169,26724,1,0,0:0:0:0:
360,88,26903,1,8,0:0:0:0:
348,236,27082,1,0,0:0:0:0:
129,89,27260,1,8,0:0:0:0:
151,300,27439,1,0,3:0:0:0:
151,299,27528,1,0,3:0:0:0:
151,299,27617,6,0,P|189:240|186:169,1,144.500002756119,2|2,0:0|0:0,0:0:0:0:
129,89,28153,1,0,0:0:0:0:
208,24,28332,2,0,P|244:24|279:31,1,72.2500013780594,2|0,0:0|0:0,0:0:0:0:
129,89,28689,2,0,P|93:89|58:82,1,72.2500013780594,2|0,0:0|0:0,0:0:0:0:
4,188,29046,6,0,P|13:222|16:258,1,72.2500013780594,2|0,0:0|0:0,0:0:0:0:
148,276,29403,2,0,P|151:240|160:205,1,72.2500013780594,2|0,0:0|0:0,0:0:0:0:
198,360,29760,2,0,P|122:370|67:328,1,144.500002756119,2|2,0:0|0:0,0:0:0:0:
148,276,30296,1,0,0:0:0:0:
288,332,30474,5,4,0:0:0:0:
388,228,30653,2,0,B|340:212|340:212|280:232,1,101.999996887207
92,176,31189,2,0,B|129:184|129:184|166:176,1,76.4999976654053,8|0,0:0|0:0,0:0:0:0:
166,176,31546,1,0,0:0:0:0:
128,328,31724,1,8,0:0:0:0:
129,87,31903,5,2,0:3:0:0:
248,268,32082,1,0,0:0:0:0:
4,300,32260,1,0,0:0:0:0:
185,181,32439,1,0,0:0:0:0:
24,20,32617,5,0,3:0:0:0:
8,47,32707,1,0,3:0:0:0:
0,78,32796,1,0,3:0:0:0:
1,110,32885,1,0,3:0:0:0:
11,140,32974,1,0,3:0:0:0:
33,162,33064,1,0,3:0:0:0:
63,173,33153,1,0,3:0:0:0:
94,170,33242,1,0,3:0:0:0:
121,154,33332,6,0,P|184:144|232:144,1,85,6|0,0:0|0:0,0:0:0:0:
364,244,33689,2,0,P|301:233|253:233,1,85,8|0,0:0|0:0,0:0:0:0:
100,292,34046,2,0,P|163:282|211:282,1,85,2|0,0:0|0:0,0:0:0:0:
343,382,34403,1,8,0:0:0:0:
284,200,34582,1,0,0:0:0:0:
72,292,34760,5,2,0:0:0:0:
256,344,34939,1,0,0:0:0:0:
84,196,35117,1,8,0:0:0:0:
100,384,35296,1,0,0:0:0:0:
252,200,35474,2,0,P|259:159|256:117,1,85,2|0,0:0|0:0,0:0:0:0:
56,216,35832,2,0,P|52:258|59:300,1,85,8|0,0:0|0:0,0:0:0:0:
140,124,36189,5,6,0:0:0:0:
240,304,36367,2,0,L|148:296,1,85,0|8,0:0|0:0,0:0:0:0:
292,160,36724,1,0,0:0:0:0:
356,384,36903,1,2,0:0:0:0:
156,216,37082,1,0,0:0:0:0:
392,252,37260,1,8,0:0:0:0:
140,356,37439,1,0,0:0:0:0:
272,120,37617,6,0,B|280:164|280:164|266:201,1,85,6|0,0:0|0:0,0:0:0:0:
40,160,37974,2,0,B|32:116|32:116|45:78,1,85,8|0,0:0|0:0,0:0:0:0:
272,16,38332,1,2,0:0:0:0:
136,244,38510,1,8,0:0:0:0:
128,8,38689,1,2,0:0:0:0:
344,136,38867,1,8,0:0:0:0:
15,132,39046,6,0,P|56:120|98:125,1,85,6|0,0:0|0:0,0:0:0:0:
184,320,39403,2,0,P|143:331|101:326,1,85,8|0,0:0|0:0,0:0:0:0:
216,152,39760,1,2,0:0:0:0:
319,323,39939,1,0,0:0:0:0:
136,244,40117,1,8,0:0:0:0:
329,200,40296,1,0,0:0:0:0:
199,352,40474,5,6,0:0:0:0:
329,200,40653,1,0,0:0:0:0:
136,244,40832,1,8,0:0:0:0:
319,323,41010,1,0,0:0:0:0:
216,152,41189,2,0,P|160:122|56:152,2,170,2|8|0,0:0|0:0|0:0,0:0:0:0:
337,207,44403,5,2,0:0:0:0:
324,203,44492,1,2,0:0:0:0:
324,190,44581,1,2,0:0:0:0:
337,186,44671,1,2,0:0:0:0:
344,196,44760,6,0,P|341:238|334:280,1,85,6|0,0:0|0:0,0:0:0:0:
240,324,45028,1,0,0:0:0:0:
240,324,45117,2,0,P|233:282|230:239,1,85,8|0,0:0|0:0,0:0:0:0:
244,136,45385,1,0,0:0:0:0:
244,136,45474,1,2,0:0:0:0:
92,196,45653,1,0,0:0:0:0:
12,20,45832,2,0,P|54:22|96:29,1,85,8|0,0:0|0:0,0:0:0:0:
192,68,46099,1,0,0:0:0:0:
192,68,46189,5,2,0:0:0:0:
220,82,46278,1,0,0:0:0:0:
251,89,46367,1,0,0:0:0:0:
282,85,46457,1,0,0:0:0:0:
310,73,46546,1,8,0:0:0:0:
339,59,46635,1,0,0:0:0:0:
371,55,46724,1,0,0:0:0:0:
402,62,46813,1,0,0:0:0:0:
429,78,46903,6,0,L|435:120,1,42.5,2|0,0:0|0:0,0:0:0:0:
351,219,47082,2,0,L|345:176,1,42.5,0|0,0:0|0:0,0:0:0:0:
468,220,47260,2,0,L|473:262,1,42.5,8|0,0:0|0:0,0:0:0:0:
390,361,47439,2,0,L|384:318,1,42.5,0|0,0:0|0:0,0:0:0:0:
351,219,47617,5,6,0:0:0:0:
312,205,47706,1,0,0:0:0:0:
269,205,47795,1,0,0:0:0:0:
229,218,47884,1,0,0:0:0:0:
196,244,47974,2,0,P|191:286|199:328,1,85,8|0,0:0|0:0,0:0:0:0:
52,216,48332,2,0,P|56:173|49:132,1,85,2|0,0:0|0:0,0:0:0:0:
200,24,48689,2,0,P|195:66|202:107,1,85,8|0,0:0|0:0,0:0:0:0:
80,16,49046,5,8,0:0:0:0:
172,328,49403,1,8,0:0:0:0:
438,142,49760,5,8,0:0:0:0:
188,180,49939,1,8,0:0:0:0:
444,224,50117,1,8,0:0:0:0:
196,100,50296,1,8,0:0:0:0:
236,384,50474,6,0,P|244:342|244:299,1,85,6|0,0:0|0:0,0:0:0:0:
49,216,50832,2,0,P|48:258|56:300,1,85,8|0,0:0|0:0,0:0:0:0:
188,180,51189,1,2,0:0:0:0:
48,120,51367,1,0,0:0:0:0:
228,64,51546,1,8,0:0:0:0:
88,4,51724,1,0,0:0:0:0:
0,208,51903,6,0,P|41:215|83:211,1,85,2|0,0:0|0:0,0:0:0:0:
292,95,52260,2,0,P|250:88|208:92,1,85,8|0,0:0|0:0,0:0:0:0:
83,210,52617,1,2,0:0:0:0:
244,180,52796,1,0,0:0:0:0:
64,84,52974,1,8,0:0:0:0:
224,53,53153,1,0,0:0:0:0:
164,284,53332,5,8,0:0:0:0:
340,140,53510,1,8,0:0:0:0:
64,84,53689,1,8,0:0:0:0:
244,220,53867,1,8,0:0:0:0:
4,328,54046,5,8,0:0:0:0:
152,152,54224,1,8,0:0:0:0:
268,384,54403,1,8,0:0:0:0:
84,244,54582,1,8,0:0:0:0:
288,76,54760,5,8,0:0:0:0:
299,107,54849,1,0,0:0:0:0:
304,141,54939,1,8,0:0:0:0:
301,175,55028,1,0,0:0:0:0:
291,206,55117,2,0,P|273:218|253:225,1,42.5,8|0,0:0|0:0,0:0:0:0:
324,308,55296,2,0,P|343:316|364:320,1,42.5,8|0,0:0|0:0,0:0:0:0:
456,256,55474,5,8,0:0:0:0:
224,152,55653,1,8,0:0:0:0:
224,152,55742,1,0,0:0:0:0:
224,152,55832,1,8,0:0:0:0:
468,100,56010,1,8,0:0:0:0:
299,323,56189,6,0,P|287:282|292:240,1,85,6|0,0:0|0:0,0:0:0:0:
120,144,56546,2,0,P|125:185|114:226,1,85,2|0,0:0|0:0,0:0:0:0:
114,226,56814,1,0,0:0:0:0:
114,226,56903,1,2,0:0:0:0:
0,168,57082,1,0,0:0:0:0:
88,44,57260,2,0,L|172:52,1,85,2|0,0:0|0:0,0:0:0:0:
392,124,57617,6,0,L|308:132,1,85,6|0,0:0|0:0,0:0:0:0:
196,232,57974,1,2,0:0:0:0:
359,340,58153,2,0,P|364:297|354:256,1,85,4|2,0:0|0:0,0:0:0:0:
240,372,58510,1,0,0:0:0:0:
152,128,58689,6,0,P|151:203|224:240,1,152.999995330811,2|0,0:1|0:0,0:0:0:0:
288,184,59047,5,6,0:0:0:0:
76,272,59225,1,2,0:0:0:0:
80,44,59404,1,2,0:0:0:0:
216,252,59582,5,6,0:0:0:0:
0,144,59761,1,2,0:0:0:0:
204,20,59939,1,2,0:0:0:0:
76,272,60118,5,6,0:0:0:0:
52,16,60297,1,2,0:0:0:0:
292,104,60475,1,2,0:0:0:0:
68,160,60654,5,6,0:0:0:0:
244,252,60832,1,2,0:0:0:0:
240,52,61011,1,2,0:0:0:0:
128,268,61189,5,6,0:0:0:0:
316,140,61368,1,2,0:0:0:0:
104,56,61546,1,2,0:0:0:0:
244,252,61725,5,6,0:0:0:0:
240,4,61904,1,2,0:0:0:0:
20,116,62082,1,2,0:0:0:0:
316,140,62261,5,6,0:0:0:0:
152,288,62439,1,2,0:0:0:0:
108,72,62618,1,2,0:0:0:0:
268,236,62796,5,6,0:0:0:0:
36,176,62975,1,2,0:0:0:0:
228,32,63153,1,2,0:0:0:0:
128,268,63332,5,6,0:0:0:0:
36,28,63511,1,2,0:0:0:0:
300,56,63689,5,6,0:0:0:0:
88,196,63868,1,2,0:0:0:0:
136,12,64046,1,2,0:0:0:0:
252,240,64225,1,2,0:0:0:0:
300,56,64403,1,2,0:0:0:0:
88,196,64582,1,2,0:0:0:0:
200,80,64761,5,0,0:0:0:0:
256,156,64939,1,2,0:0:0:0:
256,156,65028,1,2,0:0:0:0:
256,156,65118,1,2,0:0:0:0:
202,232,65296,1,2,0:0:0:0:
258,308,65475,1,2,0:0:0:0:
204,384,65653,1,2,0:0:0:0:
115,355,65832,1,2,0:0:0:0:
332,260,66011,1,2,0:0:0:0:
332,260,66100,1,2,0:0:0:0:
332,260,66190,6,0,P|344:304|334:349,1,93.5000028533936,6|0,0:0|0:0,0:0:0:0:
212,308,66457,1,0,0:0:0:0:
208,304,66547,2,0,L|220:200,1,93.5000028533936,8|0,0:0|0:0,0:0:0:0:
0,208,66904,2,0,L|16:342,1,93.5000028533936,2|0,0:0|0:0,0:0:0:0:
116,225,67172,1,0,0:0:0:0:
120,221,67261,2,0,P|120:170|97:130,1,93.5000028533936,8|0,0:0|0:0,0:0:0:0:
291,24,67618,6,0,P|335:9|380:20,1,93.5000028533936,2|0,0:0|0:0,0:0:0:0:
456,68,67886,1,0,0:0:0:0:
460,72,67975,1,8,0:0:0:0:
288,220,68154,1,0,0:0:0:0:
512,272,68332,1,2,0:0:0:0:
344,112,68511,1,0,0:0:0:0:
344,112,68600,1,0,0:0:0:0:
344,112,68690,1,8,0:0:0:0:
392,368,68868,1,0,0:0:0:0:
480,96,69047,1,6,0:0:0:0:
480,96,69940,5,8,0:0:0:0:
392,368,70118,1,8,0:0:0:0:
248,140,70297,1,0,0:0:0:0:
248,140,70386,1,0,0:0:0:0:
248,140,70475,6,0,P|292:152|338:143,1,93.5000028533936,6|0,0:0|0:0,0:0:0:0:
204,56,70743,2,0,P|171:88|156:132,1,93.5000028533936,6|0,0:0|0:0,0:0:0:0:
160,240,71011,1,2,0:0:0:0:
296,56,71190,1,6,0:0:0:0:
0,124,71368,5,8,0:1:0:0:
278,330,71547,2,0,P|235:291|292:300,1,152.999995330811,8|0,0:1|0:0,0:0:0:0:
144,324,71904,6,0,P|142:278|162:236,1,93.5000028533936,6|0,0:0|0:0,0:0:0:0:
272,204,72172,1,0,0:0:0:0:
276,208,72261,2,0,L|292:300,1,93.5000028533936,8|0,0:0|0:0,0:0:0:0:
488,156,72618,2,0,L|496:36,1,93.5000028533936,2|0,0:0|0:0,0:0:0:0:
376,116,72886,1,0,0:0:0:0:
372,120,72975,2,0,P|368:176|380:212,1,93.5000028533936,8|0,0:0|0:0,0:0:0:0:
488,376,73332,6,0,P|444:360|398:367,1,93.5000028533936,2|0,0:0|0:0,0:0:0:0:
288,356,73600,1,0,0:0:0:0:
284,352,73690,1,8,0:0:0:0:
432,220,73868,1,0,0:0:0:0:
208,164,74047,1,2,0:0:0:0:
368,384,74225,1,0,0:0:0:0:
368,384,74315,1,0,0:0:0:0:
368,384,74404,1,8,0:0:0:0:
348,132,74582,1,0,0:0:0:0:
136,364,74761,1,6,0:0:0:0:
136,364,75654,5,8,0:0:0:0:
348,132,75832,1,8,0:0:0:0:
92,80,76011,1,0,0:0:0:0:
92,80,76100,1,0,0:0:0:0:
92,80,76190,6,0,P|138:84|181:67,1,93.5000028533936,6|0,0:0|0:0,0:0:0:0:
36,8,76457,2,0,P|10:46|2:92,1,93.5000028533936,6|0,0:0|0:0,0:0:0:0:
36,188,76725,1,2,0:0:0:0:
256,60,76904,1,6,0:0:0:0:
288,360,77082,5,8,0:1:0:0:
108,100,77261,2,0,P|95:50|103:0,1,101.999996887207,8|0,0:1|0:0,0:0:0:0:
240,268,77618,6,0,L|101:248,1,140.25000428009,6|0,0:0|0:0,0:0:0:0:
0,260,77975,1,2,0:0:0:0:
140,360,78154,1,0,0:0:0:0:
320,216,78332,2,0,P|332:261|325:307,1,93.5000028533936,2|0,0:0|0:0,0:0:0:0:
16,180,78690,6,0,P|3:87|57:11,1,191.250007295609,6|0,0:0|0:0,0:0:0:0:
127,119,79047,6,0,L|111:275,1,140.25000428009,6|0,0:0|0:0,0:0:0:0:
155,351,79404,1,2,0:0:0:0:
282,184,79582,1,0,0:0:0:0:
93,39,79761,2,0,P|138:33|180:52,1,93.5000028533936,2|0,0:0|0:0,0:0:0:0:
376,191,80118,6,0,P|283:184|213:246,1,191.250007295609,6|0,0:0|0:0,0:0:0:0:
324,304,80475,6,0,L|492:296,1,140.25000428009,6|0,0:0|0:0,0:0:0:0:
512,196,80832,2,0,P|480:156|468:80,1,127.500004863739,2|0,0:0|0:0,0:0:0:0:
324,0,81190,6,0,P|311:68|275:128,1,140.25000428009,6|0,0:0|0:0,0:0:0:0:
168,232,81547,2,0,P|225:233|284:286,1,127.500004863739,2|0,0:0|0:0,0:0:0:0:
24,328,81904,5,6,0:0:0:0:
80,96,82082,1,8,0:0:0:0:
196,328,82261,1,2,0:0:0:0:
252,72,82440,1,8,0:0:0:0:
0,248,82618,5,2,0:0:0:0:
280,200,82797,1,8,0:0:0:0:
24,36,82975,1,2,0:0:0:0:
100,284,83154,1,8,0:0:0:0:
302,69,83333,6,0,L|251:72,1,50.9999984436036,2|0,0:0|0:0,0:0:0:0:
210,165,83690,2,0,L|260:161,1,50.9999984436036,2|0,0:0|0:0,0:0:0:0:
110,113,84047,2,0,P|96:162|106:212,1,101.999996887207,2|2,0:0|0:0,0:0:0:0:
400,144,84761,6,0,L|392:72,1,50.9999984436036,2|0,0:0|0:0,0:0:0:0:
300,148,85118,2,0,L|294:198,1,50.9999984436036,2|0,0:0|0:0,0:0:0:0:
198,45,85475,1,2,0:0:0:0:
198,45,86190,6,0,P|152:65|102:61,1,101.999996887207,2|2,0:0|0:0,0:0:0:0:
102,61,87618,6,0,P|132:128|104:203,2,144.500002756119,12|8|8,0:0|0:0|0:0,0:0:0:0:
36,132,88511,1,0,0:0:0:0:
104,280,88690,6,0,P|152:272|248:264,2,144.500002756119,12|8|8,0:3|0:0|0:0,0:0:0:0:
216,360,89583,1,0,0:0:0:0:
343,263,89761,6,0,P|359:196|318:128,2,144.500002756119,8|8|8,0:3|0:0|0:0,0:0:0:0:
260,208,90654,1,0,0:0:0:0:
296,40,90833,5,8,0:3:0:0:
368,56,91011,1,0,0:0:0:0:
320,152,91190,5,8,0:0:0:0:
392,168,91368,1,0,0:0:0:0:
344,264,91547,5,8,0:0:0:0:
416,280,91725,1,0,0:0:0:0:
257,80,91904,6,0,P|224:142|243:210,2,144.500002756119,12|8|8,0:0|0:0|0:0,0:0:0:0:
320,152,92797,1,0,0:0:0:0:
208,292,92975,6,0,P|160:284|64:276,2,144.500002756119,12|8|8,0:3|0:0|0:0,0:0:0:0:
320,236,93868,1,0,0:0:0:0:
184,56,94047,5,12,0:3:0:0:
180,128,94225,1,0,0:0:0:0:
288,32,94404,5,8,0:0:0:0:
284,104,94583,1,0,0:0:0:0:
392,8,94761,5,8,0:0:0:0:
388,80,94940,1,0,0:0:0:0:
184,56,95118,5,12,0:3:0:0:
468,175,95475,2,0,L|432:182,1,36.1250006890297,2|0,0:0|0:0,0:0:0:0:
468,175,96190,6,0,P|472:216|472:252,1,72.2500013780594,12|0,0:0|0:0,0:0:0:0:
372,284,96547,2,0,P|358:211|356:132,1,144.500002756119,8|8,0:0|0:0,0:0:0:0:
388,40,97083,1,0,0:0:0:0:
287,7,97261,5,12,0:3:0:0:
287,7,97440,2,0,P|251:7|217:19,1,72.2500013780594,0|8,0:0|0:0,0:0:0:0:
144,96,97797,1,0,0:0:0:0:
144,96,97975,2,0,P|180:102|211:119,1,72.2500013780594,8|0,0:0|0:0,0:0:0:0:
148,204,98333,5,12,0:3:0:0:
148,204,98511,2,0,L|56:192,1,72.2500013780594,0|8,0:0|0:0,0:0:0:0:
252,304,98868,1,0,0:0:0:0:
252,304,99047,2,0,L|344:292,1,72.2500013780594,8|0,0:0|0:0,0:0:0:0:
488,204,99404,5,12,0:3:0:0:
480,275,99583,1,0,0:0:0:0:
392,152,99761,5,8,0:0:0:0:
384,223,99940,1,0,0:0:0:0:
295,99,100118,5,8,0:0:0:0:
287,170,100297,1,0,0:0:0:0:
152,88,100475,6,0,P|160:52|159:16,1,72.2500013780594,12|0,0:0|0:0,0:0:0:0:
45,61,100833,2,0,P|44:97|51:132,1,72.2500013780594,8|0,0:0|0:0,0:0:0:0:
217,189,101190,2,0,P|164:181|116:204,1,108.375002067089,8|0,0:0|0:0,0:0:0:0:
96,248,101547,6,0,P|167:260|240:288,2,144.500002756119,12|8|8,0:3|0:0|0:0,0:0:0:0:
176,356,102440,1,0,0:0:0:0:
312,255,102618,6,0,P|319:220|320:184,1,72.2500013780594,12|0,0:3|0:0,0:0:0:0:
184,116,102975,2,0,P|185:152|192:187,1,72.2500013780594,8|0,0:0|0:0,0:0:0:0:
240,36,103333,2,0,P|188:18|133:33,1,108.375002067089,8|0,0:0|0:0,0:0:0:0:
124,76,103690,5,12,0:3:0:0:
184,116,103868,1,0,0:0:0:0:
76,164,104047,5,12,0:3:0:0:
136,204,104225,1,0,0:0:0:0:
28,252,104404,5,12,0:3:0:0:
88,292,104583,1,0,0:0:0:0:
243,244,104761,6,0,P|247:208|246:172,1,72.2500013780594,12|0,0:0|0:0,0:0:0:0:
336,236,105118,2,0,P|349:202|356:167,1,72.2500013780594,8|0,0:0|0:0,0:0:0:0:
426,252,105475,2,0,P|447:222|463:190,1,72.2500013780594,8|0,0:0|0:0,0:0:0:0:
296,308,105832,6,0,P|292:343|293:379,1,72.2500013780594,12|0,0:3|0:0,0:0:0:0:
204,316,106190,2,0,P|190:349|183:384,1,72.2500013780594,8|0,0:0|0:0,0:0:0:0:
114,300,106547,2,0,P|92:329|76:361,1,72.2500013780594,8|0,0:0|0:0,0:0:0:0:
16,220,106904,5,12,0:3:0:0:
16,220,107082,1,0,0:0:0:0:
112,100,107261,1,8,0:0:0:0:
112,100,107440,1,0,0:0:0:0:
255,154,107618,1,8,0:0:0:0:
255,154,107797,1,0,0:0:0:0:
351,34,107975,6,0,L|272:28,1,72.2500013780594,12|0,0:3|0:0,0:0:0:0:
404,124,108332,2,0,L|325:118,1,72.2500013780594,8|0,0:0|0:0,0:0:0:0:
457,214,108690,2,0,L|378:208,1,72.2500013780594,8|0,0:0|0:0,0:0:0:0:
255,154,109047,5,12,0:0:0:0:
255,154,109225,1,0,0:0:0:0:
176,248,109404,2,0,P|177:284|185:319,1,72.2500013780594,8|0,0:0|0:0,0:0:0:0:
44,256,109761,2,0,P|51:220|53:184,1,72.2500013780594,8|0,0:0|0:0,0:0:0:0:
8,35,110118,6,0,P|42:25|78:20,1,72.2500013780594,12|0,0:3|0:0,0:0:0:0:
228,88,110475,2,0,P|193:77|157:72,1,72.2500013780594,8|0,0:0|0:0,0:0:0:0:
24,168,110832,2,0,P|58:157|94:152,1,72.2500013780594,8|0,0:0|0:0,0:0:0:0:
244,221,111190,5,12,0:0:0:0:
172,232,111368,1,0,0:0:0:0:
288,296,111547,5,8,0:0:0:0:
216,307,111725,1,0,0:0:0:0:
331,370,111904,5,8,0:0:0:0:
259,381,112082,1,0,0:0:0:0:
316,227,112261,6,0,P|323:192|322:156,1,72.2500013780594,12|0,0:0|0:0,0:0:0:0:
216,80,112618,2,0,P|215:116|222:151,1,72.2500013780594,8|0,0:0|0:0,0:0:0:0:
328,72,112975,2,0,P|335:36|334:0,1,72.2500013780594,8|0,0:0|0:0,0:0:0:0:
396,160,113332,5,2,0:0:0:0:
256,192,113422,12,0,114761,0:0:0:0:
145,171,115833,5,2,0:0:0:0:
132,167,115923,1,2,0:0:0:0:
132,154,116012,1,2,0:0:0:0:
145,150,116101,1,2,0:0:0:0:
152,160,116190,6,0,P|154:202|152:244,1,85,6|0,0:0|0:0,0:0:0:0:
292,148,116547,2,0,P|290:105|292:63,1,85,8|0,0:0|0:0,0:0:0:0:
420,184,116904,1,2,0:0:0:0:
280,244,117082,1,0,0:0:0:0:
440,92,117261,1,8,0:0:0:0:
500,232,117440,1,0,0:0:0:0:
248,156,117618,6,0,P|289:151|329:166,1,85,2|0,0:0|0:0,0:0:0:0:
384,240,117886,1,0,0:0:0:0:
384,240,117975,2,0,L|380:292,1,42.5,8|0,0:0|0:0,0:0:0:0:
280,244,118154,2,0,L|250:287,1,42.5,0|0,0:0|0:0,0:0:0:0:
187,195,118332,5,2,0:0:0:0:
158,180,118422,1,0,0:0:0:0:
127,175,118511,1,0,0:0:0:0:
95,179,118600,1,0,0:0:0:0:
66,192,118690,1,8,0:0:0:0:
43,168,118779,1,0,0:0:0:0:
28,140,118868,1,0,0:0:0:0:
23,109,118957,1,0,0:0:0:0:
25,78,119047,6,0,P|32:124|16:248,1,170,6|8,0:0|0:0,0:0:0:0:
9,287,119493,1,0,0:0:0:0:
24,326,119582,1,0,0:0:0:0:
57,352,119672,1,0,0:0:0:0:
99,357,119761,2,0,L|138:342,1,42.5,2|0,0:0|0:0,0:0:0:0:
216,272,119940,2,0,L|176:256,1,42.5,0|0,0:0|0:0,0:0:0:0:
100,186,120118,2,0,L|139:170,1,42.5,8|0,0:0|0:0,0:0:0:0:
216,100,120297,2,0,L|176:84,1,42.5,0|0,0:0|0:0,0:0:0:0:
99,14,120475,5,8,0:0:0:0:
392,80,120832,1,8,0:0:0:0:
188,300,121190,5,8,0:0:0:0:
251,55,121368,1,8,0:0:0:0:
268,314,121547,1,8,0:0:0:0:
171,54,121725,1,8,0:0:0:0:
169,64,121815,1,0,0:0:0:0:
167,74,121904,5,6,0:0:0:0:
165,84,121993,1,0,0:0:0:0:
163,94,122082,1,0,0:0:0:0:
312,128,122261,1,8,0:0:0:0:
232,8,122440,1,0,0:0:0:0:
44,156,122618,5,2,0:0:0:0:
58,158,122707,1,0,0:0:0:0:
72,161,122797,1,0,0:0:0:0:
86,163,122886,1,0,0:0:0:0:
100,166,122975,1,8,0:0:0:0:
16,56,123154,1,0,0:0:0:0:
200,236,123332,5,2,0:0:0:0:
203,215,123422,1,0,0:0:0:0:
206,194,123511,1,0,0:0:0:0:
208,173,123600,1,0,0:0:0:0:
211,152,123690,1,8,0:0:0:0:
328,268,123868,1,0,0:0:0:0:
92,356,124047,5,2,0:0:0:0:
120,360,124136,1,0,0:0:0:0:
148,363,124225,1,0,0:0:0:0:
176,366,124315,1,0,0:0:0:0:
204,369,124404,1,8,0:0:0:0:
32,240,124582,1,0,0:0:0:0:
244,152,124761,5,8,0:0:0:0:
0,128,124940,1,8,0:0:0:0:
120,360,125118,1,8,0:0:0:0:
152,88,125297,1,8,0:0:0:0:
340,264,125475,5,8,0:0:0:0:
120,216,125654,1,8,0:0:0:0:
328,64,125832,1,8,0:0:0:0:
232,304,126011,1,8,0:0:0:0:
48,68,126190,5,8,0:0:0:0:
73,48,126279,1,0,0:0:0:0:
103,38,126368,1,8,0:0:0:0:
135,37,126457,1,0,0:0:0:0:
165,46,126547,2,0,P|185:53|206:56,1,42.5,8|0,0:0|0:0,0:0:0:0:
172,152,126725,2,0,P|151:155|130:162,1,42.5,8|0,0:0|0:0,0:0:0:0:
40,228,126904,5,8,0:0:0:0:
40,228,126993,1,0,0:0:0:0:
40,228,127082,1,8,0:0:0:0:
292,148,127261,1,8,0:0:0:0:
48,68,127440,1,8,0:0:0:0:
92,304,127618,6,0,P|120:264|128:212,1,85,6|0,0:0|0:0,0:0:0:0:
136,76,127975,1,2,0:0:0:0:
316,124,128154,1,0,0:0:0:0:
316,124,128243,1,0,0:0:0:0:
316,124,128332,1,2,0:0:0:0:
212,248,128511,2,0,L|201:163,1,85,0|2,0:0|0:0,0:0:0:0:
344,248,128868,1,0,0:0:0:0:
172,324,129047,5,6,0:0:0:0:
320,272,129225,1,0,0:0:0:0:
136,180,129404,1,2,0:0:0:0:
272,104,129582,2,0,L|264:192,1,85,4|2,0:0|0:0,0:0:0:0:
176,8,129940,1,0,0:0:0:0:
156,240,130118,6,0,P|157:165|84:128,1,152.999995330811,2|0,0:1|0:0,0:0:0:0:
24,188,130475,5,6,0:0:0:0:
140,0,130653,1,2,0:0:0:0:
248,192,130832,1,2,0:0:0:0:
0,72,131010,5,6,0:0:0:0:
240,44,131189,1,2,0:0:0:0:
132,256,131367,1,2,0:0:0:0:
100,8,131546,5,6,0:0:0:0:
280,188,131725,1,2,0:0:0:0:
28,228,131903,1,2,0:0:0:0:
216,60,132082,5,6,0:0:0:0:
224,272,132261,1,2,0:0:0:0:
396,148,132440,1,2,0:0:0:0:
160,156,132618,5,6,0:0:0:0:
356,276,132797,1,2,0:0:0:0:
360,48,132975,1,2,0:0:0:0:
224,272,133154,5,6,0:0:0:0:
436,144,133333,1,2,0:0:0:0:
208,48,133511,1,2,0:0:0:0:
328,272,133690,5,6,0:0:0:0:
128,200,133868,1,2,0:0:0:0:
296,68,134047,1,2,0:0:0:0:
212,276,134225,5,6,0:0:0:0:
208,48,134404,1,2,0:0:0:0:
412,148,134582,1,2,0:0:0:0:
128,200,134761,5,6,0:0:0:0:
324,44,134940,1,2,0:0:0:0:
320,264,135118,5,6,0:0:0:0:
156,68,135297,1,2,0:0:0:0:
160,288,135475,1,2,0:0:0:0:
324,44,135654,1,2,0:0:0:0:
320,264,135832,1,2,0:0:0:0:
156,68,136011,1,2,0:0:0:0:
324,152,136189,5,0,0:0:0:0:
240,196,136368,1,2,0:0:0:0:
240,196,136457,1,2,0:0:0:0:
240,196,136547,1,2,0:0:0:0:
159,145,136725,1,2,0:0:0:0:
75,189,136904,1,2,0:0:0:0:
71,283,137082,1,2,0:0:0:0:
151,333,137261,1,2,0:0:0:0:
268,124,137440,1,2,0:0:0:0:
268,124,137529,1,2,0:0:0:0:
268,124,137618,6,0,L|274:255,1,93.5000028533936,6|0,0:0|0:0,0:0:0:0:
385,162,137885,1,0,0:0:0:0:
387,156,137975,2,0,P|392:109|376:66,1,93.5000028533936,8|0,0:0|0:0,0:0:0:0:
148,3,138332,2,0,P|132:46|137:92,1,93.5000028533936,2|0,0:0|0:0,0:0:0:0:
192,196,138600,1,0,0:0:0:0:
196,200,138689,2,0,P|151:207|108:227,1,93.5000028533936,8|0,0:0|0:0,0:0:0:0:
304,360,139046,6,0,P|294:314|296:267,1,93.5000028533936,2|0,0:0|0:0,0:0:0:0:
340,176,139314,1,0,0:0:0:0:
344,172,139403,1,8,0:0:0:0:
172,76,139582,1,0,0:0:0:0:
424,40,139760,1,2,0:0:0:0:
224,200,139939,1,0,0:0:0:0:
224,200,140028,1,0,0:0:0:0:
224,200,140118,1,8,0:0:0:0:
488,224,140296,1,0,0:0:0:0:
260,28,140475,1,6,0:0:0:0:
260,28,141368,5,8,0:0:0:0:
480,204,141546,2,0,L|433:200,1,46.7500014266968,8|0,0:0|0:0,0:0:0:0:
177,147,141725,2,0,L|223:143,1,46.7500014266968,0|0,0:0|0:0,0:0:0:0:
432,68,141903,6,0,P|389:49|362:11,1,93.5000028533936,6|0,0:0|0:0,0:0:0:0:
512,36,142171,2,0,P|516:81|497:124,1,93.5000028533936,6|0,0:0|0:0,0:0:0:0:
432,200,142439,1,2,0:0:0:0:
336,8,142618,1,6,0:0:0:0:
248,292,142796,5,8,0:1:0:0:
124,12,142975,2,0,P|146:64|156:8,1,152.999995330811,8|0,0:1|0:0,0:0:0:0:
28,91,143332,6,0,L|30:185,1,93.5000028533936,6|0,0:0|0:0,0:0:0:0:
112,280,143600,1,0,0:0:0:0:
115,283,143689,2,0,P|118:235|145:196,1,93.5000028533936,8|0,0:0|0:0,0:0:0:0:
400,195,144046,2,0,P|355:206|310:192,1,93.5000028533936,2|0,0:0|0:0,0:0:0:0:
360,92,144314,1,0,0:0:0:0:
364,88,144403,2,0,L|468:104,1,93.5000028533936,8|0,0:0|0:0,0:0:0:0:
512,336,144760,6,0,L|403:353,1,93.5000028533936,2|0,0:0|0:0,0:0:0:0:
316,340,145028,1,0,0:0:0:0:
312,336,145118,1,8,0:0:0:0:
456,216,145296,1,0,0:0:0:0:
240,172,145475,1,2,0:0:0:0:
456,120,145653,1,0,0:0:0:0:
456,120,145743,1,0,0:0:0:0:
456,120,145832,1,8,0:0:0:0:
216,268,146010,1,0,0:0:0:0:
512,304,146189,1,6,0:0:0:0:
512,304,147082,5,8,0:0:0:0:
216,268,147261,1,8,0:0:0:0:
216,268,147350,1,0,0:0:0:0:
216,268,147439,1,0,0:0:0:0:
360,84,147618,6,0,P|368:129|357:174,1,93.5000028533936,6|0,0:0|0:0,0:0:0:0:
288,44,147885,2,0,P|320:12|367:0,1,93.5000028533936,6|0,0:0|0:0,0:0:0:0:
460,36,148153,1,2,0:0:0:0:
268,124,148332,1,6,0:0:0:0:
512,268,148510,5,8,0:1:0:0:
204,368,148689,2,0,P|196:308|212:248,1,101.999996887207,8|0,0:1|0:0,0:0:0:0:
352,356,149046,5,6,0:0:0:0:
424,132,149225,1,8,0:0:0:0:
512,384,149403,1,2,0:0:0:0:
240,308,149582,1,8,0:0:0:0:
512,212,149760,5,2,0:0:0:0:
288,384,149939,1,8,0:0:0:0:
312,88,150118,1,2,0:0:0:0:
448,332,150296,1,8,0:0:0:0:
148,196,150475,6,0,L|252:176,1,93.5000028533936,6|0,0:0|0:0,0:0:0:0:
148,88,150742,1,0,0:0:0:0:
144,84,150832,2,0,L|52:102,1,93.5000028533936,8|0,0:0|0:0,0:0:0:0:
59,376,151189,2,0,P|84:332|85:286,1,93.5000028533936,2|0,0:0|0:0,0:0:0:0:
56,204,151457,1,0,0:0:0:0:
52,200,151546,1,8,0:0:0:0:
252,116,151725,1,0,0:0:0:0:
252,116,151814,1,0,0:0:0:0:
252,116,151903,6,0,L|260:224,1,93.5000028533936,2|0,0:0|0:0,0:0:0:0:
360,128,152171,1,0,0:0:0:0:
364,124,152260,2,0,L|358:30,1,93.5000028533936,8|0,0:0|0:0,0:0:0:0:
152,136,152617,1,2,0:0:0:0:
372,208,152796,1,0,0:0:0:0:
132,304,152975,1,8,0:0:0:0:
280,92,153153,1,0,0:0:0:0:
431,288,153332,6,0,P|366:307|296:272,2,140.25000428009,6|0|0,0:0|0:0|0:0,0:0:0:0:
488,184,154046,1,0,0:0:0:0:
232,136,154225,5,8,0:0:0:0:
504,64,154403,1,8,0:0:0:0:
296,32,154582,1,0,0:0:0:0:
392,292,154760,6,0,P|403:247|396:196,1,93.5000028533936,6|0,0:0|0:0,0:0:0:0:
264,256,155028,2,0,P|258:302|269:347,1,93.5000028533936,6|0,0:0|0:0,0:0:0:0:
360,380,155296,1,2,0:0:0:0:
284,128,155475,1,6,0:0:0:0:
512,200,155653,5,8,0:1:0:0:
184,232,155832,1,8,0:1:0:0:
388,24,156010,1,0,0:0:0:0:
388,24,156100,1,0,0:0:0:0:
388,24,156189,6,0,L|380:120,1,93.5000028533936,6|0,0:0|0:0,0:0:0:0:
324,196,156457,1,0,0:0:0:0:
320,200,156546,1,8,0:0:0:0:
188,64,156725,2,0,P|236:51|280:65,1,93.5000028533936,0|2,0:0|0:0,0:0:0:0:
408,192,157082,1,0,0:0:0:0:
213,303,157260,1,8,0:0:0:0:
217,268,157349,1,0,0:0:0:0:
220,233,157438,1,0,0:0:0:0:
224,198,157527,1,0,0:0:0:0:
227,164,157617,6,0,P|160:174|102:137,1,140.25000428009,2|0,0:0|0:0,0:0:0:0:
52,48,157975,1,8,0:0:0:0:
20,236,158153,1,0,0:0:0:0:
180,80,158331,1,2,0:0:0:0:
280,292,158510,1,2,0:0:0:0:
304,52,158689,1,10,0:0:0:0:
156,264,158867,1,2,0:0:0:0:
80,0,159046,5,6,0:0:0:0:
256,268,159403,1,0,0:0:0:0:
440,8,159760,1,0,0:0:0:0:
180,116,159939,5,8,0:0:0:0:
432,164,160117,1,8,0:0:0:0:
432,164,160207,1,0,0:0:0:0:
432,164,160296,1,0,0:0:0:0:
432,164,160385,1,0,0:0:0:0:
432,164,160475,6,0,P|447:207|448:254,1,93.5000028533936,6|0,0:0|0:0,0:0:0:0:
316,180,160742,2,0,P|316:133|332:89,1,93.5000028533936,6|0,0:0|0:0,0:0:0:0:
408,24,161010,1,2,0:0:0:0:
156,120,161189,1,6,0:0:0:0:
468,168,161367,5,8,0:1:0:0:
200,8,161546,2,0,P|149:3|100:13,1,101.999996887207,8|0,0:1|0:0,0:0:0:0:
352,236,161903,5,6,0:0:0:0:
124,152,162082,2,0,P|123:194|129:236,1,85,0|8,0:0|0:0,0:0:0:0:
215,184,162350,2,0,P|220:141|220:99,1,85,0|0,0:0|0:0,0:0:0:0:
180,12,162617,1,2,0:0:0:0:
312,108,162796,1,0,0:0:0:0:
484,8,162975,1,8,0:0:0:0:
483,8,163064,2,0,P|498:47|496:92,1,85,0|0,0:0|0:0,0:0:0:0:
416,60,163332,6,0,L|373:54,1,42.5,2|0,0:0|0:0,0:0:0:0:
280,20,163510,2,0,L|237:25,1,42.5,0|0,0:0|0:0,0:0:0:0:
140,4,163689,1,8,0:0:0:0:
149,34,163778,1,0,0:0:0:0:
153,66,163867,1,0,0:0:0:0:
153,97,163956,1,0,0:0:0:0:
148,129,164046,2,0,P|144:164|144:192,1,42.5,2|0,0:0|0:0,0:0:0:0:
296,240,164225,2,0,P|300:205|300:177,1,42.5,0|0,0:0|0:0,0:0:0:0:
156,324,164403,1,8,0:0:0:0:
268,80,164582,1,0,0:0:0:0:
268,80,164671,1,0,0:0:0:0:
268,80,164760,1,6,0:0:0:0:
11,141,164939,5,0,0:0:0:0:
43,126,165028,1,0,0:0:0:0:
78,120,165117,1,8,0:0:0:0:
113,120,165206,1,0,0:0:0:0:
148,129,165296,1,0,0:0:0:0:
179,145,165385,1,0,0:0:0:0:
207,168,165475,5,2,0:0:0:0:
175,184,165564,1,0,0:0:0:0:
150,208,165653,1,0,0:0:0:0:
131,238,165742,1,0,0:0:0:0:
121,272,165832,1,8,0:0:0:0:
120,307,165921,1,0,0:0:0:0:
128,342,166010,1,0,0:0:0:0:
364,152,166189,6,0,L|367:194,1,42.5,2|0,0:0|0:0,0:0:0:0:
272,356,166367,2,0,L|268:304,1,42.5,0|0,0:0|0:0,0:0:0:0:
344,128,166546,2,0,L|347:170,1,42.5,8|0,0:0|0:0,0:0:0:0:
252,380,166724,2,0,L|248:328,1,42.5,0|0,0:0|0:0,0:0:0:0:
244,112,166903,5,10,0:0:0:0:
381,336,167082,1,8,0:0:0:0:
244,112,167261,1,8,0:0:0:0:
381,336,167439,1,8,0:0:0:0:
127,311,167617,6,0,P|212:334|283:292,1,170,6|8,0:0|0:0,0:0:0:0:
196,220,168153,1,0,0:0:0:0:
31,276,168332,2,0,P|28:318|32:360,1,85,2|0,0:0|0:0,0:0:0:0:
195,220,168689,2,0,P|199:177|196:135,1,85,8|0,0:0|0:0,0:0:0:0:
384,32,169046,6,0,L|300:45,1,85,2|0,0:0|0:0,0:0:0:0:
112,121,169403,2,0,L|195:134,1,85,8|0,0:0|0:0,0:0:0:0:
384,210,169760,2,0,L|300:223,1,85,2|0,0:0|0:0,0:0:0:0:
300,223,170028,1,0,0:0:0:0:
300,223,170117,1,8,0:0:0:0:
432,360,170296,1,0,0:0:0:0:
144,292,170475,5,2,0:0:0:0:
144,292,170564,1,0,0:0:0:0:
144,292,170653,2,0,L|204:284,1,42.5,0|0,0:0|0:0,0:0:0:0:
328,128,170832,1,8,0:0:0:0:
328,128,170921,1,0,0:0:0:0:
328,128,171010,2,0,L|268:120,1,42.5,0|0,0:0|0:0,0:0:0:0:
134,146,171189,6,0,P|114:156|96:169,1,42.5,10|0,0:0|0:0,0:0:0:0:
210,315,171368,2,0,P|219:334|232:352,1,42.5,8|0,0:0|0:0,0:0:0:0:
379,239,171546,2,0,P|398:229|415:216,1,42.5,8|0,0:0|0:0,0:0:0:0:
303,70,171725,2,0,P|292:51|279:33,1,42.5,8|0,0:0|0:0,0:0:0:0:
134,146,171903,5,0,1:0:0:0:
460,292,172261,1,0,1:0:0:0:
104,328,172618,1,0,1:0:0:0:
104,328,173332,6,0,P|160:316|256:312,1,144.500002756119,4|0,0:0|0:0,0:0:0:0:
364,340,173867,1,0,0:0:0:0:
364,340,173957,1,0,0:0:0:0:
364,340,174046,1,0,0:0:0:0:
427,237,174224,1,0,0:0:0:0:
349,145,174403,1,0,0:0:0:0:
237,190,174581,1,0,0:0:0:0:
159,98,174760,6,0,P|158:62|168:16,2,72.2500013780594,4|0|0,0:0|0:0|0:0,0:0:0:0:
180,260,175296,2,0,P|247:279|308:244,1,144.500002756119,0|0,0:0|0:0,0:0:0:0:
384,28,175832,6,0,P|394:103|372:176,1,152.999995330811,2|0,0:1|0:0,0:0:0:0:
308,243,176189,5,6,0:0:0:0:
504,140,176368,1,2,0:0:0:0:
312,28,176547,1,2,0:0:0:0:
432,236,176725,5,6,0:0:0:0:
224,120,176904,1,2,0:0:0:0:
216,356,177082,1,2,0:0:0:0:
348,128,177261,5,6,0:0:0:0:
120,244,177440,1,2,0:0:0:0:
348,356,177618,1,2,0:0:0:0:
192,116,177797,5,6,0:0:0:0:
356,252,177975,1,2,0:0:0:0:
156,328,178154,1,2,0:0:0:0:
308,144,178332,5,6,0:0:0:0:
280,372,178511,1,2,0:0:0:0:
100,232,178689,1,2,0:0:0:0:
356,252,178868,5,6,0:0:0:0:
124,360,179047,1,2,0:0:0:0:
128,104,179225,1,2,0:0:0:0:
304,344,179404,5,6,0:0:0:0:
232,144,179582,1,2,0:0:0:0:
68,284,179761,1,2,0:0:0:0:
304,232,179939,5,6,0:0:0:0:
92,144,180118,1,2,0:0:0:0:
96,372,180296,1,2,0:0:0:0:
232,144,180475,5,6,0:0:0:0:
4,268,180654,1,2,0:0:0:0:
244,368,180832,5,6,0:0:0:0:
72,160,181011,1,2,0:0:0:0:
60,384,181189,1,2,0:0:0:0:
232,144,181368,1,2,0:0:0:0:
244,368,181546,1,2,0:0:0:0:
72,160,181725,1,2,0:0:0:0:
152,328,181903,5,0,0:0:0:0:
232,276,182082,1,2,0:0:0:0:
232,276,182171,1,2,0:0:0:0:
232,276,182261,1,2,0:0:0:0:
317,319,182439,1,2,0:0:0:0:
397,267,182618,1,2,0:0:0:0:
391,171,182796,1,2,0:0:0:0:
305,127,182975,1,2,0:0:0:0:
309,223,183154,1,2,0:0:0:0:
177,178,183332,5,2,0:0:0:0:
180,272,183511,1,0,0:0:0:0:
180,272,183600,1,0,0:0:0:0:
180,272,183689,1,2,0:0:0:0:
264,316,183868,1,2,0:0:0:0:
343,264,184046,1,2,0:0:0:0:
426,307,184225,1,2,0:0:0:0:
505,255,184404,1,2,0:0:0:0:
256,226,184582,1,2,0:0:0:0:
256,226,184671,1,2,0:0:0:0:
256,226,184761,6,0,P|249:271|264:316,1,93.5000028533936,6|0,0:0|0:0,0:0:0:0:
354,222,185028,1,0,0:0:0:0:
356,216,185118,2,0,L|340:124,1,93.5000028533936,8|0,0:0|0:0,0:0:0:0:
112,64,185475,2,0,P|114:110|105:156,1,93.5000028533936,2|0,0:0|0:0,0:0:0:0:
32,240,185743,1,0,0:0:0:0:
36,244,185832,2,0,P|83:247|124:268,1,93.5000028533936,8|0,0:0|0:0,0:0:0:0:
404,240,186189,6,0,P|357:234|314:249,1,93.5000028533936,2|0,0:0|0:0,0:0:0:0:
228,304,186457,1,0,0:0:0:0:
224,308,186546,1,8,0:0:0:0:
268,152,186725,1,0,0:0:0:0:
372,344,186903,1,2,0:0:0:0:
136,296,187082,1,0,0:0:0:0:
136,296,187171,1,0,0:0:0:0:
136,296,187261,1,8,0:0:0:0:
400,200,187439,1,0,0:0:0:0:
128,112,187618,1,6,0:0:0:0:
128,112,188511,5,8,0:0:0:0:
400,200,188690,1,8,0:0:0:0:
168,292,188868,1,0,0:0:0:0:
168,292,188957,1,0,0:0:0:0:
168,292,189046,6,0,P|158:244|173:200,1,93.5000028533936,6|0,0:0|0:0,0:0:0:0:
244,340,189314,2,0,P|208:372|161:381,1,93.5000028533936,6|0,0:0|0:0,0:0:0:0:
68,348,189582,1,2,0:0:0:0:
284,252,189761,1,6,0:0:0:0:
0,204,189939,5,8,0:1:0:0:
263,55,190118,2,0,P|232:103|232:46,1,152.999995330811,8|0,0:1|0:0,0:0:0:0:
331,147,190475,6,0,L|320:262,1,93.5000028533936,6|0,0:0|0:0,0:0:0:0:
252,328,190743,1,0,0:0:0:0:
248,332,190832,2,0,P|234:287|209:246,1,93.5000028533936,8|0,0:0|0:0,0:0:0:0:
59,54,191189,2,0,P|104:63|149:50,1,93.5000028533936,2|0,0:0|0:0,0:0:0:0:
272,24,191457,1,0,0:0:0:0:
276,28,191546,2,0,P|262:72|258:118,1,93.5000028533936,8|0,0:0|0:0,0:0:0:0:
504,264,191903,6,0,P|500:217|486:173,1,93.5000028533936,2|0,0:0|0:0,0:0:0:0:
420,96,192171,1,0,0:0:0:0:
416,92,192261,1,8,0:0:0:0:
345,252,192439,1,0,0:0:0:0:
245,48,192618,1,2,0:0:0:0:
208,300,192796,1,0,0:0:0:0:
208,300,192886,1,0,0:0:0:0:
208,300,192975,1,8,0:0:0:0:
112,88,193153,1,0,0:0:0:0:
388,176,193332,1,6,0:0:0:0:
388,176,194225,5,8,0:0:0:0:
112,88,194404,1,8,0:0:0:0:
252,296,194582,1,0,0:0:0:0:
252,296,194671,1,0,0:0:0:0:
252,296,194760,6,0,P|281:259|290:214,1,93.5000028533936,6|0,0:0|0:0,0:0:0:0:
160,308,195028,2,0,P|176:351|211:381,1,93.5000028533936,6|0,0:0|0:0,0:0:0:0:
312,368,195296,1,2,0:0:0:0:
192,212,195475,1,6,0:0:0:0:
0,380,195653,5,8,0:1:0:0:
267,264,195832,2,0,P|318:262|368:273,1,101.999996887207,8|0,0:1|0:0,0:0:0:0:
300,48,196189,6,0,P|254:60|208:63,1,93.5000028533936,6|0,0:0|0:0,0:0:0:0:
120,17,196457,1,0,0:0:0:0:
116,13,196546,1,2,0:0:0:0:
248,173,196725,1,0,0:0:0:0:
28,257,196903,2,0,L|36:153,1,93.5000028533936,2|0,0:0|0:0,0:0:0:0:
294,80,197261,6,0,P|348:154|322:243,1,191.250007295609,6|0,0:0|0:0,0:0:0:0:
216,340,197618,6,0,P|262:343|307:355,1,93.5000028533936,6|0,0:0|0:0,0:0:0:0:
404,328,197885,1,0,0:0:0:0:
408,324,197975,1,2,0:0:0:0:
240,196,198153,1,0,0:0:0:0:
96,336,198332,2,0,P|44:348|4:336,1,93.5000028533936,2|0,0:0|0:0,0:0:0:0:
154,114,198689,6,0,P|239:77|324:114,1,191.250007295609,6|0,0:0|0:0,0:0:0:0:
416,208,199046,6,0,L|429:68,1,140.25000428009,6|0,0:0|0:0,0:0:0:0:
510,198,199403,2,0,P|499:260|451:303,1,127.500004863739,2|0,0:0|0:0,0:0:0:0:
216,276,199761,6,0,L|356:289,1,140.25000428009,6|0,0:0|0:0,0:0:0:0:
226,370,200118,2,0,P|164:359|121:311,1,127.500004863739,2|0,0:0|0:0,0:0:0:0:
320,100,200475,5,6,0:0:0:0:
64,148,200653,1,8,0:0:0:0:
300,284,200832,1,2,0:0:0:0:
168,24,201011,1,8,0:0:0:0:
152,316,201189,5,2,0:0:0:0:
300,72,201368,1,8,0:0:0:0:
368,356,201546,1,2,0:0:0:0:
144,172,201725,1,8,0:0:0:0:
392,16,201904,6,0,P|393:41|391:66,1,50.9999984436036,2|0,0:0|0:0,0:0:0:0:
299,122,202261,2,0,P|297:96|299:71,1,50.9999984436036,2|0,0:0|0:0,0:0:0:0:
352,222,202618,2,0,P|304:238|255:226,1,101.999996887207,2|2,0:0|0:0,0:0:0:0:
44,96,203332,6,0,L|52:146,1,50.9999984436036,2|0,0:0|0:0,0:0:0:0:
136,96,203689,2,0,L|144:45,1,50.9999984436036,2|0,0:0|0:0,0:0:0:0:
236,192,204046,1,2,0:0:0:0:
236,192,204761,6,0,P|252:240|240:289,1,101.999996887207,2|2,0:0|0:0,0:0:0:0:
