osu file format v14

[General]
AudioFilename: audio.mp3
AudioLeadIn: 0
PreviewTime: 55120
Countdown: 0
SampleSet: Soft
StackLeniency: 0.7
Mode: 2
LetterboxInBreaks: 0
WidescreenStoryboard: 0

[Editor]
Bookmarks: 7420,16870,26620,36220,45820
DistanceSpacing: 1.3
BeatDivisor: 4
GridSize: 16
TimelineZoom: 2

[Metadata]
Title:Hallelujah*Essaim (TV Size)
TitleUnicode:ハレルヤ☆エッサイム (TV Size)
Artist:Tomita Miyu, Onishi Saori, Ohzora Naomi, Hanazawa Kana
ArtistUnicode:富田美憂、大西沙織、大空直美、花澤香菜
Creator:Yumeno Himiko
Version:Overdose
Source:ガヴリールドロップアウト
Tags:ending ed tv size gabdro ガヴドロ tenma gabriel white 天真・ガヴリール・ホワイト tsukinose vignette april 月乃瀬・ヴィネット・エイプリル vigne ヴィーネ kurumizawa satanichia mcdowell 胡桃沢・サタニキア・マクドウェル satania サターニャ shiraha raphiel ainsworth 白羽・ラフィエル・エインズワース 山崎真吾 Yamazaki Shingo 坂井龍二 Sakai Ryuji 田崎真也 Tasaki Shinya examination Sc4v4ng3r JBHyperion Kagari P_i_k_u Piku -_Magic_Bomb_- mbomb CLSW Minato Yukina
BeatmapID:1226972
BeatmapSetID:579450

[Difficulty]
HPDrainRate:7
CircleSize:4
OverallDifficulty:9.3
ApproachRate:9.3
SliderMultiplier:2
SliderTickRate:2

[Events]
//Background and Video events
0,0,"gabrieldropoutBG.jpg",0,0
Video,0,"gabdro movie.avi"
//Break Periods
//Storyboard Layer 0 (Background)
//Storyboard Layer 1 (Fail)
//Storyboard Layer 2 (Pass)
//Storyboard Layer 3 (Foreground)
//Storyboard Sound Samples

[TimingPoints]
830,300,3,2,2,50,1,0
830,-133.333333333333,3,2,2,50,0,0
3530,333.333333333333,4,2,2,50,1,0
3863,375,4,2,0,50,1,0
4238,428.571428571429,4,2,0,40,1,0
4666,500,4,2,0,40,1,0
5916,-100,4,2,1,10,0,0
6220,300,4,2,0,20,1,0
7420,-100,4,2,1,50,0,0
16870,-100,4,2,1,60,0,0
26620,-100,4,2,3,30,0,0
35920,-100,4,2,3,50,0,0
36070,-100,4,2,3,30,0,0
36220,-100,4,2,1,50,0,0
45820,-100,4,2,0,50,0,0
50620,-100,4,2,0,30,0,0
51820,-100,4,2,0,40,0,0
53020,-100,4,2,0,50,0,0
55420,-100,4,2,1,60,0,1
67420,-100,4,2,1,70,0,1
69220,-100,4,2,1,60,0,1
76870,-100,4,2,1,50,0,0

[Colours]
Combo1 : 234,88,37
Combo2 : 254,217,73
Combo3 : 148,25,203
Combo4 : 132,201,234

[HitObjects]
352,192,830,6,0,P|432:192|480:144,2,150.000005722046,4|0|0,0:0|0:0|0:0,0:0:0:0:
160,192,1730,2,0,P|80:192|32:144,2,150.000005722046,4|0|0,0:0|0:0|0:0,0:0:0:0:
336,128,2630,5,4,0:0:0:0:
176,128,2930,1,0,0:0:0:0:
256,192,3230,1,0,0:0:0:0:
80,288,3530,6,0,L|64:64,1,200,4|2,0:0|0:0,0:0:0:0:
432,288,4238,2,0,L|448:80,1,200,2|2,0:0|0:0,0:0:0:0:
256,192,4916,12,0,5916,0:0:0:0:
384,112,6220,5,2,0:0:0:0:
128,112,6520,1,2,0:0:0:0:
320,192,6820,1,2,0:0:0:0:
192,192,6970,1,2,0:0:0:0:
448,192,7120,1,2,0:0:0:0:
192,192,7420,6,0,L|64:192,1,100,4|0,0:0|0:0,0:0:0:0:
368,96,7720,1,0,0:0:0:0:
448,192,7870,2,0,L|416:288,1,100,4|0,0:0|0:0,0:0:0:0:
144,288,8170,1,0,0:0:0:0:
48,288,8320,1,4,0:0:0:0:
144,208,8470,1,0,0:0:0:0:
432,192,8620,6,0,P|384:128|288:96,1,150
80,192,8920,2,0,P|128:128|224:96,1,150
432,96,9220,1,2,0:0:0:0:
480,160,9370,1,0,0:0:0:0:
352,192,9520,1,2,0:0:0:0:
464,240,9670,1,0,0:0:0:0:
160,240,9820,6,0,L|48:240,1,100,4|0,0:0|0:0,0:0:0:0:
320,160,10120,1,0,0:0:0:0:
192,160,10270,2,0,L|160:272,1,100,4|0,0:0|0:0,0:0:0:0:
288,256,10570,1,0,0:0:0:0:
48,256,10720,2,0,L|32:144,1,100,4|0,0:0|0:0,0:0:0:0:
432,256,11020,6,0,P|400:192|304:160,1,150
80,256,11320,2,0,P|112:192|208:160,1,150
448,192,11620,2,0,L|464:80,1,100,2|0,0:0|0:0,0:0:0:0:
336,96,11920,2,0,L|448:96,1,100,2|0,0:0|0:0,0:0:0:0:
160,96,12220,6,0,L|128:192,1,100,4|0,0:0|0:0,0:0:0:0:
256,192,12520,1,0,0:0:0:0:
32,192,12670,2,0,L|160:192,1,100,4|0,0:0|0:0,0:0:0:0:
32,272,12970,1,0,0:0:0:0:
320,272,13120,2,0,L|352:176,1,100,4|0,0:0|0:0,0:0:0:0:
96,96,13420,6,0,P|96:160|176:208,1,150
416,96,13720,2,0,P|416:160|336:208,1,150
128,272,14020,1,2,0:0:0:0:
48,240,14170,1,0,0:0:0:0:
176,192,14320,1,2,0:0:0:0:
48,160,14470,1,0,0:0:0:0:
336,96,14620,6,0,L|448:96,1,100,4|0,0:0|0:0,0:0:0:0:
144,96,14920,2,0,L|112:208,1,100,8|0,0:0|0:0,0:0:0:0:
448,192,15220,2,0,L|336:192,1,100,4|0,0:0|0:0,0:0:0:0:
48,192,15520,2,0,L|96:288,1,100,8|0,0:0|0:0,0:0:0:0:
448,288,15820,5,2,0:0:0:0:
192,288,15970,2,0,L|176:160,1,100,0|8,0:0|0:0,0:0:0:0:
336,192,16270,2,0,L|448:192,1,100,0|2,0:0|0:0,0:0:0:0:
336,80,16570,1,0,0:0:0:0:
64,80,16720,1,8,0:0:0:0:
320,80,16870,6,0,P|368:128|320:256,1,200,4|0,0:0|0:0,0:0:0:0:
208,256,17320,1,8,0:0:0:0:
80,256,17470,1,0,0:0:0:0:
208,256,17620,2,0,L|256:144,1,100,2|0,0:0|0:0,0:0:0:0:
96,160,17920,2,0,L|48:64,1,100,8|0,0:0|0:0,0:0:0:0:
288,64,18220,5,2,0:0:0:0:
192,64,18370,1,0,0:0:0:0:
304,128,18520,1,8,0:0:0:0:
96,128,18670,1,0,0:0:0:0:
368,128,18970,2,0,L|448:208,1,100,0|8,0:0|0:0,0:0:0:0:
224,240,19270,6,0,L|16:240,1,200
128,160,19720,1,8,0:0:0:0:
240,96,19870,1,0,0:0:0:0:
112,96,20020,2,0,L|96:208,1,100,2|0,0:0|0:0,0:0:0:0:
256,192,20320,2,0,L|368:192,1,100,8|0,0:0|0:0,0:0:0:0:
144,304,20620,5,2,0:0:0:0:
48,304,20770,1,0,0:0:0:0:
144,304,20920,1,8,0:0:0:0:
400,304,21070,1,0,0:0:0:0:
144,304,21370,2,0,L|96:192,1,100,0|8,0:0|0:0,0:0:0:0:
400,208,21670,6,0,P|448:176|352:96,1,200
256,80,22120,1,8,0:0:0:0:
384,80,22270,1,0,0:0:0:0:
128,80,22420,2,0,L|80:192,1,100,2|0,0:0|0:0,0:0:0:0:
224,176,22720,2,0,L|256:272,1,100,8|0,0:0|0:0,0:0:0:0:
32,272,23020,5,2,0:0:0:0:
128,272,23170,1,0,0:0:0:0:
256,272,23320,1,8,0:0:0:0:
464,272,23470,1,0,0:0:0:0:
208,272,23770,2,0,L|80:272,1,100,0|8,0:0|0:0,0:0:0:0:
320,112,24070,6,0,P|416:128|416:224,1,200
288,224,24520,2,0,L|176:224,1,100,8|0,0:0|0:0,0:0:0:0:
336,304,24820,1,2,0:0:0:0:
128,304,24970,2,0,L|16:304,2,100,0|8|0,0:0|0:0|0:0,0:0:0:0:
432,304,25420,5,2,0:0:0:0:
336,304,25570,1,0,0:0:0:0:
448,224,25720,1,8,0:0:0:0:
208,224,25870,1,0,0:0:0:0:
128,128,26170,1,2,0:0:0:0:
256,128,26320,1,2,0:0:0:0:
48,224,26470,1,0,0:0:0:0:
256,224,26770,6,0,L|288:112,1,100,0|8,0:0|0:0,0:0:0:0:
160,128,27070,1,0,0:0:0:0:
336,128,27220,2,0,L|384:336,1,200,8|8,0:0|0:0,0:0:0:0:
256,320,27670,1,0,0:0:0:0:
128,320,27820,6,0,L|144:208,1,100,8|0,0:0|0:0,0:0:0:0:
304,256,28120,2,0,L|320:144,1,100,8|0,0:0|0:0,0:0:0:0:
192,160,28420,1,8,0:0:0:0:
448,160,28570,1,4,0:0:0:0:
320,160,28720,1,4,0:0:0:0:
64,160,28870,1,4,0:0:0:0:
288,288,29170,6,0,L|400:288,1,100,0|8,0:0|0:0,0:0:0:0:
288,208,29470,1,0,0:0:0:0:
416,128,29620,2,0,L|432:336,1,200,8|8,0:0|0:0,0:0:0:0:
304,336,30070,1,0,0:0:0:0:
432,336,30220,6,0,L|464:208,1,100,8|0,0:0|0:0,0:0:0:0:
320,240,30520,2,0,L|288:128,1,100,8|0,0:0|0:0,0:0:0:0:
432,144,30820,1,0,0:0:0:0:
176,144,30970,1,4,0:0:0:0:
48,144,31120,1,4,0:0:0:0:
304,144,31270,1,4,0:0:0:0:
112,288,31570,6,0,L|48:192,1,100,0|8,0:0|0:0,0:0:0:0:
192,192,31870,1,0,0:0:0:0:
64,288,32020,2,0,P|32:256|80:112,1,200,8|8,0:0|0:0,0:0:0:0:
176,112,32470,1,0,0:0:0:0:
384,112,32620,6,0,L|416:224,1,100,8|0,0:0|0:0,0:0:0:0:
272,208,32920,2,0,L|384:208,1,100,8|0,0:0|0:0,0:0:0:0:
240,304,33220,1,8,0:0:0:0:
464,304,33370,1,4,0:0:0:0:
368,304,33520,1,4,0:0:0:0:
112,304,33670,1,4,0:0:0:0:
320,224,33970,6,0,L|432:224,1,100,0|8,0:0|0:0,0:0:0:0:
320,144,34270,1,0,0:0:0:0:
192,144,34420,2,0,L|160:256,1,100,10|0,0:0|0:0,0:0:0:0:
320,240,34720,2,0,L|352:336,1,100,8|0,0:0|0:0,0:0:0:0:
96,336,35020,6,0,P|48:288|96:208,1,150,2|0,0:0|0:0,0:0:0:0:
256,224,35320,2,0,L|384:224,1,100,2|0,0:0|0:0,0:0:0:0:
208,96,35620,1,0,0:0:0:0:
165,118,35695,1,0,0:0:0:0:
156,166,35770,1,0,0:0:0:0:
188,203,35845,1,0,0:0:0:0:
320,304,35920,1,4,0:0:0:0:
192,304,36070,1,0,0:0:0:0:
448,304,36220,6,0,L|464:176,1,100,2|0,0:0|0:0,0:0:0:0:
336,192,36520,1,8,0:0:0:0:
64,192,36670,1,0,0:0:0:0:
192,192,36820,2,0,L|304:192,1,100,2|0,0:0|0:0,0:0:0:0:
144,192,37120,2,0,L|96:304,1,100,8|0,0:0|0:0,0:0:0:0:
352,288,37420,6,0,L|464:288,2,100,2|0|8,0:0|0:0|0:0,0:0:0:0:
128,288,37870,2,0,L|96:176,1,100,0|2,0:0|0:0,0:0:0:0:
384,112,38170,1,0,0:0:0:0:
176,112,38320,1,8,0:0:0:0:
448,112,38470,6,0,P|480:160|384:224,1,200,2|0,0:0|0:0,0:0:0:0:
240,224,38920,2,0,L|128:224,1,100,8|0,0:0|0:0,0:0:0:0:
352,128,39220,2,0,P|400:256|368:288,1,200,2|8,0:0|0:0,0:0:0:0:
272,304,39670,1,0,0:0:0:0:
48,304,39820,6,0,L|96:208,1,100,2|0,0:0|0:0,0:0:0:0:
240,208,40120,1,8,0:0:0:0:
32,96,40270,2,0,L|160:96,1,100,0|2,0:0|0:0,0:0:0:0:
368,96,40570,1,0,0:0:0:0:
160,96,40720,1,8,0:0:0:0:
416,96,40870,6,0,P|480:144|480:256,1,200,2|0,0:0|0:0,0:0:0:0:
336,240,41320,1,8,0:0:0:0:
480,176,41470,1,0,0:0:0:0:
256,176,41620,2,0,L|48:176,1,200,2|8,0:0|0:0,0:0:0:0:
160,80,42070,1,0,0:0:0:0:
432,80,42220,6,0,L|400:192,1,100,2|0,0:0|0:0,0:0:0:0:
288,176,42520,1,8,0:0:0:0:
80,176,42670,2,0,P|112:224|256:256,1,200
144,144,43120,1,8,0:0:0:0:
32,256,43270,1,0,0:0:0:0:
368,256,43420,6,0,L|416:144,1,100,8|0,0:0|0:0,0:0:0:0:
144,160,43720,1,8,0:0:0:0:
368,96,43870,2,0,L|480:96,1,100,8|0,0:0|0:0,0:0:0:0:
208,160,44170,1,8,0:0:0:0:
464,192,44320,2,0,L|320:192,1,100,8|0,0:0|0:0,0:0:0:0:
96,304,44620,5,8,0:0:0:0:
208,304,44770,1,0,0:0:0:0:
80,208,44920,1,8,0:0:0:0:
288,208,45070,1,0,0:0:0:0:
64,112,45220,1,8,0:0:0:0:
448,112,45820,6,0,L|416:320,1,200,2|0,0:0|0:0,0:0:0:0:
176,112,46420,2,0,L|208:320,1,200
352,304,46870,1,0,0:0:0:0:
208,304,47020,6,0,P|160:256|160:112,1,200
384,128,47620,2,0,P|432:160|352:240,1,200
112,240,48220,6,0,L|144:32,1,200,2|0,0:0|0:0,0:0:0:0:
368,48,48820,2,0,L|400:176,1,100
272,144,49120,2,0,L|240:240,1,100
400,240,49420,6,0,P|368:304|240:320,1,200
48,272,50020,2,0,P|96:224|224:208,1,200
448,96,50620,5,2,0:0:0:0:
336,96,50770,1,2,0:0:0:0:
256,96,50920,1,2,0:0:0:0:
336,96,51070,1,2,0:0:0:0:
128,96,51220,1,2,0:0:0:0:
352,192,51520,2,0,L|384:304,1,100
224,288,51820,6,0,L|96:288,1,100,2|0,0:0|0:0,0:0:0:0:
352,288,52120,2,0,P|400:240|384:192,1,100,2|0,0:0|0:0,0:0:0:0:
112,192,52420,1,2,0:0:0:0:
480,64,52720,2,0,L|352:64,1,100
80,64,53020,5,4,0:0:0:0:
448,192,53320,1,4,0:0:0:0:
64,192,53620,1,4,0:0:0:0:
464,272,53920,1,4,0:0:0:0:
208,272,54070,6,0,P|160:192|240:112,1,200,4|4,0:0|0:0,0:0:0:0:
464,80,54670,1,4,0:0:0:0:
48,80,54820,1,4,0:0:0:0:
288,80,55120,1,0,0:0:0:0:
326,110,55195,1,0,0:0:0:0:
340,157,55270,1,0,0:0:0:0:
323,203,55345,1,0,0:0:0:0:
128,288,55420,6,0,L|32:224,1,100,6|0,0:0|0:0,0:0:0:0:
368,192,55720,1,0,0:0:0:0:
144,128,55870,2,0,L|96:224,1,100,4|0,0:0|0:0,0:0:0:0:
320,272,56170,1,0,0:0:0:0:
80,336,56320,2,0,L|144:224,1,100,4|0,0:0|0:0,0:0:0:0:
432,112,56620,6,0,P|448:176|352:240,1,150
160,112,56920,2,0,P|144:176|240:240,1,150
464,240,57220,2,0,L|368:192,1,100,2|0,0:0|0:0,0:0:0:0:
464,80,57520,1,2,0:0:0:0:
224,80,57670,1,0,0:0:0:0:
432,80,57820,6,0,L|448:192,1,100,4|0,0:0|0:0,0:0:0:0:
160,192,58120,1,0,0:0:0:0:
368,192,58270,2,0,L|288:80,1,100,4|0,0:0|0:0,0:0:0:0:
96,112,58570,1,0,0:0:0:0:
320,304,58720,2,0,L|352:192,1,100,4|0,0:0|0:0,0:0:0:0:
80,112,59020,6,0,P|64:176|160:240,1,150
352,112,59320,2,0,P|368:176|272:240,1,150
112,240,59620,2,0,L|48:144,1,100,2|0,0:0|0:0,0:0:0:0:
208,128,59920,1,2,0:0:0:0:
448,112,60070,1,0,0:0:0:0:
240,80,60220,6,0,L|112:80,1,100,4|0,0:0|0:0,0:0:0:0:
384,192,60520,1,0,0:0:0:0:
160,192,60670,2,0,L|224:272,1,100,4|0,0:0|0:0,0:0:0:0:
448,272,60970,1,0,0:0:0:0:
192,336,61120,2,0,L|80:336,1,100,4|0,0:0|0:0,0:0:0:0:
320,288,61420,6,0,P|384:256|416:160,1,150
192,288,61720,2,0,P|128:256|96:160,1,150
304,160,62020,2,0,L|368:80,1,100,2|0,0:0|0:0,0:0:0:0:
144,80,62320,1,2,0:0:0:0:
368,80,62470,1,0,0:0:0:0:
64,80,62620,6,0,L|32:192,1,100,4|0,0:0|0:0,0:0:0:0:
256,192,62920,1,8,0:0:0:0:
400,192,63070,1,0,0:0:0:0:
112,112,63220,2,0,L|80:224,1,100,4|0,0:0|0:0,0:0:0:0:
304,224,63520,1,8,0:0:0:0:
448,224,63670,1,0,0:0:0:0:
160,144,63820,6,0,L|128:256,1,100,2|0,0:0|0:0,0:0:0:0:
352,256,64120,1,8,0:0:0:0:
128,304,64270,2,0,P|80:240|160:160,1,200,2|0,0:0|0:0,0:0:0:0:
368,160,64720,1,8,0:0:0:0:
417,157,64795,1,0,0:0:0:0:
461,134,64870,1,0,0:0:0:0:
490,94,64945,1,0,0:0:0:0:
208,80,65020,6,0,L|96:80,1,100,4|0,0:0|0:0,0:0:0:0:
320,160,65320,1,0,0:0:0:0:
96,160,65470,2,0,L|176:240,1,100,4|0,0:0|0:0,0:0:0:0:
384,240,65770,1,0,0:0:0:0:
144,336,65920,2,0,L|32:336,1,100,4|0,0:0|0:0,0:0:0:0:
368,288,66220,6,0,P|416:224|352:160,1,150
144,288,66520,2,0,P|96:224|160:160,1,150
288,176,66820,2,0,L|400:176,1,100,2|0,0:0|0:0,0:0:0:0:
288,64,67120,1,2,0:0:0:0:
80,64,67270,1,0,0:0:0:0:
432,64,67420,6,0,L|464:176,1,100,4|0,0:0|0:0,0:0:0:0:
96,176,67720,1,0,0:0:0:0:
352,176,67870,2,0,L|480:176,1,100,4|0,0:0|0:0,0:0:0:0:
128,288,68170,1,0,0:0:0:0:
384,288,68320,2,0,L|288:224,1,100,4|0,0:0|0:0,0:0:0:0:
48,208,68620,6,0,P|80:128|176:96,1,150
464,208,68920,2,0,P|432:128|336:96,1,150
192,96,69220,2,0,L|80:96,1,100,2|0,0:0|0:0,0:0:0:0:
192,192,69520,1,2,0:0:0:0:
400,192,69670,1,0,0:0:0:0:
96,192,69820,6,0,L|64:304,1,100,4|0,0:0|0:0,0:0:0:0:
384,288,70120,1,0,0:0:0:0:
176,288,70270,2,0,L|112:192,1,100,4|0,0:0|0:0,0:0:0:0:
336,208,70570,1,0,0:0:0:0:
96,96,70720,2,0,L|224:96,1,100,4|0,0:0|0:0,0:0:0:0:
416,96,71020,6,0,P|464:144|416:240,1,150
224,96,71320,2,0,P|176:144|224:240,1,150
352,224,71620,2,0,L|384:320,1,100,2|0,0:0|0:0,0:0:0:0:
256,320,71920,1,2,0:0:0:0:
464,320,72070,1,0,0:0:0:0:
160,320,72220,6,0,L|64:256,1,100,4|0,0:0|0:0,0:0:0:0:
352,112,72520,1,8,0:0:0:0:
496,112,72670,1,0,0:0:0:0:
76,119,72820,2,0,L|160:64,1,100,4|0,0:0|0:0,0:0:0:0:
464,192,73120,1,8,0:0:0:0:
320,192,73270,1,0,0:0:0:0:
80,192,73420,6,0,L|48:304,1,100,2|0,0:0|0:0,0:0:0:0:
400,288,73720,1,8,0:0:0:0:
128,288,73870,2,0,P|80:240|144:144,1,200,2|0,0:0|0:0,0:0:0:0:
288,144,74320,1,8,0:0:0:0:
144,144,74470,1,0,0:0:0:0:
352,320,74620,6,0,L|448:256,1,100,4|0,0:0|0:0,0:0:0:0:
160,112,74920,1,8,0:0:0:0:
16,112,75070,1,0,0:0:0:0:
436,119,75220,2,0,L|352:64,1,100,4|0,0:0|0:0,0:0:0:0:
48,192,75520,1,8,0:0:0:0:
192,192,75670,1,0,0:0:0:0:
432,192,75820,6,0,L|464:304,1,100,2|0,0:0|0:0,0:0:0:0:
112,288,76120,1,8,0:0:0:0:
368,288,76270,2,0,P|416:240|352:144,1,200,2|0,0:0|0:0,0:0:0:0:
208,144,76720,1,8,0:0:0:0:
480,144,76870,6,0,P|480:208|368:288,1,200,4|0,0:0|0:0,0:0:0:0:
256,288,77320,1,8,0:0:0:0:
384,288,77470,1,0,0:0:0:0:
176,288,77620,2,0,L|64:288,1,100,2|0,0:0|0:0,0:0:0:0:
224,224,77920,2,0,L|256:96,1,100,8|0,0:0|0:0,0:0:0:0:
32,128,78220,5,2,0:0:0:0:
128,128,78370,1,0,0:0:0:0:
32,128,78520,1,8,0:0:0:0:
288,128,78670,1,0,0:0:0:0:
96,208,78970,2,0,L|192:256,1,100,0|8,0:0|0:0,0:0:0:0:
400,256,79270,6,0,P|448:192|352:144,1,200,6|0,0:0|0:0,0:0:0:0:
240,144,79720,1,8,0:0:0:0:
112,144,79870,1,0,0:0:0:0:
320,288,80020,2,0,L|448:288,1,100,2|0,0:0|0:0,0:0:0:0:
288,288,80320,2,0,L|160:288,1,100,8|0,0:0|0:0,0:0:0:0:
480,112,80620,5,2,0:0:0:0:
368,112,80770,1,0,0:0:0:0:
240,112,80920,1,8,0:0:0:0:
32,112,81070,1,0,0:0:0:0:
288,272,81370,2,0,L|368:192,1,100,0|8,0:0|0:0,0:0:0:0:
112,272,81670,6,0,P|48:240|96:144,1,200,6|0,0:0|0:0,0:0:0:0:
224,160,82120,1,8,0:0:0:0:
96,144,82270,1,0,0:0:0:0:
320,160,82420,2,0,L|336:272,1,100,2|0,0:0|0:0,0:0:0:0:
208,256,82720,2,0,L|144:352,1,100,8|0,0:0|0:0,0:0:0:0:
384,352,83020,5,2,0:0:0:0:
480,352,83170,1,0,0:0:0:0:
384,352,83320,1,8,0:0:0:0:
176,352,83470,1,0,0:0:0:0:
384,192,83770,2,0,L|272:192,1,100,0|8,0:0|0:0,0:0:0:0:
64,256,84070,6,0,P|16:192|112:144,1,200,6|0,0:0|0:0,0:0:0:0:
224,144,84520,1,8,0:0:0:0:
352,144,84670,1,0,0:0:0:0:
144,288,84820,2,0,L|128:160,1,100,2|0,0:0|0:0,0:0:0:0:
256,192,85120,2,0,L|368:192,1,100,8|0,0:0|0:0,0:0:0:0:
96,336,85420,5,2,0:0:0:0:
192,336,85570,1,0,0:0:0:0:
96,336,85720,1,8,0:0:0:0:
368,336,85870,1,0,0:0:0:0:
272,192,86170,1,2,0:0:0:0:
144,192,86320,1,2,0:0:0:0:
368,192,86470,1,0,0:0:0:0:
80,192,86620,6,0,L|64:304,1,100,6|0,0:0|0:0,0:0:0:0:
320,288,86920,1,8,0:0:0:0:
480,112,87220,1,2,0:0:0:0:
352,112,87370,1,0,0:0:0:0:
144,112,87520,1,8,0:0:0:0:
400,240,87820,6,0,L|336:336,1,100,2|0,0:0|0:0,0:0:0:0:
112,320,88120,1,8,0:0:0:0:
432,320,88270,2,0,P|384:240|272:224,1,200,6|2,0:0|0:0,0:0:0:0:
160,224,88720,1,8,0:0:0:0:
432,224,88870,1,2,0:0:0:0:
