osu file format v14

[General]
AudioFilename: audio.mp3
AudioLeadIn: 0
PreviewTime: 55120
Countdown: 0
SampleSet: Soft
StackLeniency: 0.7
Mode: 2
LetterboxInBreaks: 0
WidescreenStoryboard: 1

[Editor]
Bookmarks: 7420,16870,26620,36220,45820
DistanceSpacing: 1.2
BeatDivisor: 4
GridSize: 16
TimelineZoom: 2

[Metadata]
Title:Hallelujah*Essaim (TV Size)
TitleUnicode:ハレルヤ☆エッサイム (TV Size)
Artist:Tomita Miyu, Onishi Saori, Ohzora Naomi, Hanazawa Kana
ArtistUnicode:富田美憂、大西沙織、大空直美、花澤香菜
Creator:Yumeno Himiko
Version:Cup
Source:ガヴリールドロップアウト
Tags:ending ed tv size gabdro ガヴドロ tenma gabriel white 天真・ガヴリール・ホワイト tsukinose vignette april 月乃瀬・ヴィネット・エイプリル vigne ヴィーネ kurumizawa satanichia mcdowell 胡桃沢・サタニキア・マクドウェル satania サターニャ shiraha raphiel ainsworth 白羽・ラフィエル・エインズワース 山崎真吾 Yamazaki Shingo 坂井龍二 Sakai Ryuji 田崎真也 Tasaki Shinya examination Sc4v4ng3r JBHyperion Kagari P_i_k_u Piku -_Magic_Bomb_- mbomb CLSW Minato Yukina
BeatmapID:1229153
BeatmapSetID:579450

[Difficulty]
HPDrainRate:3
CircleSize:2
OverallDifficulty:6
ApproachRate:6
SliderMultiplier:0.999999999999999
SliderTickRate:1

[Events]
//Background and Video events
0,0,"gabrieldropoutBG.jpg",0,0
Video,0,"gabdro movie.avi"
//Break Periods
//Storyboard Layer 0 (Background)
//Storyboard Layer 1 (Fail)
//Storyboard Layer 2 (Pass)
//Storyboard Layer 3 (Foreground)
//Storyboard Sound Samples

[TimingPoints]
830,300,3,2,2,50,1,0
830,-133.333333333333,3,2,2,50,0,0
3530,333.333333333333,4,2,2,50,1,0
3863,375,4,2,0,50,1,0
4238,428.571428571429,4,2,0,40,1,0
4666,500,4,2,0,40,1,0
5916,-100,4,2,1,10,0,0
6220,300,4,2,0,20,1,0
7420,-100,4,2,1,50,0,0
16870,-100,4,2,1,60,0,0
26620,-100,4,2,3,30,0,0
35920,-100,4,2,3,50,0,0
36070,-100,4,2,3,30,0,0
36220,-100,4,2,1,50,0,0
45820,-100,4,2,0,50,0,0
50620,-100,4,2,0,30,0,0
51820,-100,4,2,0,40,0,0
53020,-100,4,2,0,50,0,0
55420,-100,4,2,1,60,0,1
67420,-100,4,2,1,70,0,1
69220,-100,4,2,1,60,0,1
76870,-100,4,2,1,50,0,0

[Colours]
Combo1 : 234,88,37
Combo2 : 254,217,73
Combo3 : 148,25,203
Combo4 : 132,201,234

[HitObjects]
144,256,830,6,0,P|96:192|128:128,1,150.000005722046,4|0,0:0|0:0,0:0:0:0:
208,96,1730,1,4,0:0:0:0:
368,256,2630,6,0,P|416:192|384:128,1,150.000005722046,4|0,0:0|0:0,0:0:0:0:
304,96,3530,1,4,0:0:0:0:
256,192,4666,12,0,6220,0:0:0:0:
160,192,6820,6,0,L|144:80,1,99.9999999999999,2|2,0:0|0:0,0:0:0:0:
272,96,7420,6,0,L|296:263,1,150,4|4,0:0|0:0,0:0:0:0:
112,240,8320,1,4,0:0:0:0:
400,240,9220,1,2,0:0:0:0:
336,160,9520,1,2,0:0:0:0:
240,96,9820,6,0,L|216:263,1,150,4|4,0:0|0:0,0:0:0:0:
400,240,10720,1,4,0:0:0:0:
96,240,11620,1,2,0:0:0:0:
208,240,11920,1,2,0:0:0:0:
128,96,12220,6,0,L|96:256,1,150,4|4,0:0|0:0,0:0:0:0:
98,243,13120,1,4,0:0:0:0:
384,256,14020,2,0,L|272:256,1,99.9999999999999,2|2,0:0|0:0,0:0:0:0:
176,256,14620,6,0,P|144:208|192:80,1,200,4|4,0:0|0:0,0:0:0:0:
336,256,15820,2,0,P|368:208|336:112,1,150,2|0,0:0|0:0,0:0:0:0:
224,128,16570,1,0,0:0:0:0:
368,128,16870,6,0,P|416:144|368:288,1,250,4|8,0:0|0:0,0:0:0:0:
144,288,18220,2,0,P|96:240|96:192,1,99.9999999999999,2|8,0:0|0:0,0:0:0:0:
144,144,18670,1,2,1:0:0:0:
256,144,18970,1,2,1:0:0:0:
112,144,19270,6,0,P|48:160|96:304,1,250,4|10,0:0|0:0,0:0:0:0:
320,304,20620,6,0,L|432:304,1,99.9999999999999,2|8,0:0|0:0,0:0:0:0:
480,304,21070,1,2,1:0:0:0:
368,304,21370,1,2,1:0:0:0:
496,256,21670,6,0,P|496:208|352:64,1,250,4|8,0:0|0:0,0:0:0:0:
144,64,23020,2,0,P|160:112|192:160,1,99.9999999999999,2|8,0:0|0:0,0:0:0:0:
240,160,23470,1,2,1:0:0:0:
128,208,23770,1,2,1:0:0:0:
256,208,24070,6,0,P|320:224|240:336,1,250,4|2,0:0|0:0,0:0:0:0:
64,336,25420,2,0,P|16:288|16:240,1,99.9999999999999,8|0,0:0|0:0,0:0:0:0:
64,192,25870,1,0,0:0:0:0:
176,192,26170,2,0,L|240:192,2,50,8|10|0,0:0|0:0|0:0,0:0:0:0:
288,192,26770,5,0,0:0:0:0:
448,192,27220,2,0,L|464:304,1,99.9999999999999,8|8,0:0|0:0,0:0:0:0:
336,288,27820,2,0,L|224:288,2,99.9999999999999,8|8|8,0:0|0:0|0:0,0:0:0:0:
416,288,28570,2,0,P|432:240|416:192,1,99.9999999999999,4|4,0:0|0:0,0:0:0:0:
304,192,29170,6,0,L|192:192,1,99.9999999999999,0|0,0:0|0:0,0:0:0:0:
144,192,29620,1,8,0:0:0:0:
256,192,29920,1,8,0:0:0:0:
144,192,30220,2,0,L|32:192,2,99.9999999999999,8|8|0,0:0|0:0|0:0,0:0:0:0:
224,192,30970,2,0,L|240:304,1,99.9999999999999,4|4,0:0|0:0,0:0:0:0:
112,288,31570,5,0,0:0:0:0:
288,288,32020,2,0,L|304:176,1,99.9999999999999,8|8,0:0|0:0,0:0:0:0:
176,192,32620,2,0,L|144:96,1,99.9999999999999,8|8,0:0|0:0,0:0:0:0:
272,96,33220,1,8,0:0:0:0:
336,96,33370,2,0,P|384:128|384:176,1,99.9999999999999,4|4,0:0|0:0,0:0:0:0:
272,176,33970,6,0,L|160:176,1,99.9999999999999,0|0,0:0|0:0,0:0:0:0:
112,176,34420,1,10,0:0:0:0:
224,176,34720,1,8,0:0:0:0:
336,176,35020,6,0,L|368:288,2,99.9999999999999,2|2|0,0:0|0:0|0:0,0:0:0:0:
224,176,35920,1,4,0:0:0:0:
368,176,36220,6,0,L|400:272,1,99.9999999999999,2|8,0:0|0:0,0:0:0:0:
272,272,36820,1,2,0:0:0:0:
384,272,37120,1,8,0:0:0:0:
272,272,37420,2,0,L|240:160,1,99.9999999999999,2|8,0:0|0:0,0:0:0:0:
368,176,38020,1,2,0:0:0:0:
432,176,38170,2,0,L|464:288,1,99.9999999999999,0|2,0:0|0:0,0:0:0:0:
272,272,38920,5,8,0:0:0:0:
160,272,39220,2,0,L|48:272,1,99.9999999999999,2|8,0:0|0:0,0:0:0:0:
144,192,39820,1,2,0:0:0:0:
256,192,40120,1,8,0:0:0:0:
144,192,40420,1,0,0:0:0:0:
80,192,40570,2,0,L|96:80,1,99.9999999999999,0|2,0:0|0:0,0:0:0:0:
288,96,41320,6,0,L|400:96,1,99.9999999999999,8|2,0:0|0:0,0:0:0:0:
320,192,41920,1,8,0:0:0:0:
432,192,42220,2,0,L|464:304,1,99.9999999999999,2|8,0:0|0:0,0:0:0:0:
336,288,42820,1,0,0:0:0:0:
448,288,43120,1,8,0:0:0:0:
336,288,43420,6,0,P|272:272|288:192,1,150,8|8,0:0|0:0,0:0:0:0:
464,192,44320,1,8,0:0:0:0:
352,192,44620,2,0,L|240:192,2,99.9999999999999,2|8|8,0:0|0:0|0:0,0:0:0:0:
144,80,45820,6,0,P|112:128|144:272,1,200,2|0,0:0|0:0,0:0:0:0:
368,80,47020,2,0,P|400:128|368:272,1,200,0|0,0:0|0:0,0:0:0:0:
155,271,48220,6,0,L|363:271,1,200,2|0,0:0|0:0,0:0:0:0:
160,128,49420,1,0,0:0:0:0:
352,128,50020,1,0,0:0:0:0:
112,128,50620,6,0,L|96:240,1,99.9999999999999,2|2,0:0|0:0,0:0:0:0:
176,224,51220,1,2,0:0:0:0:
400,128,51820,2,0,L|416:240,1,99.9999999999999,2|2,0:0|0:0,0:0:0:0:
336,224,52420,1,2,0:0:0:0:
128,224,53020,6,0,L|16:224,2,99.9999999999999,4|4|4,0:0|0:0|0:0,0:0:0:0:
256,32,53920,1,4,0:0:0:0:
320,32,54070,2,0,L|400:112,2,99.9999999999999,4|4|4,0:0|0:0|0:0,0:0:0:0:
256,32,54820,1,4,0:0:0:0:
448,176,55420,6,0,P|432:256|416:288,1,99.9999999999999,6|8,0:0|0:0,0:0:0:0:
304,272,56020,2,0,P|320:336|336:368,1,99.9999999999999,0|8,0:0|0:0,0:0:0:0:
464,352,56620,2,0,L|480:240,1,99.9999999999999,0|8,0:0|0:0,0:0:0:0:
368,256,57220,2,0,L|256:256,1,99.9999999999999,2|10,0:0|0:0,0:0:0:0:
128,256,57820,6,0,P|112:224|112:160,1,99.9999999999999,4|8,0:0|0:0,0:0:0:0:
224,160,58420,2,0,P|224:96|208:48,1,99.9999999999999,0|8,0:0|0:0,0:0:0:0:
96,96,59020,2,0,L|48:192,1,99.9999999999999,0|8,0:0|0:0,0:0:0:0:
160,192,59620,2,0,L|272:192,1,99.9999999999999,2|10,0:0|0:0,0:0:0:0:
400,192,60220,6,0,P|400:240|368:288,1,99.9999999999999,4|8,0:0|0:0,0:0:0:0:
256,272,60820,2,0,P|256:224|304:176,1,99.9999999999999,0|8,0:0|0:0,0:0:0:0:
400,192,61420,2,0,L|416:80,1,99.9999999999999,0|8,0:0|0:0,0:0:0:0:
304,96,62020,2,0,L|192:96,1,99.9999999999999,2|10,0:0|0:0,0:0:0:0:
64,96,62620,6,0,L|32:160,2,50,4|0|8,0:0|0:0|0:0,0:0:0:0:
192,96,63220,2,0,L|192:160,2,50,4|0|8,0:0|0:0|0:0,0:0:0:0:
320,96,63820,2,0,L|352:160,2,50,6|0|8,0:0|0:0|0:0,0:0:0:0:
256,96,64270,2,0,P|160:144|160:192,1,150,6|8,0:0|0:0,0:0:0:0:
272,176,65020,6,0,L|400:272,1,150,4|4,0:0|0:0,0:0:0:0:
208,272,65920,1,4,0:0:0:0:
320,272,66220,2,0,L|432:272,1,99.9999999999999,0|8,0:0|0:0,0:0:0:0:
368,160,66820,1,2,0:0:0:0:
256,128,67120,1,10,0:0:0:0:
96,112,67420,6,0,P|64:144|112:240,1,150,4|4,0:0|0:0,0:0:0:0:
288,224,68320,1,4,0:0:0:0:
176,224,68620,6,0,L|144:128,1,99.9999999999999,0|8,0:0|0:0,0:0:0:0:
272,128,69220,1,2,0:0:0:0:
160,128,69520,1,10,0:0:0:0:
288,128,69820,6,0,P|336:128|416:192,1,150,4|4,0:0|0:0,0:0:0:0:
256,272,70720,1,4,0:0:0:0:
368,272,71020,2,0,L|336:384,1,99.9999999999999,0|8,0:0|0:0,0:0:0:0:
224,368,71620,1,2,0:0:0:0:
288,368,71920,1,10,0:0:0:0:
416,352,72220,6,0,P|400:272|320:160,1,200,4|4,0:0|0:0,0:0:0:0:
96,352,73420,2,0,P|112:272|192:160,1,200,10|8,0:0|0:0,0:0:0:0:
304,176,74320,1,8,0:0:0:0:
192,176,74620,6,0,P|160:192|224:304,1,200,4|4,0:0|0:0,0:0:0:0:
400,304,75820,2,0,L|416:144,1,150,10|10,0:0|0:0,0:0:0:0:
288,160,76570,1,0,0:0:0:0:
176,160,76870,6,0,P|128:192|208:336,1,250,4|10,0:0|0:0,0:0:0:0:
384,192,78220,2,0,L|272:192,1,99.9999999999999,2|8,0:0|0:0,0:0:0:0:
224,192,78670,1,2,1:0:0:0:
320,192,78970,1,2,1:0:0:0:
448,192,79270,6,0,P|448:256|288:336,1,250,6|2,0:0|0:0,0:0:0:0:
112,336,80620,2,0,L|224:336,1,99.9999999999999,2|8,0:0|0:0,0:0:0:0:
272,336,81070,1,2,1:0:0:0:
160,336,81370,1,2,1:0:0:0:
48,336,81670,6,0,P|32:288|160:160,1,250,6|10,0:0|0:0,0:0:0:0:
352,176,83020,2,0,L|192:176,1,150,10|2,0:0|1:0,0:0:0:0:
288,256,83770,1,2,1:0:0:0:
160,256,84070,6,0,P|128:224|240:96,1,250,6|10,0:0|0:0,0:0:0:0:
464,96,85420,2,0,L|480:208,1,99.9999999999999,10|8,0:0|0:0,0:0:0:0:
416,208,85870,1,0,0:0:0:0:
304,224,86170,2,0,L|256:272,2,50,2|2|0,0:0|0:0|0:0,0:0:0:0:
384,224,86620,6,0,P|384:176|352:112,1,99.9999999999999,6|8,0:0|0:0,0:0:0:0:
240,128,87220,2,0,P|221:173|220:223,1,99.9999999999999,2|8,0:0|0:0,0:0:0:0:
336,224,87820,6,0,P|336:256|288:320,1,99.9999999999999,2|8,0:0|0:0,0:0:0:0:
240,304,88270,2,0,L|128:304,1,99.9999999999999,6|2,0:0|0:0,0:0:0:0:
80,304,88720,1,8,0:0:0:0:
160,304,88870,1,2,0:0:0:0:
