osu file format v14

[General]
AudioFilename: audio.mp3
AudioLeadIn: 0
PreviewTime: 55389
Countdown: 0
SampleSet: Drum
StackLeniency: 0.7
Mode: 3
LetterboxInBreaks: 0
SpecialStyle: 0
WidescreenStoryboard: 0

[Editor]
DistanceSpacing: 1.2
BeatDivisor: 4
GridSize: 4
TimelineZoom: 2.2

[Metadata]
Title:Hallelujah*Essaim (TV Size)
TitleUnicode:ハレルヤ☆エッサイム (TV Size)
Artist:Tomita Miyu, Onishi Saori, Ohzora Naomi, Hanazawa Kana
ArtistUnicode:富田美憂、大西沙織、大空直美、花澤香菜
Creator:RiP46
Version:Hard
Source:ガヴリールドロップアウト
Tags:dropout gabdro ガヴドロ ending ed anime japanese tenma gabriel white 天真・ガヴリール・ホワイト tsukinose vignette april 月乃瀬・ヴィネット・エイプリル vigne ヴィーネ kurumizawa satanichia mcdowell 胡桃沢・サタニキア・マクドウェル satania サターニャ shiraha raphiel ainsworth 白羽・ラフィエル・エインズワース
BeatmapID:2305158
BeatmapSetID:1103372

[Difficulty]
HPDrainRate:8
CircleSize:4
OverallDifficulty:8
ApproachRate:5
SliderMultiplier:1.4
SliderTickRate:1

[Events]
//Background and Video events
0,0,"BG.jpg",0,0
//Break Periods
//Storyboard Layer 0 (Background)
//Storyboard Layer 1 (Fail)
//Storyboard Layer 2 (Pass)
//Storyboard Layer 3 (Foreground)
//Storyboard Layer 4 (Overlay)
//Storyboard Sound Samples

[TimingPoints]
840,300,3,3,2,50,1,0
3540,348.837209302326,4,3,2,50,1,0
3540,-86.2068965517241,4,3,2,50,0,0
3934,375,4,3,2,50,1,0
3934,-80,4,3,2,50,0,0
4263,468.75,4,3,2,50,1,0
4263,-64.1025641025641,4,3,2,50,0,0
4731,500,4,3,2,50,1,0
4731,-59.8802395209581,4,3,2,50,0,0
6231,300,4,3,2,60,1,0
55431,-100,4,3,2,80,0,1
64731,-100,4,3,2,80,0,0
65031,-100,4,3,2,80,0,1
77031,-100,4,3,2,80,0,0

[HitObjects]
64,192,390,5,0,0:0:0:0:
192,192,465,1,0,0:0:0:0:
320,192,540,1,0,0:0:0:0:
448,192,615,1,0,0:0:0:0:
64,192,690,1,0,0:0:0:0:
192,192,765,1,0,0:0:0:0:
320,192,840,1,4,0:0:0:0:
448,192,840,128,0,1740:0:0:0:0:
192,192,1140,128,0,1440:0:0:0:0:
320,192,1440,128,0,1740:0:0:0:0:
64,192,1740,128,4,2640:0:0:0:0:
192,192,1740,1,0,0:0:0:0:
448,192,2040,128,0,2340:0:0:0:0:
192,192,2340,128,0,2640:0:0:0:0:
320,192,2640,128,4,3540:0:0:0:0:
448,192,2640,1,0,0:0:0:0:
64,192,2940,128,0,3240:0:0:0:0:
448,192,3240,128,0,3540:0:0:0:0:
64,192,3540,1,4,0:0:0:0:
192,192,3540,128,0,4731:0:0:0:0:
320,192,3934,128,0,4263:0:0:0:0:
64,192,4263,128,0,4731:0:0:0:0:
448,192,4731,128,0,6456:0:0:0:0:
64,192,6231,128,0,6456:0:0:0:0:
64,192,6531,128,0,6756:0:0:0:0:
448,192,6531,128,0,6756:0:0:0:0:
320,192,6831,1,0,0:0:0:0:
320,192,6981,1,0,0:0:0:0:
64,192,7131,128,0,7431:0:0:0:0:
192,192,7131,128,0,7431:0:0:0:0:
320,192,7431,1,4,0:0:0:0:
448,192,7431,128,2,7731:0:0:0:0:
64,192,7731,1,8,0:0:0:0:
192,192,7731,1,0,0:0:0:0:
320,192,7881,128,2,8181:0:0:0:0:
448,192,7881,1,0,0:0:0:0:
64,192,8181,1,0,0:0:0:0:
192,192,8331,128,2,9231:0:0:0:0:
448,192,8331,1,0,0:0:0:0:
320,192,8631,128,0,8931:0:0:0:0:
64,192,8931,128,0,9231:0:0:0:0:
320,192,9231,1,2,0:0:0:0:
448,192,9231,1,0,0:0:0:0:
192,192,9381,1,0,0:0:0:0:
64,192,9531,1,2,0:0:0:0:
448,192,9531,1,0,0:0:0:0:
320,192,9681,1,0,0:0:0:0:
64,192,9831,128,2,10131:0:0:0:0:
192,192,9831,1,4,0:0:0:0:
320,192,10131,1,8,0:0:0:0:
448,192,10131,1,0,0:0:0:0:
64,192,10281,1,2,0:0:0:0:
192,192,10281,128,0,10581:0:0:0:0:
448,192,10581,1,0,0:0:0:0:
64,192,10731,1,2,0:0:0:0:
320,192,10731,128,0,11631:0:0:0:0:
192,192,11031,128,0,11331:0:0:0:0:
448,192,11331,128,0,11631:0:0:0:0:
64,192,11631,1,2,0:0:0:0:
192,192,11631,1,0,0:0:0:0:
320,192,11781,1,0,0:0:0:0:
64,192,11931,1,2,0:0:0:0:
448,192,11931,1,0,0:0:0:0:
192,192,12081,1,0,0:0:0:0:
320,192,12231,1,2,0:0:0:0:
448,192,12231,128,4,12531:0:0:0:0:
64,192,12531,1,8,0:0:0:0:
192,192,12531,1,0,0:0:0:0:
320,192,12681,128,2,12981:0:0:0:0:
448,192,12681,1,0,0:0:0:0:
192,192,12981,1,0,0:0:0:0:
64,192,13131,128,2,14031:0:0:0:0:
448,192,13131,1,0,0:0:0:0:
448,192,13431,128,0,13731:0:0:0:0:
192,192,13731,128,0,14031:0:0:0:0:
320,192,14031,1,2,0:0:0:0:
448,192,14031,1,0,0:0:0:0:
192,192,14181,1,0,0:0:0:0:
64,192,14331,1,2,0:0:0:0:
448,192,14331,1,0,0:0:0:0:
320,192,14481,1,0,0:0:0:0:
64,192,14631,128,2,14931:0:0:0:0:
192,192,14631,1,0,0:0:0:0:
320,192,14781,128,0,14931:0:0:0:0:
192,192,14931,1,8,0:0:0:0:
448,192,14931,1,0,0:0:0:0:
64,192,15231,1,2,0:0:0:0:
448,192,15231,128,0,15531:0:0:0:0:
192,192,15381,128,0,15531:0:0:0:0:
64,192,15531,1,8,0:0:0:0:
320,192,15531,1,0,0:0:0:0:
192,192,15831,128,2,16131:0:0:0:0:
448,192,15831,1,0,0:0:0:0:
320,192,15981,128,0,16131:0:0:0:0:
64,192,16131,1,8,0:0:0:0:
448,192,16131,1,0,0:0:0:0:
192,192,16281,1,2,0:0:0:0:
320,192,16281,128,0,16581:0:0:0:0:
64,192,16581,1,8,0:0:0:0:
192,192,16581,1,0,0:0:0:0:
320,192,16731,1,8,0:0:0:0:
448,192,16731,1,0,0:0:0:0:
64,192,16881,128,2,17181:0:0:0:0:
192,192,16881,1,4,0:0:0:0:
320,192,17181,1,2,0:0:0:0:
64,192,17331,1,8,0:0:0:0:
448,192,17331,1,0,0:0:0:0:
192,192,17481,1,0,0:0:0:0:
320,192,17631,1,2,0:0:0:0:
448,192,17631,1,0,0:0:0:0:
64,192,17781,1,2,0:0:0:0:
192,192,17931,1,8,0:0:0:0:
320,192,17931,1,0,0:0:0:0:
448,192,18081,1,0,0:0:0:0:
64,192,18231,1,2,0:0:0:0:
192,192,18231,1,0,0:0:0:0:
320,192,18381,1,0,0:0:0:0:
64,192,18531,1,8,0:0:0:0:
448,192,18531,1,0,0:0:0:0:
192,192,18681,1,2,0:0:0:0:
320,192,18681,1,0,0:0:0:0:
192,192,18981,1,2,0:0:0:0:
320,192,18981,1,0,0:0:0:0:
64,192,19131,1,8,0:0:0:0:
448,192,19131,1,0,0:0:0:0:
192,192,19281,1,2,0:0:0:0:
320,192,19281,128,4,19581:0:0:0:0:
448,192,19581,1,2,0:0:0:0:
64,192,19731,1,8,0:0:0:0:
192,192,19731,1,0,0:0:0:0:
448,192,19881,1,0,0:0:0:0:
192,192,20031,1,2,0:0:0:0:
320,192,20031,1,0,0:0:0:0:
64,192,20181,1,2,0:0:0:0:
320,192,20331,1,8,0:0:0:0:
448,192,20331,1,0,0:0:0:0:
192,192,20481,1,0,0:0:0:0:
64,192,20631,1,2,0:0:0:0:
448,192,20631,1,0,0:0:0:0:
320,192,20781,1,0,0:0:0:0:
64,192,20931,1,8,0:0:0:0:
192,192,20931,1,0,0:0:0:0:
320,192,21081,1,2,0:0:0:0:
448,192,21081,1,0,0:0:0:0:
320,192,21381,1,2,0:0:0:0:
448,192,21381,1,0,0:0:0:0:
64,192,21531,1,8,0:0:0:0:
192,192,21531,1,0,0:0:0:0:
320,192,21681,1,2,0:0:0:0:
448,192,21681,128,4,21981:0:0:0:0:
64,192,21981,1,2,0:0:0:0:
192,192,22131,1,8,0:0:0:0:
320,192,22131,1,0,0:0:0:0:
448,192,22281,1,0,0:0:0:0:
64,192,22431,1,2,0:0:0:0:
192,192,22431,1,0,0:0:0:0:
320,192,22581,1,2,0:0:0:0:
64,192,22731,1,8,0:0:0:0:
448,192,22731,1,0,0:0:0:0:
192,192,22881,1,0,0:0:0:0:
320,192,23031,1,2,0:0:0:0:
448,192,23031,1,0,0:0:0:0:
192,192,23181,1,0,0:0:0:0:
64,192,23331,1,8,0:0:0:0:
448,192,23331,1,0,0:0:0:0:
192,192,23481,1,2,0:0:0:0:
320,192,23481,1,0,0:0:0:0:
192,192,23781,1,2,0:0:0:0:
320,192,23781,1,0,0:0:0:0:
64,192,23931,1,8,0:0:0:0:
448,192,23931,1,0,0:0:0:0:
192,192,24081,128,2,24381:0:0:0:0:
320,192,24081,1,4,0:0:0:0:
64,192,24381,1,2,0:0:0:0:
320,192,24531,1,8,0:0:0:0:
448,192,24531,1,0,0:0:0:0:
64,192,24681,1,0,0:0:0:0:
192,192,24831,1,2,0:0:0:0:
320,192,24831,1,0,0:0:0:0:
448,192,24981,1,2,0:0:0:0:
64,192,25131,1,8,0:0:0:0:
192,192,25131,1,0,0:0:0:0:
320,192,25281,1,0,0:0:0:0:
64,192,25431,1,2,0:0:0:0:
448,192,25431,1,0,0:0:0:0:
192,192,25581,1,0,0:0:0:0:
320,192,25731,1,8,0:0:0:0:
448,192,25731,1,0,0:0:0:0:
64,192,25881,1,2,0:0:0:0:
192,192,25881,1,4,0:0:0:0:
64,192,26181,1,2,0:0:0:0:
192,192,26181,1,0,0:0:0:0:
320,192,26331,1,8,0:0:0:0:
448,192,26331,1,0,0:0:0:0:
64,192,26481,128,2,26781:0:0:0:0:
192,192,26481,128,4,26781:0:0:0:0:
448,192,26781,1,0,0:0:0:0:
320,192,26931,1,0,0:0:0:0:
192,192,27081,1,0,0:0:0:0:
448,192,27231,1,0,0:0:0:0:
64,192,27531,1,0,0:0:0:0:
320,192,27831,1,0,0:0:0:0:
192,192,28131,1,0,0:0:0:0:
64,192,28431,1,0,0:0:0:0:
320,192,28581,128,8,28731:0:0:0:0:
448,192,28581,128,0,28731:0:0:0:0:
64,192,28731,128,8,28881:0:0:0:0:
192,192,28731,128,0,28881:0:0:0:0:
320,192,28881,128,2,29181:0:0:0:0:
448,192,28881,128,8,29181:0:0:0:0:
64,192,29181,1,0,0:0:0:0:
192,192,29331,1,0,0:0:0:0:
320,192,29481,1,0,0:0:0:0:
64,192,29631,1,0,0:0:0:0:
448,192,29931,1,0,0:0:0:0:
192,192,30231,1,0,0:0:0:0:
320,192,30531,1,0,0:0:0:0:
448,192,30831,1,0,0:0:0:0:
64,192,30981,128,8,31131:0:0:0:0:
192,192,30981,128,0,31131:0:0:0:0:
320,192,31131,128,8,31281:0:0:0:0:
448,192,31131,128,0,31281:0:0:0:0:
64,192,31281,128,2,31581:0:0:0:0:
192,192,31281,128,8,31581:0:0:0:0:
448,192,31581,1,0,0:0:0:0:
320,192,31731,1,0,0:0:0:0:
192,192,31881,1,0,0:0:0:0:
448,192,32031,1,0,0:0:0:0:
64,192,32331,1,0,0:0:0:0:
320,192,32631,1,0,0:0:0:0:
192,192,32931,1,0,0:0:0:0:
64,192,33231,1,0,0:0:0:0:
320,192,33381,128,8,33531:0:0:0:0:
448,192,33381,128,0,33531:0:0:0:0:
64,192,33531,128,8,33681:0:0:0:0:
192,192,33531,128,0,33681:0:0:0:0:
320,192,33681,128,2,33981:0:0:0:0:
448,192,33681,128,8,33981:0:0:0:0:
64,192,33981,1,0,0:0:0:0:
192,192,34131,1,0,0:0:0:0:
320,192,34281,1,0,0:0:0:0:
64,192,34431,128,0,34731:0:0:0:0:
320,192,34731,1,0,0:0:0:0:
448,192,34731,1,0,0:0:0:0:
64,192,35031,128,0,35256:0:0:0:0:
192,192,35031,128,0,35256:0:0:0:0:
64,192,35331,128,0,35556:0:0:0:0:
192,192,35331,128,0,35556:0:0:0:0:
448,192,35656,1,0,0:0:0:0:
320,192,35731,1,0,0:0:0:0:
192,192,35806,1,0,0:0:0:0:
64,192,35881,1,0,0:0:0:0:
448,192,35956,1,0,0:0:0:0:
320,192,36031,1,0,0:0:0:0:
192,192,36106,1,0,0:0:0:0:
64,192,36181,1,0,0:0:0:0:
320,192,36231,1,2,0:0:0:0:
448,192,36231,128,0,36531:0:0:0:0:
64,192,36531,1,8,0:0:0:0:
192,192,36531,1,0,0:0:0:0:
448,192,36681,128,0,36831:0:0:0:0:
64,192,36831,1,2,0:0:0:0:
320,192,36831,1,0,0:0:0:0:
192,192,36981,1,0,0:0:0:0:
320,192,37131,128,8,37281:0:0:0:0:
448,192,37131,1,0,0:0:0:0:
64,192,37281,1,0,0:0:0:0:
192,192,37431,128,2,37581:0:0:0:0:
448,192,37431,1,0,0:0:0:0:
320,192,37581,1,0,0:0:0:0:
64,192,37731,1,8,0:0:0:0:
448,192,37731,1,0,0:0:0:0:
192,192,37881,128,0,38031:0:0:0:0:
64,192,38031,1,2,0:0:0:0:
320,192,38031,1,0,0:0:0:0:
448,192,38181,1,0,0:0:0:0:
192,192,38181,128,2,38331:0:0:0:0:
320,192,38331,1,8,0:0:0:0:
448,192,38331,1,0,0:0:0:0:
64,192,38481,128,2,38781:0:0:0:0:
192,192,38481,1,0,0:0:0:0:
192,192,38781,1,2,0:0:0:0:
320,192,38781,1,0,0:0:0:0:
64,192,38931,1,8,0:0:0:0:
448,192,38931,128,0,39081:0:0:0:0:
192,192,39081,1,0,0:0:0:0:
320,192,39231,1,2,0:0:0:0:
448,192,39231,1,0,0:0:0:0:
64,192,39381,1,0,0:0:0:0:
320,192,39531,1,8,0:0:0:0:
448,192,39531,128,0,39681:0:0:0:0:
192,192,39681,1,0,0:0:0:0:
64,192,39831,128,2,39981:0:0:0:0:
320,192,39831,1,0,0:0:0:0:
448,192,39981,128,0,40131:0:0:0:0:
64,192,40131,1,8,0:0:0:0:
192,192,40131,1,0,0:0:0:0:
320,192,40281,128,0,40431:0:0:0:0:
192,192,40431,1,2,0:0:0:0:
448,192,40431,1,0,0:0:0:0:
64,192,40581,1,2,0:0:0:0:
320,192,40581,128,0,40731:0:0:0:0:
64,192,40731,1,8,0:0:0:0:
448,192,40731,1,0,0:0:0:0:
192,192,40881,128,2,41181:0:0:0:0:
320,192,40881,1,0,0:0:0:0:
320,192,41181,1,2,0:0:0:0:
448,192,41181,1,0,0:0:0:0:
64,192,41331,128,8,41481:0:0:0:0:
192,192,41331,1,0,0:0:0:0:
448,192,41481,1,0,0:0:0:0:
64,192,41631,1,2,0:0:0:0:
320,192,41631,1,0,0:0:0:0:
192,192,41781,1,0,0:0:0:0:
64,192,41931,128,8,42081:0:0:0:0:
448,192,41931,1,0,0:0:0:0:
192,192,42081,1,0,0:0:0:0:
320,192,42231,128,2,42381:0:0:0:0:
448,192,42231,1,0,0:0:0:0:
192,192,42381,128,0,42531:0:0:0:0:
64,192,42531,1,8,0:0:0:0:
448,192,42531,1,0,0:0:0:0:
320,192,42681,128,0,42831:0:0:0:0:
192,192,42831,1,2,0:0:0:0:
64,192,42831,1,0,0:0:0:0:
320,192,42981,128,0,43131:0:0:0:0:
192,192,43131,1,8,0:0:0:0:
448,192,43131,1,0,0:0:0:0:
64,192,43281,128,0,43431:0:0:0:0:
320,192,43431,1,2,0:0:0:0:
448,192,43431,128,0,43731:0:0:0:0:
64,192,43731,1,8,0:0:0:0:
192,192,43731,1,0,0:0:0:0:
320,192,43881,1,2,0:0:0:0:
448,192,43881,128,0,44181:0:0:0:0:
192,192,44181,1,0,0:0:0:0:
64,192,44331,128,2,44631:0:0:0:0:
448,192,44331,1,8,0:0:0:0:
320,192,44631,1,2,0:0:0:0:
448,192,44631,1,0,0:0:0:0:
192,192,44781,1,0,0:0:0:0:
64,192,44931,1,8,0:0:0:0:
448,192,44931,1,0,0:0:0:0:
320,192,45081,1,0,0:0:0:0:
64,192,45231,1,2,0:0:0:0:
192,192,45231,1,0,0:0:0:0:
64,192,45831,128,0,46731:0:0:0:0:
448,192,45831,128,0,46131:0:0:0:0:
448,192,46431,128,0,46731:0:0:0:0:
320,192,46731,128,0,46881:0:0:0:0:
192,192,46881,128,0,47031:0:0:0:0:
64,192,47031,128,0,47331:0:0:0:0:
448,192,47031,128,0,47331:0:0:0:0:
320,192,47331,128,0,47631:0:0:0:0:
64,192,47631,128,0,47931:0:0:0:0:
192,192,47631,128,0,47931:0:0:0:0:
320,192,47931,128,0,48231:0:0:0:0:
64,192,48231,128,0,48531:0:0:0:0:
448,192,48231,128,0,48981:0:0:0:0:
64,192,48831,128,0,49131:0:0:0:0:
320,192,48981,128,0,49131:0:0:0:0:
192,192,49131,128,0,49281:0:0:0:0:
64,192,49281,128,0,49431:0:0:0:0:
320,192,49431,128,0,49731:0:0:0:0:
448,192,49431,128,0,49731:0:0:0:0:
192,192,49731,128,0,50031:0:0:0:0:
64,192,50031,128,0,50331:0:0:0:0:
448,192,50031,128,0,50331:0:0:0:0:
320,192,50331,128,0,50631:0:0:0:0:
64,192,50631,128,0,51831:0:0:0:0:
192,192,50631,128,0,50781:0:0:0:0:
448,192,50781,128,0,50931:0:0:0:0:
320,192,50931,128,0,51081:0:0:0:0:
192,192,51081,128,0,51231:0:0:0:0:
448,192,51231,128,0,51531:0:0:0:0:
192,192,51531,128,0,51831:0:0:0:0:
320,192,51831,128,0,51981:0:0:0:0:
448,192,51831,128,0,53031:0:0:0:0:
64,192,51981,128,0,52131:0:0:0:0:
192,192,52131,128,0,52281:0:0:0:0:
320,192,52281,128,0,52431:0:0:0:0:
64,192,52431,128,0,52731:0:0:0:0:
320,192,52731,128,0,53031:0:0:0:0:
64,192,53031,1,2,0:0:0:0:
192,192,53031,1,0,0:0:0:0:
64,192,53331,1,2,0:0:0:0:
192,192,53331,1,0,0:0:0:0:
320,192,53631,1,2,0:0:0:0:
448,192,53631,1,0,0:0:0:0:
320,192,53931,1,2,0:0:0:0:
448,192,53931,1,0,0:0:0:0:
64,192,54081,1,2,0:0:0:0:
192,192,54081,1,4,0:0:0:0:
64,192,54381,1,2,0:0:0:0:
192,192,54381,1,0,0:0:0:0:
64,192,54681,1,2,0:0:0:0:
192,192,54681,1,4,0:0:0:0:
320,192,54831,1,2,0:0:0:0:
448,192,54831,1,0,0:0:0:0:
64,192,55131,1,8,0:0:0:0:
192,192,55206,1,0,0:0:0:0:
320,192,55281,1,0,0:0:0:0:
448,192,55356,1,0,0:0:0:0:
64,192,55431,128,2,55731:0:0:0:0:
192,192,55431,1,4,0:0:0:0:
320,192,55731,1,8,0:0:0:0:
448,192,55731,1,0,0:0:0:0:
64,192,55881,128,0,56181:0:0:0:0:
192,192,56031,1,2,0:0:0:0:
448,192,56031,1,0,0:0:0:0:
320,192,56181,1,0,0:0:0:0:
64,192,56331,128,8,57231:0:0:0:0:
192,192,56331,1,0,0:0:0:0:
320,192,56631,1,2,0:0:0:0:
448,192,56631,128,0,56931:0:0:0:0:
192,192,56931,128,8,57231:0:0:0:0:
320,192,56931,1,0,0:0:0:0:
320,192,57231,1,2,0:0:0:0:
448,192,57231,1,0,0:0:0:0:
192,192,57381,1,0,0:0:0:0:
64,192,57531,1,8,0:0:0:0:
448,192,57531,1,0,0:0:0:0:
320,192,57681,1,0,0:0:0:0:
192,192,57831,1,2,0:0:0:0:
448,192,57831,128,0,58131:0:0:0:0:
64,192,58131,1,8,0:0:0:0:
192,192,58131,1,0,0:0:0:0:
448,192,58281,128,0,58581:0:0:0:0:
64,192,58431,1,2,0:0:0:0:
320,192,58431,1,0,0:0:0:0:
192,192,58581,1,0,0:0:0:0:
64,192,58731,1,8,0:0:0:0:
448,192,58731,128,0,59631:0:0:0:0:
64,192,59031,128,2,59331:0:0:0:0:
192,192,59031,1,0,0:0:0:0:
192,192,59331,1,8,0:0:0:0:
320,192,59331,128,0,59631:0:0:0:0:
64,192,59631,1,2,0:0:0:0:
192,192,59631,1,0,0:0:0:0:
448,192,59781,1,0,0:0:0:0:
64,192,59931,1,8,0:0:0:0:
320,192,59931,1,0,0:0:0:0:
448,192,60081,1,0,0:0:0:0:
64,192,60231,1,2,0:0:0:0:
192,192,60231,128,4,60531:0:0:0:0:
320,192,60531,1,8,0:0:0:0:
448,192,60531,1,0,0:0:0:0:
192,192,60681,128,0,60981:0:0:0:0:
64,192,60831,1,2,0:0:0:0:
448,192,60831,1,0,0:0:0:0:
320,192,60981,1,0,0:0:0:0:
64,192,61131,1,8,0:0:0:0:
192,192,61131,128,0,62031:0:0:0:0:
320,192,61431,1,2,0:0:0:0:
448,192,61431,128,0,61731:0:0:0:0:
64,192,61731,128,8,62031:0:0:0:0:
320,192,61731,1,0,0:0:0:0:
320,192,62031,1,2,0:0:0:0:
448,192,62031,1,0,0:0:0:0:
192,192,62181,1,0,0:0:0:0:
64,192,62331,1,8,0:0:0:0:
448,192,62331,1,0,0:0:0:0:
320,192,62481,1,0,0:0:0:0:
64,192,62631,128,2,62931:0:0:0:0:
192,192,62631,1,0,0:0:0:0:
320,192,62781,128,0,62931:0:0:0:0:
192,192,62931,1,8,0:0:0:0:
448,192,62931,1,0,0:0:0:0:
64,192,63231,1,2,0:0:0:0:
448,192,63231,128,0,63531:0:0:0:0:
192,192,63381,128,0,63531:0:0:0:0:
64,192,63531,1,8,0:0:0:0:
320,192,63531,1,0,0:0:0:0:
192,192,63831,128,2,64131:0:0:0:0:
448,192,63831,1,0,0:0:0:0:
320,192,63981,128,0,64131:0:0:0:0:
64,192,64131,1,8,0:0:0:0:
448,192,64131,1,0,0:0:0:0:
192,192,64281,1,2,0:0:0:0:
320,192,64281,128,0,64581:0:0:0:0:
448,192,64581,1,2,0:0:0:0:
64,192,64731,1,8,0:0:0:0:
192,192,64731,1,0,0:0:0:0:
320,192,65031,1,2,0:0:0:0:
448,192,65031,128,4,65331:0:0:0:0:
64,192,65331,1,8,0:0:0:0:
192,192,65331,1,0,0:0:0:0:
320,192,65481,1,2,0:0:0:0:
448,192,65481,128,4,65781:0:0:0:0:
192,192,65781,1,8,0:0:0:0:
320,192,65781,1,0,0:0:0:0:
64,192,65931,1,2,0:0:0:0:
448,192,65931,128,4,66831:0:0:0:0:
192,192,66231,1,2,0:0:0:0:
320,192,66231,128,0,66531:0:0:0:0:
64,192,66531,128,8,66831:0:0:0:0:
192,192,66531,1,0,0:0:0:0:
192,192,66831,1,2,0:0:0:0:
320,192,66831,1,0,0:0:0:0:
64,192,66981,1,0,0:0:0:0:
320,192,67131,1,8,0:0:0:0:
448,192,67131,1,0,0:0:0:0:
192,192,67281,1,0,0:0:0:0:
64,192,67431,128,2,67731:0:0:0:0:
448,192,67431,1,4,0:0:0:0:
192,192,67731,1,8,0:0:0:0:
320,192,67731,1,0,0:0:0:0:
64,192,67881,128,2,68181:0:0:0:0:
448,192,67881,1,4,0:0:0:0:
320,192,68181,1,8,0:0:0:0:
448,192,68181,1,0,0:0:0:0:
64,192,68331,128,2,69231:0:0:0:0:
192,192,68331,1,4,0:0:0:0:
192,192,68631,128,2,68931:0:0:0:0:
320,192,68631,1,0,0:0:0:0:
320,192,68931,1,8,0:0:0:0:
448,192,68931,128,0,69231:0:0:0:0:
192,192,69231,1,2,0:0:0:0:
320,192,69231,1,0,0:0:0:0:
448,192,69381,1,0,0:0:0:0:
64,192,69531,1,8,0:0:0:0:
192,192,69531,1,0,0:0:0:0:
448,192,69681,1,0,0:0:0:0:
64,192,69831,1,2,0:0:0:0:
320,192,69831,128,4,70131:0:0:0:0:
192,192,70131,1,8,0:0:0:0:
448,192,70131,1,0,0:0:0:0:
64,192,70281,1,2,0:0:0:0:
320,192,70281,128,4,70581:0:0:0:0:
64,192,70581,1,8,0:0:0:0:
192,192,70581,1,0,0:0:0:0:
320,192,70731,128,2,71631:0:0:0:0:
448,192,70731,1,4,0:0:0:0:
192,192,71031,1,2,0:0:0:0:
448,192,71031,128,0,71331:0:0:0:0:
64,192,71331,128,8,71631:0:0:0:0:
192,192,71331,1,0,0:0:0:0:
192,192,71631,1,2,0:0:0:0:
448,192,71631,1,0,0:0:0:0:
320,192,71781,1,0,0:0:0:0:
64,192,71931,1,8,0:0:0:0:
448,192,71931,1,0,0:0:0:0:
192,192,72081,1,0,0:0:0:0:
64,192,72231,128,2,72531:0:0:0:0:
320,192,72231,1,0,0:0:0:0:
192,192,72381,128,0,72531:0:0:0:0:
320,192,72531,1,8,0:0:0:0:
448,192,72531,1,0,0:0:0:0:
64,192,72831,1,2,0:0:0:0:
320,192,72831,128,0,73131:0:0:0:0:
192,192,72981,128,0,73131:0:0:0:0:
64,192,73131,1,8,0:0:0:0:
448,192,73131,1,0,0:0:0:0:
192,192,73431,1,2,0:0:0:0:
320,192,73431,128,0,73731:0:0:0:0:
448,192,73581,128,0,73731:0:0:0:0:
64,192,73731,1,8,0:0:0:0:
192,192,73731,1,0,0:0:0:0:
64,192,74031,128,2,74331:0:0:0:0:
320,192,74031,1,0,0:0:0:0:
448,192,74181,128,0,74331:0:0:0:0:
192,192,74331,1,8,0:0:0:0:
320,192,74331,1,0,0:0:0:0:
320,192,74631,128,2,74931:0:0:0:0:
448,192,74631,1,0,0:0:0:0:
64,192,74781,128,0,74931:0:0:0:0:
192,192,74931,1,8,0:0:0:0:
448,192,74931,1,0,0:0:0:0:
192,192,75231,128,2,75531:0:0:0:0:
320,192,75231,1,0,0:0:0:0:
448,192,75381,128,0,75531:0:0:0:0:
64,192,75531,1,8,0:0:0:0:
320,192,75531,1,0,0:0:0:0:
192,192,75831,1,2,0:0:0:0:
448,192,75831,128,0,76131:0:0:0:0:
64,192,75981,128,0,76131:0:0:0:0:
192,192,76131,1,8,0:0:0:0:
320,192,76131,1,0,0:0:0:0:
64,192,76281,128,2,76581:0:0:0:0:
448,192,76281,1,4,0:0:0:0:
320,192,76581,1,8,0:0:0:0:
448,192,76581,1,0,0:0:0:0:
64,192,76731,1,8,0:0:0:0:
192,192,76731,1,0,0:0:0:0:
320,192,76881,1,2,0:0:0:0:
448,192,76881,128,4,77181:0:0:0:0:
192,192,77181,1,2,0:0:0:0:
64,192,77331,1,8,0:0:0:0:
448,192,77331,1,0,0:0:0:0:
320,192,77481,1,0,0:0:0:0:
64,192,77631,1,2,0:0:0:0:
192,192,77631,1,0,0:0:0:0:
448,192,77781,1,2,0:0:0:0:
192,192,77931,1,8,0:0:0:0:
320,192,77931,1,0,0:0:0:0:
64,192,78081,1,0,0:0:0:0:
320,192,78231,1,2,0:0:0:0:
448,192,78231,1,0,0:0:0:0:
192,192,78381,1,0,0:0:0:0:
64,192,78531,1,8,0:0:0:0:
448,192,78531,1,0,0:0:0:0:
192,192,78681,1,2,0:0:0:0:
320,192,78681,1,4,0:0:0:0:
192,192,78981,1,2,0:0:0:0:
320,192,78981,1,0,0:0:0:0:
64,192,79131,1,8,0:0:0:0:
448,192,79131,1,0,0:0:0:0:
192,192,79281,1,2,0:0:0:0:
320,192,79281,128,4,79581:0:0:0:0:
448,192,79581,1,2,0:0:0:0:
64,192,79731,1,8,0:0:0:0:
192,192,79731,1,0,0:0:0:0:
320,192,79881,1,0,0:0:0:0:
64,192,80031,1,2,0:0:0:0:
448,192,80031,1,0,0:0:0:0:
192,192,80181,1,2,0:0:0:0:
320,192,80331,1,8,0:0:0:0:
448,192,80331,1,0,0:0:0:0:
64,192,80481,1,0,0:0:0:0:
192,192,80631,1,2,0:0:0:0:
320,192,80631,1,0,0:0:0:0:
448,192,80781,1,0,0:0:0:0:
64,192,80931,1,8,0:0:0:0:
192,192,80931,1,0,0:0:0:0:
320,192,81081,1,2,0:0:0:0:
448,192,81081,1,4,0:0:0:0:
320,192,81381,1,2,0:0:0:0:
448,192,81381,1,0,0:0:0:0:
64,192,81531,1,8,0:0:0:0:
192,192,81531,1,0,0:0:0:0:
320,192,81681,1,2,0:0:0:0:
448,192,81681,128,4,81981:0:0:0:0:
192,192,81981,1,2,0:0:0:0:
320,192,82131,1,8,0:0:0:0:
448,192,82131,1,0,0:0:0:0:
64,192,82281,1,0,0:0:0:0:
192,192,82431,1,2,0:0:0:0:
320,192,82431,1,0,0:0:0:0:
448,192,82581,1,2,0:0:0:0:
64,192,82731,1,8,0:0:0:0:
192,192,82731,1,0,0:0:0:0:
320,192,82881,1,0,0:0:0:0:
64,192,83031,1,2,0:0:0:0:
448,192,83031,1,0,0:0:0:0:
192,192,83181,1,0,0:0:0:0:
320,192,83331,1,8,0:0:0:0:
448,192,83331,1,0,0:0:0:0:
64,192,83481,1,2,0:0:0:0:
192,192,83481,1,4,0:0:0:0:
64,192,83781,1,2,0:0:0:0:
192,192,83781,1,0,0:0:0:0:
320,192,83931,1,8,0:0:0:0:
448,192,83931,1,0,0:0:0:0:
64,192,84081,128,2,84381:0:0:0:0:
192,192,84081,1,4,0:0:0:0:
320,192,84381,1,2,0:0:0:0:
64,192,84531,1,8,0:0:0:0:
448,192,84531,1,0,0:0:0:0:
192,192,84681,1,0,0:0:0:0:
320,192,84831,1,2,0:0:0:0:
448,192,84831,1,0,0:0:0:0:
64,192,84981,1,2,0:0:0:0:
192,192,85131,1,8,0:0:0:0:
320,192,85131,1,0,0:0:0:0:
448,192,85281,1,0,0:0:0:0:
64,192,85431,1,2,0:0:0:0:
192,192,85431,1,0,0:0:0:0:
320,192,85581,1,0,0:0:0:0:
64,192,85731,1,8,0:0:0:0:
448,192,85731,1,0,0:0:0:0:
192,192,85881,1,2,0:0:0:0:
320,192,85881,1,4,0:0:0:0:
192,192,86181,1,2,0:0:0:0:
320,192,86181,1,0,0:0:0:0:
64,192,86331,1,8,0:0:0:0:
448,192,86331,1,0,0:0:0:0:
192,192,86481,1,2,0:0:0:0:
320,192,86481,1,0,0:0:0:0:
64,192,86631,128,2,86931:0:0:0:0:
448,192,86631,1,0,0:0:0:0:
192,192,86781,128,0,86931:0:0:0:0:
320,192,86931,1,8,0:0:0:0:
448,192,86931,1,0,0:0:0:0:
64,192,87231,1,2,0:0:0:0:
448,192,87231,128,0,87531:0:0:0:0:
320,192,87381,128,0,87531:0:0:0:0:
64,192,87531,1,8,0:0:0:0:
192,192,87531,1,0,0:0:0:0:
192,192,87831,128,2,88131:0:0:0:0:
448,192,87831,1,0,0:0:0:0:
320,192,87981,128,0,88131:0:0:0:0:
64,192,88131,1,8,0:0:0:0:
448,192,88131,1,0,0:0:0:0:
192,192,88281,1,2,0:0:0:0:
320,192,88281,128,4,88581:0:0:0:0:
64,192,88581,1,2,0:0:0:0:
192,192,88581,1,0,0:0:0:0:
320,192,88731,1,8,0:0:0:0:
448,192,88731,1,0,0:0:0:0:
64,192,88881,128,2,89181:0:0:0:0:
192,192,88881,128,0,89181:0:0:0:0:
