osu file format v14

[General]
AudioFilename: audio.mp3
AudioLeadIn: 0
PreviewTime: 45752
Countdown: 0
SampleSet: Soft
StackLeniency: 0.3
Mode: 0
LetterboxInBreaks: 0
WidescreenStoryboard: 0

[Editor]
Bookmarks: 50927,72227
DistanceSpacing: 1.3
BeatDivisor: 4
GridSize: 4
TimelineZoom: 1.4

[Metadata]
Title:Hallelujah*Essaim
TitleUnicode:ハレルヤ☆エッサイム
Artist:Tomita Miyu, Onishi Saori, Ohzora Naomi, Hanazawa Kana
ArtistUnicode:富田美憂、大西沙織、大空直美、花澤香菜
Creator:Pachiru
Version:Insane
Source:ガヴリールドロップアウト
Tags:Asherz007 Left Celektus dropout gabdro ガヴドロ ending ed tv size tenma gabriel white 天真・ガヴリール・ホワイト tsukinose vignette april 月乃瀬・ヴィネット・エイプリル vigne ヴィーネ kurumizawa satanichia mcdowell 胡桃沢・サタニキア・マクドウェル satania サターニャ shiraha raphiel ainsworth 白羽・ラフィエル・エインズワース
BeatmapID:1407979
BeatmapSetID:665257

[Difficulty]
HPDrainRate:6
CircleSize:4
OverallDifficulty:7
ApproachRate:9
SliderMultiplier:1.8
SliderTickRate:1

[Events]
//Background and Video events
0,0,"thumb-1920-809482.png",0,0
//Break Periods
//Storyboard Layer 0 (Background)
//Storyboard Layer 1 (Fail)
//Storyboard Layer 2 (Pass)
//Storyboard Layer 3 (Foreground)
//Storyboard Sound Samples

[TimingPoints]
836,300,3,2,1,50,1,0
836,-200,3,2,1,50,0,0
3536,348.837209302326,4,2,1,50,1,0
3536,-200,4,2,1,50,0,0
3884,375,4,2,1,50,1,0
3884,-200,4,2,1,50,0,0
4259,468.75,4,2,1,50,1,0
4259,-200,4,2,1,50,0,0
4727,500,4,2,1,50,1,0
4727,-200,4,2,1,50,0,0
6227,300,4,2,1,50,1,0
7427,-133.333333333333,4,2,1,60,0,0
14927,-100,4,2,1,60,0,0
15227,-133.333333333333,4,2,1,60,0,0
15527,-100,4,2,1,60,0,0
15827,-133.333333333333,4,2,1,60,0,0
26627,-200,4,2,1,60,0,0
35027,-133.333333333333,4,2,1,60,0,0
45827,-200,4,2,1,60,0,0
50627,-200,4,2,1,60,0,0
55127,-133.333333333333,4,2,1,60,0,0
55427,-100,4,2,1,60,0,1
77027,-100,4,2,1,60,0,0
88877,-200,4,2,1,60,0,0
89177,-200,4,2,1,60,0,0

[Colours]
Combo1 : 210,105,0
Combo2 : 193,0,0
Combo3 : 206,0,206
Combo4 : 245,82,106
Combo5 : 115,0,230
Combo6 : 255,157,60

[HitObjects]
164,140,836,6,0,L|168:236,1,90,6|0,3:2|0:0,0:0:0:0:
84,192,1436,1,2,0:2:0:0:
244,88,1736,2,0,L|256:280,1,180,6|2,3:2|0:2,0:0:0:0:
424,212,2636,5,6,3:2:0:0:
340,176,2936,1,0,0:0:0:0:
404,296,3236,1,2,0:2:0:0:
488,160,3536,2,0,P|444:132|396:136,1,90,6|2,3:2|0:2,0:0:0:0:
343,239,4259,2,0,P|387:236|423:211,1,90,2|2,0:2|0:2,0:0:0:0:
104,84,6227,5,2,0:3:0:0:
64,276,6527,1,2,0:3:0:0:
256,136,6827,1,2,0:3:0:0:
188,196,6977,1,2,0:3:0:0:
256,252,7127,1,2,0:3:0:0:
336,108,7427,6,0,P|312:72|216:64,1,135.000005149842,6|2,3:2|1:2,0:0:0:0:
320,196,7877,2,0,L|464:188,1,135.000005149842,6|2,3:2|0:2,0:0:0:0:
364,284,8327,2,0,L|432:280,1,67.5000025749208,6|0,3:2|0:0,0:0:0:0:
384,104,8627,5,0,0:0:0:0:
256,276,8927,1,0,0:0:0:0:
100,148,9227,2,0,L|168:168,1,67.5000025749208,2|0,3:2|0:0,0:0:0:0:
272,72,9527,2,0,L|204:92,1,67.5000025749208,2|0,3:2|0:0,0:0:0:0:
160,248,9827,6,0,P|212:236|248:164,1,135.000005149842,6|2,3:2|1:2,0:0:0:0:
76,224,10277,2,0,P|76:272|140:332,1,135.000005149842,6|2,3:2|0:2,0:0:0:0:
128,160,10727,2,0,P|88:144|48:148,1,67.5000025749208,6|0,3:2|0:0,0:0:0:0:
160,248,11027,5,0,0:0:0:0:
256,60,11327,1,0,0:0:0:0:
352,208,11627,2,0,L|360:132,1,67.5000025749208,2|0,3:2|0:0,0:0:0:0:
448,260,11927,2,0,L|440:192,1,67.5000025749208,2|0,3:2|0:0,0:0:0:0:
372,292,12227,6,0,L|224:280,1,135.000005149842,6|2,3:2|1:2,0:0:0:0:
128,376,12677,2,0,L|276:364,1,135.000005149842,6|2,3:2|0:2,0:0:0:0:
148,228,13127,2,0,L|156:308,1,67.5000025749208,6|0,3:2|0:0,0:0:0:0:
232,192,13427,5,0,0:0:0:0:
88,72,13727,1,0,0:0:0:0:
284,16,14027,2,0,L|272:88,1,67.5000025749208,2|0,3:2|0:0,0:0:0:0:
380,0,14327,2,0,L|368:72,1,67.5000025749208,2|0,3:2|0:0,0:0:0:0:
448,176,14627,6,0,P|408:148|352:148,1,101.250003862381,6|0,3:2|0:0,0:0:0:0:
296,200,14927,2,0,L|312:336,1,135,2|0,1:2|0:0,0:0:0:0:
232,368,15227,2,0,B|168:392|128:348,1,101.250003862381,6|0,3:2|0:0,0:0:0:0:
72,296,15527,2,0,L|88:160,1,135,2|0,1:2|0:0,0:0:0:0:
184,52,15827,6,0,L|176:119,1,67.5000025749208,6|2,3:2|0:2,0:0:0:0:
96,80,16127,1,0,1:0:0:0:
256,0,16277,2,0,L|396:8,1,135.000005149842,2|2,3:2|3:2,0:0:0:0:
388,168,16877,6,0,P|400:116|472:88,1,135.000005149842,6|2,3:2|3:2,0:0:0:0:
432,240,17327,2,0,P|396:252|360:248,1,67.5000025749208,2|2,1:2|0:2,0:0:0:0:
308,128,17627,2,0,P|299:165|307:200,1,67.5000025749208,2|2,3:2|0:2,0:0:0:0:
316,384,17927,2,0,P|324:346|316:311,1,67.5000025749208,2|2,1:2|0:2,0:0:0:0:
184,268,18227,5,2,3:2:0:0:
236,344,18377,1,2,0:2:0:0:
224,188,18527,1,0,1:2:0:0:
148,348,18677,2,0,P|72:368|16:348,1,135.000005149842,2|2,3:2|3:2,0:0:0:0:
32,124,19277,6,0,L|172:128,1,135.000005149842,6|2,3:2|3:2,0:0:0:0:
248,16,19727,2,0,L|244:92,1,67.5000025749208,2|2,1:2|0:2,0:0:0:0:
240,172,20027,1,2,3:2:0:0:
164,44,20177,1,2,0:2:0:0:
328,56,20327,2,0,L|408:60,1,67.5000025749208,2|2,1:2|0:2,0:0:0:0:
464,192,20627,6,0,L|468:112,1,67.5000025749208,2|2,3:2|0:2,0:0:0:0:
476,32,20927,1,2,1:2:0:0:
384,140,21077,2,0,L|376:284,1,135.000005149842,2|2,3:2|3:2,0:0:0:0:
224,140,21677,6,0,L|232:284,1,135.000005149842,6|2,3:2|3:2,0:0:0:0:
112,356,22127,2,0,L|108:264,1,67.5000025749208,2|2,1:2|0:2,0:0:0:0:
32,184,22427,2,0,L|36:276,1,67.5000025749208,2|2,1:2|0:2,0:0:0:0:
104,140,22727,2,0,P|72:108|24:100,1,67.5000025749208,2|2,1:2|0:2,0:0:0:0:
116,224,23027,5,2,3:2:0:0:
192,164,23177,1,2,0:2:0:0:
136,308,23327,1,2,1:2:0:0:
276,180,23477,2,0,P|260:108|184:80,1,135.000005149842,2|2,3:2|3:2,0:0:0:0:
224,264,24077,6,0,P|268:276|352:240,1,135.000005149842,6|2,3:2|3:2,0:0:0:0:
396,104,24527,2,0,P|388:140|396:172,1,67.5000025749208,2|2,1:2|0:2,0:0:0:0:
432,320,24827,2,0,P|440:284|432:252,1,67.5000025749208,2|2,3:2|0:2,0:0:0:0:
312,204,25127,1,2,1:2:0:0:
356,284,25277,1,2,0:2:0:0:
360,136,25427,6,0,P|295:124|239:160,1,135.000005149842,2|2,3:2|1:2,0:0:0:0:
192,356,25877,2,0,P|227:300|215:235,1,135.000005149842,2|2,3:2|3:2,0:0:0:0:
28,280,26327,1,2,1:2:0:0:
104,364,26477,1,2,3:2:0:0:
104,116,26777,6,0,L|96:64,2,45,2|2|2,0:3|0:3|0:3,0:0:0:0:
112,192,27227,1,2,0:3:0:0:
112,192,27527,1,2,0:3:0:0:
256,92,27827,6,0,L|259:136,1,45,2|0,0:3|0:0,0:0:0:0:
312,232,28127,2,0,L|315:187,1,45,2|0,0:3|0:0,0:0:0:0:
376,140,28427,1,2,0:3:0:0:
436,88,28577,5,2,3:2:0:0:
448,200,28727,1,2,3:2:0:0:
460,312,28877,1,2,3:2:0:0:
232,320,29177,6,0,L|288:320,2,45,2|2|2,0:3|0:3|0:3,0:0:0:0:
156,320,29627,1,2,0:3:0:0:
156,320,29927,1,2,0:3:0:0:
220,196,30227,6,0,L|224:244,1,45,2|0,0:3|0:0,0:0:0:0:
136,200,30527,1,2,0:3:0:0:
176,132,30677,1,0,0:0:0:0:
220,68,30827,1,2,0:3:0:0:
264,136,30977,5,2,3:2:0:0:
136,68,31127,1,2,3:2:0:0:
264,4,31277,1,2,3:2:0:0:
344,208,31577,6,0,L|408:208,2,45,2|2|2,0:3|0:3|0:3,0:0:0:0:
288,260,32027,2,0,P|244:248|200:260,1,90,2|2,0:3|0:3,0:0:0:0:
76,192,32627,2,0,P|100:196|120:192,1,45,2|0,0:3|0:0,0:0:0:0:
172,136,32927,1,2,0:3:0:0:
128,68,33077,1,0,0:0:0:0:
212,68,33227,1,2,0:3:0:0:
48,68,33377,5,2,3:2:0:0:
168,4,33527,1,2,3:2:0:0:
288,68,33677,1,2,3:2:0:0:
172,284,33977,6,0,L|156:232,2,45,2|2|2,0:3|0:3|0:3,0:0:0:0:
200,360,34427,2,0,L|252:340,1,45,2|0,0:2|0:0,0:0:0:0:
272,272,34727,2,0,L|324:252,1,45,2|0,1:3|0:0,0:0:0:0:
216,40,35027,6,0,L|224:184,1,135.000005149842,2|2,1:2|1:2,0:0:0:0:
100,336,35627,2,0,L|96:280,1,33.7500012874604,10|2,0:2|0:2,0:0:0:0:
158,257,35777,2,0,L|156:224,1,33.7500012874604,2|2,0:2|0:2,0:0:0:0:
84,188,35927,2,0,P|108:160|144:144,1,67.5000025749208,2|2,0:3|0:2,0:0:0:0:
308,332,36227,6,0,P|252:356|180:332,1,135.000005149842,0|2,3:2|1:2,0:0:0:0:
248,204,36677,2,0,L|244:296,1,67.5000025749208,2|2,0:2|3:2,0:0:0:0:
148,200,36977,1,2,0:2:0:0:
216,120,37127,1,2,1:2:0:0:
56,176,37277,1,2,0:2:0:0:
132,48,37427,6,0,L|128:124,1,67.5000025749208,2|2,3:2|0:2,0:0:0:0:
84,256,37727,1,2,1:2:0:0:
216,120,37877,2,0,P|276:100|344:120,1,135.000005149842,2|6,0:2|0:2,0:0:0:0:
280,193,38327,1,6,1:2:0:0:
402,54,38477,1,6,0:2:0:0:
452,336,38777,5,2,3:2:0:0:
408,267,38927,1,2,1:2:0:0:
360,336,39077,1,2,0:2:0:0:
496,264,39227,2,0,P|484:224|396:184,1,135.000005149842,2|2,3:2|1:2,0:0:0:0:
324,200,39677,1,2,0:2:0:0:
244,312,39827,6,0,P|252:276|240:236,1,67.5000025749208,2|2,3:2|0:2,0:0:0:0:
184,196,40127,1,0,1:2:0:0:
100,344,40277,2,0,P|80:292|100:216,1,135.000005149842,2|6,0:2|0:2,0:0:0:0:
168,280,40727,1,6,1:2:0:0:
32,160,40877,1,6,0:2:0:0:
264,44,41177,5,2,3:2:0:0:
180,80,41327,2,0,P|173:40|185:1,1,67.5000025749208,2|2,1:2|0:2,0:0:0:0:
348,84,41627,2,0,P|368:152|344:216,1,135.000005149842,2|2,3:2|1:2,0:0:0:0:
280,148,42077,1,2,0:2:0:0:
192,280,42227,5,2,3:2:0:0:
264,232,42377,1,2,0:2:0:0:
212,360,42527,1,2,1:2:0:0:
104,268,42677,2,0,P|96:232|104:200,1,67.5000025749208,2|0,0:2|3:2,0:0:0:0:
196,100,42977,6,0,B|124:140|69:78,1,135.000005149842,2|2,0:2|0:2,0:0:0:0:
248,28,43427,2,0,P|280:84|264:156,1,135.000005149842,6|0,3:2|1:2,0:0:0:0:
164,228,43877,2,0,B|200:216|232:232|232:232|260:244|296:232,1,135.000005149842,6|0,3:2|0:0,0:0:0:0:
396,108,44327,2,0,L|392:188,1,67.5000025749208,6|0,3:2|0:0,0:0:0:0:
384,296,44627,5,0,3:2:0:0:
252,104,44927,1,0,1:2:0:0:
508,120,45227,1,0,3:2:0:0:
160,328,45827,6,0,P|96:312|164:184,1,270,2|0,0:2|0:0,0:0:0:0:
236,224,46877,1,0,0:0:0:0:
308,180,47027,2,0,P|320:136|300:80,1,90,2|0,0:2|0:0,0:0:0:0:
432,180,47627,2,0,P|420:136|440:80,1,90,2|0,0:2|0:0,0:0:0:0:
456,264,48227,6,0,B|409:276|371:241|371:241|312:298|243:258,1,225,2|0,0:2|0:0,0:0:0:0:
302,147,49127,2,0,L|300:192,1,45,0|0,0:0|0:0,0:0:0:0:
242,352,49427,2,0,L|250:260,1,90,2|0,0:2|0:0,0:0:0:0:
104,176,50027,2,0,L|193:183,1,90,2|0,0:2|0:0,0:0:0:0:
296,48,50627,6,0,L|292:100,1,45,2|0,0:2|0:0,0:0:0:0:
384,40,50927,2,0,L|380:92,1,45,0|0,0:0|0:0,0:0:0:0:
344,240,51227,2,0,P|332:196|348:144,1,90,0|0,0:0|0:0,0:0:0:0:
428,320,51827,6,0,L|372:316,1,45,2|0,0:2|0:0,0:0:0:0:
324,380,52127,2,0,L|268:376,1,45,0|0,0:0|0:0,0:0:0:0:
216,240,52427,2,0,B|228:288|228:288|212:328,1,90,0|0,0:0|0:0,0:0:0:0:
52,184,53027,5,2,3:2:0:0:
248,92,53327,1,2,3:2:0:0:
36,48,53627,1,2,3:2:0:0:
184,204,53927,1,2,3:2:0:0:
132,112,54077,5,6,3:2:0:0:
316,204,54377,1,2,3:2:0:0:
124,304,54677,1,6,3:2:0:0:
184,204,54827,5,2,3:2:0:0:
356,336,55127,2,0,P|388:324|344:304,1,101.250003862381,2|0,1:3|0:0,0:0:0:0:
472,340,55427,6,0,P|472:288|376:208,1,180,6|0,3:2|1:2,0:0:0:0:
212,340,55877,2,0,P|212:288|308:208,1,180,2|2,0:2|0:2,0:0:0:0:
340,48,56327,2,0,P|352:96|336:144,1,90,2|0,1:2|0:0,0:0:0:0:
236,88,56627,2,0,P|224:36|240:-4,1,90,2|0,3:2|0:0,0:0:0:0:
456,104,56927,1,2,1:2:0:0:
328,280,57227,5,2,3:2:0:0:
248,224,57377,1,2,0:2:0:0:
400,216,57527,1,2,1:2:0:0:
328,372,57677,1,2,0:2:0:0:
172,280,57827,6,0,P|156:216|232:136,1,180,6|2,3:2|1:2,0:0:0:0:
248,332,58277,2,0,P|185:367|84:320,1,180,2|2,0:2|0:2,0:0:0:0:
248,224,58727,2,0,L|344:224,1,90,6|0,1:2|0:0,0:0:0:0:
509,284,59027,6,0,L|497:184,1,90,2|0,3:2|0:0,0:0:0:0:
392,72,59327,1,2,1:2:0:0:
420,292,59627,2,0,L|516:284,1,90,2|2,3:2|0:2,0:0:0:0:
348,144,59927,2,0,L|356:240,1,90,2|2,1:2|0:2,0:0:0:0:
436,120,60227,6,0,P|380:64|272:92,1,180,6|0,3:2|1:2,0:0:0:0:
232,300,60677,2,0,P|271:231|217:138,1,180,2|2,0:2|0:2,0:0:0:0:
64,96,61127,2,0,P|52:144|72:192,1,90,2|0,1:2|0:0,0:0:0:0:
144,224,61427,6,0,P|156:181|144:138,1,90,2|0,3:2|0:0,0:0:0:0:
48,344,61727,1,2,1:2:0:0:
300,276,62027,1,2,3:2:0:0:
268,368,62177,1,2,0:2:0:0:
236,200,62327,1,2,1:2:0:0:
204,292,62477,1,2,0:2:0:0:
372,340,62627,6,0,P|396:288|356:200,1,135,6|0,3:2|0:0,0:0:0:0:
316,152,62927,1,2,1:2:0:0:
140,340,63227,2,0,P|116:288|156:200,1,135,6|0,3:2|0:0,0:0:0:0:
196,152,63527,1,2,1:2:0:0:
256,360,63827,5,6,3:2:0:0:
312,280,63977,1,2,0:2:0:0:
200,280,64127,1,2,1:2:0:0:
360,356,64277,2,0,P|396:292|344:200,1,180,6|0,3:2|3:2,0:0:0:0:
288,108,64727,2,0,L|384:100,1,90,0|0,1:2|0:0,0:0:0:0:
228,176,65027,6,0,B|196:120|196:120|228:8,1,180,6|2,3:2|0:2,0:0:0:0:
436,8,65477,2,0,B|468:120|468:120|436:176,1,180,2|2,3:2|1:2,0:0:0:0:
344,332,65927,2,0,B|320:288|344:244,1,90,2|0,3:2|0:0,0:0:0:0:
424,292,66227,6,0,B|446:334|422:378,1,90,2|0,3:2|0:0,0:0:0:0:
184,280,66527,1,2,1:2:0:0:
296,88,66827,2,0,L|288:196,1,90,2|2,3:2|0:2,0:0:0:0:
280,300,67127,1,2,1:2:0:0:
184,200,67277,1,2,0:2:0:0:
100,344,67427,6,0,P|41:326|120:297,1,180,6|2,3:2|1:2,0:0:0:0:
276,360,67877,2,0,B|420:352|420:352|396:344|380:320,1,180,2|2,3:2|1:2,0:0:0:0:
440,192,68327,2,0,P|452:240|440:284,1,90,2|0,3:2|0:0,0:0:0:0:
332,280,68627,6,0,P|322:236|334:193,1,90,2|0,3:2|0:0,0:0:0:0:
444,24,68927,1,2,1:2:0:0:
196,108,69227,2,0,L|296:104,1,90,2|2,3:2|0:2,0:0:0:0:
360,236,69527,1,2,1:2:0:0:
444,154,69677,1,2,0:2:0:0:
272,268,69827,6,0,P|312:316|420:304,1,180,6|2,3:2|1:2,0:0:0:0:
368,71,70277,2,0,P|333:152|360:236,1,180,2|2,3:2|1:2,0:0:0:0:
452,80,70727,2,0,P|440:20|400:-8,1,90,2|0,3:2|0:0,0:0:0:0:
367,70,71027,6,0,L|272:64,1,90,2|0,3:2|0:0,0:0:0:0:
500,148,71327,1,2,1:2:0:0:
324,332,71627,1,2,3:2:0:0:
264,248,71777,1,2,0:2:0:0:
392,284,71927,2,0,P|404:336|392:380,1,90,2|2,1:2|0:2,0:0:0:0:
189,307,72227,6,0,P|168:244|200:176,1,135,6|0,3:2|0:0,0:0:0:0:
261,124,72527,2,0,P|285:185|263:247,1,135,2|0,1:2|0:0,0:0:0:0:
296,328,72827,2,0,L|444:320,1,135,6|0,3:2|0:0,0:0:0:0:
496,260,73127,2,0,L|488:125,1,135,2|0,1:2|0:0,0:0:0:0:
484,36,73427,5,6,3:2:0:0:
380,108,73577,1,2,0:2:0:0:
400,24,73727,1,2,1:2:0:0:
360,192,73877,2,0,P|288:228|200:192,1,180,2|2,0:2|0:2,0:0:0:0:
280,40,74327,2,0,L|280:140,1,90,2|2,1:2|0:2,0:0:0:0:
280,304,74627,6,0,L|136:300,1,135,6|0,3:2|0:0,0:0:0:0:
144,208,74927,2,0,L|278:211,1,135,2|0,1:2|0:0,0:0:0:0:
364,162,75227,6,0,L|368:28,1,135,6|0,3:2|0:0,0:0:0:0:
459,26,75528,2,0,L|456:161,1,135,2|0,1:2|0:0,0:0:0:0:
412,240,75827,2,0,L|408:336,1,90,2|2,3:2|0:2,0:0:0:0:
504,288,76127,1,0,1:2:0:0:
324,216,76277,2,0,P|304:280|324:344,1,135,6|0,3:2|0:0,0:0:0:0:
188,343,76577,2,0,P|207:279|188:216,1,135,2|0,1:2|0:0,0:0:0:0:
84,312,76877,6,0,P|35:313|98:287,1,180,6|2,3:2|3:2,0:0:0:0:
208,276,77327,1,2,1:2:0:0:
156,192,77477,1,2,0:2:0:0:
168,372,77627,2,0,P|217:379|262:362,1,90,2|2,3:2|0:2,0:0:0:0:
384,260,77927,2,0,P|335:255|294:273,1,90,2|2,1:2|0:2,0:0:0:0:
328,156,78227,5,2,3:2:0:0:
460,207,78377,1,2,0:2:0:0:
378,73,78527,1,0,1:2:0:0:
384,260,78677,2,0,P|271:257|217:201,1,180,2|2,3:2|3:2,0:0:0:0:
56,40,79277,6,0,L|72:240,1,180,6|2,3:2|3:2,0:0:0:0:
168,304,79727,2,0,P|124:324|72:312,1,90,2|2,1:2|0:2,0:0:0:0:
160,216,80027,1,2,3:2:0:0:
252,284,80177,1,2,0:2:0:0:
244,108,80327,2,0,L|248:204,1,90,2|2,1:2|0:2,0:0:0:0:
260,376,80627,6,0,L|356:372,2,90,2|2|2,3:2|0:2|1:2,0:0:0:0:
332,244,81077,2,0,P|384:231|329:265,1,180,2|2,3:2|3:2,0:0:0:0:
468,28,81677,6,0,L|464:208,1,180,6|2,3:2|3:2,0:0:0:0:
384,112,82127,2,0,L|380:224,1,90,2|2,1:2|0:2,0:0:0:0:
412,332,82427,1,2,1:2:0:0:
488,284,82577,1,2,0:2:0:0:
344,272,82727,2,0,P|324:336|336:380,1,90,2|2,1:2|0:2,0:0:0:0:
420,216,83027,5,2,3:2:0:0:
252,264,83177,1,2,0:2:0:0:
312,152,83327,1,2,1:2:0:0:
444,304,83477,2,0,P|492:272|484:152,1,180,2|2,3:2|3:2,0:0:0:0:
252,64,84077,6,0,B|128:51|128:51|161:42|180:20,1,180,6|2,3:2|3:2,0:0:0:0:
327,32,84527,2,0,P|331:84|315:120,1,90,2|2,1:2|0:2,0:0:0:0:
299,280,84827,2,0,P|283:238|288:194,1,90,2|2,3:2|0:2,0:0:0:0:
383,228,85127,1,2,1:2:0:0:
199,248,85277,1,2,0:2:0:0:
307,372,85427,6,0,L|495:352,1,180,2|2,3:2|1:2,0:0:0:0:
466,173,85877,2,0,L|486:361,1,180,2|2,3:2|3:2,0:0:0:0:
380,188,86327,2,0,L|392:300,1,90,2|2,1:2|3:2,0:0:0:0:
408,96,86627,5,2,3:2:0:0:
288,132,86777,1,2,0:2:0:0:
311,8,86927,1,2,1:2:0:0:
104,96,87227,5,2,3:2:0:0:
224,132,87377,1,2,0:2:0:0:
201,8,87527,1,2,1:2:0:0:
192,264,87827,5,2,3:2:0:0:
317,262,87977,1,2,0:2:0:0:
256,372,88127,1,2,1:2:0:0:
312,180,88277,2,0,P|364:196|384:312,1,180,6|0,3:2|3:2,0:0:0:0:
317,262,88727,1,0,1:0:0:0:
240,132,88877,2,0,L|256:37,1,90,4|0,3:3|0:0,0:0:0:0:
