osu file format v14

[General]
AudioFilename: audio.mp3
AudioLeadIn: 0
PreviewTime: 45752
Countdown: 0
SampleSet: None
StackLeniency: 0.3
Mode: 1
LetterboxInBreaks: 0
WidescreenStoryboard: 0

[Editor]
Bookmarks: 836,7427,16877,26777,36227,45827,55427,63827,65027,76877,86627,88877
DistanceSpacing: 1.3
BeatDivisor: 4
GridSize: 32
TimelineZoom: 2.799999

[Metadata]
Title:Hallelujah*Essaim
TitleUnicode:ハレルヤ☆エッサイム
Artist:Tomita Miyu, Onishi Saori, Ohzora Naomi, Hanazawa Kana
ArtistUnicode:富田美憂、大西沙織、大空直美、花澤香菜
Creator:Pachiru
Version:Ayyri's Muzukashii
Source:ガヴリールドロップアウト
Tags:Asherz007 Left Celektus dropout gabdro ガヴドロ ending ed tv size tenma gabriel white 天真・ガヴリール・ホワイト tsukinose vignette april 月乃瀬・ヴィネット・エイプリル vigne ヴィーネ kurumizawa satanichia mcdowell 胡桃沢・サタニキア・マクドウェル satania サターニャ shiraha raphiel ainsworth 白羽・ラフィエル・エインズワース
BeatmapID:1755579
BeatmapSetID:665257

[Difficulty]
HPDrainRate:5
CircleSize:2
OverallDifficulty:5
ApproachRate:10
SliderMultiplier:1.4
SliderTickRate:1

[Events]
//Background and Video events
0,0,"Gabriel DropOut.jpg",0,75
//Break Periods
//Storyboard Layer 0 (Background)
//Storyboard Layer 1 (Fail)
//Storyboard Layer 2 (Pass)
//Storyboard Layer 3 (Foreground)
//Storyboard Sound Samples

[TimingPoints]
836,300,3,1,0,75,1,0
3536,348.837209302326,4,1,0,75,1,0
3536,-83.3333333333333,4,1,0,75,0,0
3884,375,4,1,0,75,1,8
4259,468.75,4,1,0,75,1,8
4727,500,4,1,0,75,1,0
6227,300,4,1,0,75,1,0
26777,-100,4,1,0,50,0,0
36227,-100,4,1,0,75,0,0
55427,-100,4,1,0,75,0,1
63827,-100,4,1,0,75,0,0
65027,-100,4,1,0,75,0,1
76877,-100,4,1,0,75,0,0

[Colours]
Combo1 : 210,105,0
Combo2 : 193,0,0
Combo3 : 206,0,206
Combo4 : 245,82,106
Combo5 : 115,0,230
Combo6 : 255,157,60

[HitObjects]
256,192,836,5,12,0:0:0:0:
256,192,1136,1,0,0:0:0:0:
256,192,1436,1,0,0:0:0:0:
256,192,1736,1,12,0:0:0:0:
256,192,2336,1,0,0:0:0:0:
256,192,2636,1,12,0:0:0:0:
256,192,2936,1,0,0:0:0:0:
256,192,3236,1,0,0:0:0:0:
256,192,3536,1,12,0:0:0:0:
256,192,3710,8,0,5977,0:0:0:0:
256,192,6227,5,8,0:0:0:0:
256,192,6527,1,8,0:0:0:0:
256,192,6827,1,8,0:0:0:0:
256,192,6977,1,8,0:0:0:0:
256,192,7127,1,8,0:0:0:0:
256,192,7427,1,12,0:0:0:0:
256,192,7877,1,12,0:0:0:0:
256,192,8327,1,12,0:0:0:0:
256,192,8627,1,4,0:0:0:0:
256,192,8927,1,4,0:0:0:0:
256,192,9227,1,12,0:0:0:0:
256,192,9377,1,0,0:0:0:0:
256,192,9527,1,12,0:0:0:0:
256,192,9677,1,0,0:0:0:0:
256,192,9827,1,12,0:0:0:0:
256,192,10277,1,12,0:0:0:0:
256,192,10727,1,12,0:0:0:0:
256,192,11027,1,4,0:0:0:0:
256,192,11327,1,4,0:0:0:0:
256,192,11627,1,12,0:0:0:0:
256,192,11927,1,12,0:0:0:0:
256,192,12077,1,0,0:0:0:0:
256,192,12227,1,12,0:0:0:0:
256,192,12677,1,12,0:0:0:0:
256,192,13127,1,12,0:0:0:0:
256,192,13427,1,4,0:0:0:0:
256,192,13727,1,4,0:0:0:0:
256,192,14027,1,12,0:0:0:0:
256,192,14177,1,0,0:0:0:0:
256,192,14327,1,12,0:0:0:0:
256,192,14477,1,0,0:0:0:0:
256,192,14627,1,12,0:0:0:0:
256,192,15227,1,0,0:0:0:0:
256,192,15827,1,8,0:0:0:0:
256,192,15977,1,0,0:0:0:0:
256,192,16277,1,0,0:0:0:0:
256,192,16577,1,8,0:0:0:0:
256,192,16727,1,0,0:0:0:0:
256,192,16877,1,12,0:0:0:0:
256,192,17177,1,0,0:0:0:0:
256,192,17327,1,8,0:0:0:0:
256,192,17402,1,8,0:0:0:0:
256,192,17477,1,8,0:0:0:0:
256,192,17627,1,0,0:0:0:0:
256,192,17927,1,0,0:0:0:0:
256,192,18227,1,8,0:0:0:0:
256,192,18377,1,0,0:0:0:0:
256,192,18677,1,8,0:0:0:0:
256,192,19277,1,12,0:0:0:0:
256,192,19577,1,0,0:0:0:0:
256,192,19727,1,8,0:0:0:0:
256,192,19802,1,8,0:0:0:0:
256,192,19877,1,8,0:0:0:0:
256,192,20027,1,0,0:0:0:0:
256,192,20327,1,8,0:0:0:0:
256,192,20627,1,8,0:0:0:0:
256,192,20777,1,8,0:0:0:0:
256,192,20927,1,0,0:0:0:0:
256,192,21077,1,8,0:0:0:0:
256,192,21377,1,0,0:0:0:0:
256,192,21677,1,12,0:0:0:0:
256,192,21977,1,0,0:0:0:0:
256,192,22127,1,8,0:0:0:0:
256,192,22202,1,8,0:0:0:0:
256,192,22277,1,8,0:0:0:0:
256,192,22427,1,0,0:0:0:0:
256,192,22727,1,0,0:0:0:0:
256,192,23027,1,8,0:0:0:0:
256,192,23177,1,0,0:0:0:0:
256,192,23477,1,8,0:0:0:0:
256,192,24077,1,12,0:0:0:0:
256,192,24377,1,0,0:0:0:0:
256,192,24527,1,8,0:0:0:0:
256,192,24602,1,8,0:0:0:0:
256,192,24677,1,8,0:0:0:0:
256,192,24827,1,0,0:0:0:0:
256,192,25127,1,8,0:0:0:0:
256,192,25427,1,8,0:0:0:0:
256,192,25577,1,8,0:0:0:0:
256,192,25727,1,0,0:0:0:0:
256,192,25877,1,12,0:0:0:0:
256,192,26177,1,8,0:0:0:0:
256,192,26477,1,0,0:0:0:0:
256,192,26777,1,8,0:0:0:0:
256,192,27077,1,8,0:0:0:0:
256,192,27227,1,8,0:0:0:0:
256,192,27827,1,0,0:0:0:0:
256,192,27977,1,8,0:0:0:0:
256,192,28127,1,0,0:0:0:0:
256,192,28277,1,8,0:0:0:0:
256,192,28577,1,12,0:0:0:0:
256,192,28727,1,12,0:0:0:0:
256,192,28877,1,12,0:0:0:0:
256,192,29177,1,0,0:0:0:0:
256,192,29477,1,0,0:0:0:0:
256,192,29627,1,8,0:0:0:0:
256,192,29927,1,8,0:0:0:0:
256,192,30077,1,0,0:0:0:0:
256,192,30227,1,8,0:0:0:0:
256,192,30527,1,8,0:0:0:0:
256,192,30677,1,8,0:0:0:0:
256,192,30977,1,12,0:0:0:0:
256,192,31127,1,12,0:0:0:0:
256,192,31277,1,12,0:0:0:0:
256,192,31577,1,0,0:0:0:0:
256,192,31727,1,8,0:0:0:0:
256,192,32027,1,8,0:0:0:0:
256,192,32627,1,8,0:0:0:0:
256,192,32777,1,0,0:0:0:0:
256,192,32927,1,8,0:0:0:0:
256,192,33077,1,8,0:0:0:0:
256,192,33377,1,4,0:0:0:0:
256,192,33527,1,4,0:0:0:0:
256,192,33677,1,4,0:0:0:0:
256,192,33977,1,8,0:0:0:0:
256,192,34127,1,0,0:0:0:0:
256,192,34427,1,8,0:0:0:0:
256,192,35027,1,0,0:0:0:0:
256,192,35327,1,0,0:0:0:0:
256,192,35627,1,8,0:0:0:0:
256,192,35702,1,8,0:0:0:0:
256,192,35777,1,8,0:0:0:0:
256,192,35927,1,0,0:0:0:0:
256,192,36227,1,12,0:0:0:0:
256,192,36377,1,0,0:0:0:0:
256,192,36527,1,8,0:0:0:0:
256,192,36827,1,0,0:0:0:0:
256,192,36977,1,0,0:0:0:0:
256,192,37127,1,8,0:0:0:0:
256,192,37427,1,0,0:0:0:0:
256,192,37877,1,8,0:0:0:0:
256,192,38177,1,12,0:0:0:0:
256,192,38327,1,4,0:0:0:0:
256,192,38477,1,12,0:0:0:0:
256,192,38777,1,0,0:0:0:0:
256,192,38927,1,0,0:0:0:0:
256,192,39227,1,8,0:0:0:0:
256,192,39827,1,0,0:0:0:0:
256,192,40127,1,0,0:0:0:0:
256,192,40277,1,8,0:0:0:0:
256,192,40577,1,12,0:0:0:0:
256,192,40727,1,4,0:0:0:0:
256,192,40877,1,12,0:0:0:0:
256,192,41177,1,0,0:0:0:0:
256,192,41327,1,8,0:0:0:0:
256,192,41627,1,8,0:0:0:0:
256,192,42227,1,8,0:0:0:0:
256,192,42527,1,0,0:0:0:0:
256,192,42677,1,8,0:0:0:0:
256,192,42977,1,0,0:0:0:0:
256,192,43277,1,8,0:0:0:0:
256,192,43427,1,4,0:0:0:0:
256,192,43727,1,8,0:0:0:0:
256,192,43877,1,4,0:0:0:0:
256,192,44177,1,0,0:0:0:0:
256,192,44327,1,12,0:0:0:0:
256,192,44627,1,0,0:0:0:0:
256,192,44927,1,8,0:0:0:0:
256,192,45077,1,0,0:0:0:0:
256,192,45227,1,8,0:0:0:0:
256,192,45827,1,0,0:0:0:0:
256,192,46727,1,0,0:0:0:0:
256,192,46877,1,8,0:0:0:0:
256,192,47027,1,0,0:0:0:0:
256,192,47327,1,0,0:0:0:0:
256,192,47627,1,8,0:0:0:0:
256,192,47927,1,0,0:0:0:0:
256,192,48227,1,8,0:0:0:0:
256,192,48977,1,0,0:0:0:0:
256,192,49127,1,8,0:0:0:0:
256,192,49277,1,8,0:0:0:0:
256,192,49427,1,0,0:0:0:0:
256,192,49727,1,0,0:0:0:0:
256,192,50027,1,8,0:0:0:0:
256,192,50327,1,0,0:0:0:0:
256,192,50627,1,8,0:0:0:0:
256,192,50927,1,8,0:0:0:0:
256,192,51227,1,0,0:0:0:0:
256,192,51827,1,0,0:0:0:0:
256,192,52127,1,8,0:0:0:0:
256,192,52427,1,0,0:0:0:0:
256,192,52727,1,8,0:0:0:0:
256,192,53027,1,4,0:0:0:0:
256,192,53327,1,4,0:0:0:0:
256,192,53627,1,4,0:0:0:0:
256,192,53927,1,4,0:0:0:0:
256,192,54077,1,12,0:0:0:0:
256,192,54377,1,4,0:0:0:0:
256,192,54677,1,4,0:0:0:0:
256,192,54827,1,12,0:0:0:0:
256,192,55127,1,0,0:0:0:0:
256,192,55427,1,12,0:0:0:0:
256,192,55727,1,0,0:0:0:0:
256,192,55877,1,8,0:0:0:0:
256,192,56177,1,0,0:0:0:0:
256,192,56327,1,8,0:0:0:0:
256,192,56402,1,8,0:0:0:0:
256,192,56477,1,8,0:0:0:0:
256,192,56627,1,8,0:0:0:0:
256,192,57227,1,8,0:0:0:0:
256,192,57377,1,0,0:0:0:0:
256,192,57527,1,8,0:0:0:0:
256,192,57677,1,0,0:0:0:0:
256,192,57827,1,8,0:0:0:0:
256,192,58127,1,0,0:0:0:0:
256,192,58277,1,8,0:0:0:0:
256,192,58577,1,0,0:0:0:0:
256,192,58727,1,8,0:0:0:0:
256,192,58802,1,8,0:0:0:0:
256,192,58877,1,8,0:0:0:0:
256,192,59027,1,8,0:0:0:0:
256,192,59627,1,8,0:0:0:0:
256,192,59777,1,0,0:0:0:0:
256,192,59927,1,8,0:0:0:0:
256,192,60077,1,0,0:0:0:0:
256,192,60227,1,12,0:0:0:0:
256,192,60527,1,0,0:0:0:0:
256,192,60677,1,8,0:0:0:0:
256,192,60977,1,0,0:0:0:0:
256,192,61127,1,8,0:0:0:0:
256,192,61202,1,8,0:0:0:0:
256,192,61277,1,8,0:0:0:0:
256,192,61427,1,8,0:0:0:0:
256,192,62027,1,0,0:0:0:0:
256,192,62177,1,0,0:0:0:0:
256,192,62327,1,8,0:0:0:0:
256,192,62627,1,0,0:0:0:0:
256,192,62702,1,0,0:0:0:0:
256,192,62777,1,0,0:0:0:0:
256,192,62927,1,8,0:0:0:0:
256,192,63227,1,0,0:0:0:0:
256,192,63302,1,0,0:0:0:0:
256,192,63377,1,0,0:0:0:0:
256,192,63527,1,8,0:0:0:0:
256,192,63827,1,0,0:0:0:0:
256,192,64127,1,8,0:0:0:0:
256,192,64277,1,0,0:0:0:0:
256,192,64577,1,0,0:0:0:0:
256,192,64727,1,8,0:0:0:0:
256,192,65027,1,12,0:0:0:0:
256,192,65327,1,0,0:0:0:0:
256,192,65477,1,8,0:0:0:0:
256,192,65777,1,0,0:0:0:0:
256,192,65927,1,8,0:0:0:0:
256,192,66002,1,8,0:0:0:0:
256,192,66077,1,8,0:0:0:0:
256,192,66227,1,8,0:0:0:0:
256,192,66827,1,0,0:0:0:0:
256,192,66977,1,0,0:0:0:0:
256,192,67127,1,8,0:0:0:0:
256,192,67277,1,0,0:0:0:0:
256,192,67427,1,8,0:0:0:0:
256,192,67727,1,0,0:0:0:0:
256,192,67877,1,8,0:0:0:0:
256,192,68177,1,0,0:0:0:0:
256,192,68327,1,8,0:0:0:0:
256,192,68402,1,8,0:0:0:0:
256,192,68477,1,8,0:0:0:0:
256,192,68627,1,8,0:0:0:0:
256,192,69227,1,0,0:0:0:0:
256,192,69377,1,0,0:0:0:0:
256,192,69527,1,8,0:0:0:0:
256,192,69677,1,0,0:0:0:0:
256,192,69827,1,12,0:0:0:0:
256,192,70127,1,0,0:0:0:0:
256,192,70277,1,8,0:0:0:0:
256,192,70577,1,0,0:0:0:0:
256,192,70727,1,8,0:0:0:0:
256,192,70802,1,8,0:0:0:0:
256,192,70877,1,8,0:0:0:0:
256,192,71027,1,8,0:0:0:0:
256,192,71627,1,0,0:0:0:0:
256,192,71777,1,0,0:0:0:0:
256,192,71927,1,8,0:0:0:0:
256,192,72227,1,0,0:0:0:0:
256,192,72302,1,0,0:0:0:0:
256,192,72377,1,0,0:0:0:0:
256,192,72527,1,8,0:0:0:0:
256,192,72827,1,0,0:0:0:0:
256,192,72902,1,0,0:0:0:0:
256,192,72977,1,0,0:0:0:0:
256,192,73127,1,8,0:0:0:0:
256,192,73427,1,0,0:0:0:0:
256,192,73577,1,0,0:0:0:0:
256,192,73727,1,8,0:0:0:0:
256,192,73877,1,8,0:0:0:0:
256,192,74177,1,0,0:0:0:0:
256,192,74327,1,8,0:0:0:0:
256,192,74627,1,0,0:0:0:0:
256,192,74702,1,0,0:0:0:0:
256,192,74777,1,0,0:0:0:0:
256,192,74927,1,8,0:0:0:0:
256,192,75227,1,0,0:0:0:0:
256,192,75302,1,0,0:0:0:0:
256,192,75377,1,0,0:0:0:0:
256,192,75527,1,8,0:0:0:0:
256,192,75827,1,8,0:0:0:0:
256,192,76277,1,8,0:0:0:0:
256,192,76577,1,0,0:0:0:0:
256,192,76877,1,12,0:0:0:0:
256,192,77177,1,0,0:0:0:0:
256,192,77327,1,8,0:0:0:0:
256,192,77402,1,8,0:0:0:0:
256,192,77477,1,8,0:0:0:0:
256,192,77627,1,0,0:0:0:0:
256,192,77927,1,0,0:0:0:0:
256,192,78227,1,8,0:0:0:0:
256,192,78377,1,0,0:0:0:0:
256,192,78677,1,8,0:0:0:0:
256,192,79277,1,12,0:0:0:0:
256,192,79577,1,0,0:0:0:0:
256,192,79727,1,8,0:0:0:0:
256,192,79802,1,8,0:0:0:0:
256,192,79877,1,8,0:0:0:0:
256,192,80027,1,0,0:0:0:0:
256,192,80327,1,8,0:0:0:0:
256,192,80627,1,8,0:0:0:0:
256,192,80777,1,8,0:0:0:0:
256,192,80927,1,0,0:0:0:0:
256,192,81077,1,8,0:0:0:0:
256,192,81377,1,0,0:0:0:0:
256,192,81677,1,12,0:0:0:0:
256,192,81977,1,0,0:0:0:0:
256,192,82127,1,8,0:0:0:0:
256,192,82202,1,8,0:0:0:0:
256,192,82277,1,8,0:0:0:0:
256,192,82427,1,0,0:0:0:0:
256,192,82727,1,0,0:0:0:0:
256,192,83027,1,8,0:0:0:0:
256,192,83177,1,0,0:0:0:0:
256,192,83477,1,8,0:0:0:0:
256,192,84077,1,12,0:0:0:0:
256,192,84377,1,0,0:0:0:0:
256,192,84527,1,8,0:0:0:0:
256,192,84602,1,8,0:0:0:0:
256,192,84677,1,8,0:0:0:0:
256,192,84827,1,0,0:0:0:0:
256,192,85127,1,8,0:0:0:0:
256,192,85427,1,8,0:0:0:0:
256,192,85577,1,8,0:0:0:0:
256,192,85727,1,0,0:0:0:0:
256,192,85877,1,12,0:0:0:0:
256,192,86177,1,0,0:0:0:0:
256,192,86477,1,8,0:0:0:0:
256,192,86627,1,0,0:0:0:0:
256,192,86927,1,12,0:0:0:0:
256,192,87227,1,0,0:0:0:0:
256,192,87527,1,12,0:0:0:0:
256,192,87827,1,0,0:0:0:0:
256,192,88127,1,0,0:0:0:0:
256,192,88277,1,12,0:0:0:0:
256,192,88577,1,0,0:0:0:0:
256,192,88727,1,8,0:0:0:0:
256,192,88877,1,0,0:0:0:0:
