osu file format v14

[General]
AudioFilename: audio.mp3
AudioLeadIn: 0
PreviewTime: 45752
Countdown: 0
SampleSet: None
StackLeniency: 0.4
Mode: 3
LetterboxInBreaks: 0
SpecialStyle: 0
WidescreenStoryboard: 1

[Editor]
Bookmarks: 16877,26627,36227,45827,53027,55427,65027,76877
DistanceSpacing: 1.4
BeatDivisor: 4
GridSize: 4
TimelineZoom: 1.4

[Metadata]
Title:Hallelujah*Essaim
TitleUnicode:ハレルヤ☆エッサイム
Artist:Tomita Miyu, Onishi Saori, Ohzora Naomi, Hanazawa Kana
ArtistUnicode:富田美憂、大西沙織、大空直美、花澤香菜
Creator:Pachiru
Version:Ash's MX
Source:ガヴリールドロップアウト
Tags:Asherz007 Left Celektus dropout gabdro ガヴドロ ending ed tv size tenma gabriel white 天真・ガヴリール・ホワイト tsukinose vignette april 月乃瀬・ヴィネット・エイプリル vigne ヴィーネ kurumizawa satanichia mcdowell 胡桃沢・サタニキア・マクドウェル satania サターニャ shiraha raphiel ainsworth 白羽・ラフィエル・エインズワース
BeatmapID:1676205
BeatmapSetID:665257

[Difficulty]
HPDrainRate:8.5
CircleSize:4
OverallDifficulty:8
ApproachRate:5
SliderMultiplier:1.6
SliderTickRate:1

[Events]
//Background and Video events
0,0,"leftBG.png",0,0
//Break Periods
//Storyboard Layer 0 (Background)
//Storyboard Layer 1 (Fail)
//Storyboard Layer 2 (Pass)
//Storyboard Layer 3 (Foreground)
//Storyboard Sound Samples

[TimingPoints]
836,300,3,3,2,70,1,0
3536,348.837209302326,4,3,2,70,1,0
3536,-86.0585197934596,4,3,2,70,0,0
3884,375,4,3,2,70,1,0
3884,-80,4,3,2,70,0,0
4259,468.75,4,3,2,70,1,0
4259,-64,4,3,2,70,0,0
4727,500,4,3,2,70,1,0
4727,-60.000000024,4,3,2,70,0,0
5602,-10,4,3,2,70,0,0
6227,300,4,3,2,70,1,0
6227,-1000,4,3,2,70,0,0
6489,-45.4545454545455,4,3,2,70,0,0
6527,-1000,4,3,2,70,0,0
6789,-90.9090909090909,4,3,2,70,0,0
6827,-1000,4,3,2,70,0,0
6939,-90.9090909090909,4,3,2,70,0,0
6977,-1000,4,3,2,70,0,0
7089,-45.4545454545455,4,3,2,70,0,0
7127,-500,4,3,2,70,0,0
7164,-333.333333333333,4,3,2,70,0,0
7202,-250,4,3,2,70,0,0
7239,-200,4,3,2,70,0,0
7277,-166.666666666667,4,3,2,70,0,0
7314,-142.857142857143,4,3,2,70,0,0
7352,-125,4,3,2,70,0,0
7389,-111.111111111111,4,3,2,70,0,0
7427,-100,4,3,2,70,0,0
8627,-71.4285714285714,4,3,2,70,0,0
8702,-250,4,3,2,70,0,0
8927,-71.4285714285714,4,3,2,70,0,0
9002,-250,4,3,2,70,0,0
9114,-181.818181818182,4,3,2,70,0,0
9152,-142.857142857143,4,3,2,70,0,0
9189,-117.647058823529,4,3,2,70,0,0
9227,-100,4,3,2,70,0,0
11027,-71.4285714285714,4,3,2,70,0,0
11102,-250,4,3,2,70,0,0
11327,-71.4285714285714,4,3,2,70,0,0
11402,-250,4,3,2,70,0,0
11514,-181.818181818182,4,3,2,70,0,0
11552,-142.857142857143,4,3,2,70,0,0
11589,-117.647058823529,4,3,2,70,0,0
11627,-100,4,3,2,70,0,0
13427,-71.4285714285714,4,3,2,70,0,0
13502,-250,4,3,2,70,0,0
13727,-71.4285714285714,4,3,2,70,0,0
13802,-250,4,3,2,70,0,0
13914,-181.818181818182,4,3,2,70,0,0
13952,-142.857142857143,4,3,2,70,0,0
13989,-117.647058823529,4,3,2,70,0,0
14027,-100,4,3,2,70,0,0
14927,-121.951219512195,4,3,2,70,0,0
15152,-64.9350649350649,4,3,2,70,0,0
15227,-100,4,3,2,70,0,0
15527,-121.951219512195,4,3,2,70,0,0
15752,-64.9350649350649,4,3,2,70,0,0
15827,-100,4,3,2,70,0,0
18677,-49.3827160493827,4,3,2,70,0,0
18714,-196.078431372549,4,3,2,70,0,0
18752,-172.413793103448,4,3,2,70,0,0
18789,-153.846153846154,4,3,2,70,0,0
18827,-138.888888888889,4,3,2,70,0,0
18864,-126.582278481013,4,3,2,70,0,0
18902,-116.279069767442,4,3,2,70,0,0
18939,-107.52688172043,4,3,2,70,0,0
18977,-100,4,3,2,70,0,0
21077,-49.3827160493827,4,3,2,70,0,0
21114,-196.078431372549,4,3,2,70,0,0
21152,-172.413793103448,4,3,2,70,0,0
21189,-153.846153846154,4,3,2,70,0,0
21227,-138.888888888889,4,3,2,70,0,0
21264,-126.582278481013,4,3,2,70,0,0
21302,-116.279069767442,4,3,2,70,0,0
21339,-107.52688172043,4,3,2,70,0,0
21377,-100,4,3,2,70,0,0
23477,-49.3827160493827,4,3,2,70,0,0
23514,-196.078431372549,4,3,2,70,0,0
23552,-172.413793103448,4,3,2,70,0,0
23589,-153.846153846154,4,3,2,70,0,0
23627,-138.888888888889,4,3,2,70,0,0
23664,-126.582278481013,4,3,2,70,0,0
23702,-116.279069767442,4,3,2,70,0,0
23739,-107.52688172043,4,3,2,70,0,0
23777,-100,4,3,2,70,0,0
25877,-49.3827160493827,4,3,2,70,0,0
25914,-196.078431372549,4,3,2,70,0,0
25952,-172.413793103448,4,3,2,70,0,0
25989,-153.846153846154,4,3,2,70,0,0
26027,-138.888888888889,4,3,2,70,0,0
26064,-126.582278481013,4,3,2,70,0,0
26102,-116.279069767442,4,3,2,70,0,0
26139,-107.52688172043,4,3,2,70,0,0
26177,-78.125,4,3,2,70,0,0
26252,-138.888888888889,4,3,2,70,0,0
26327,-78.125,4,3,2,70,0,0
26402,-138.888888888889,4,3,2,70,0,0
26477,-78.125,4,3,2,70,0,0
26552,-138.888888888889,4,3,2,70,0,0
26627,-100,4,3,2,70,0,0
28577,-78.125,4,3,2,70,0,0
28652,-138.888888888889,4,3,2,70,0,0
28727,-78.125,4,3,2,70,0,0
28802,-138.888888888889,4,3,2,70,0,0
28877,-78.125,4,3,2,70,0,0
28952,-138.888888888889,4,3,2,70,0,0
29027,-100,4,3,2,70,0,0
30977,-78.125,4,3,2,70,0,0
31052,-138.888888888889,4,3,2,70,0,0
31127,-78.125,4,3,2,70,0,0
31202,-138.888888888889,4,3,2,70,0,0
31277,-78.125,4,3,2,70,0,0
31352,-138.888888888889,4,3,2,70,0,0
31427,-100,4,3,2,70,0,0
33377,-78.125,4,3,2,70,0,0
33452,-138.888888888889,4,3,2,70,0,0
33527,-78.125,4,3,2,70,0,0
33602,-138.888888888889,4,3,2,70,0,0
33677,-100,4,3,2,70,0,0
35627,-86.9565217391304,4,3,2,70,0,0
35727,-142.857142857143,4,3,2,70,0,0
35777,-86.9565217391304,4,3,2,70,0,0
35877,-142.857142857143,4,3,2,70,0,0
35927,-76.9230769230769,4,3,2,70,0,0
35964,-142.857142857143,4,3,2,70,0,0
36002,-76.9230769230769,4,3,2,70,0,0
36039,-142.857142857143,4,3,2,70,0,0
36077,-76.9230769230769,4,3,2,70,0,0
36114,-142.857142857143,4,3,2,70,0,0
36152,-76.9230769230769,4,3,2,70,0,0
36189,-142.857142857143,4,3,2,70,0,0
36227,-100,4,3,2,70,0,0
45227,-17.0940170940171,4,3,2,70,0,0
45264,-1000,4,3,2,70,0,0
45527,-500,4,3,2,70,0,0
45602,-333.333333333333,4,3,2,70,0,0
45640,-250,4,3,2,70,0,0
45677,-200,4,3,2,70,0,0
45715,-166.666666666667,4,3,2,70,0,0
45752,-142.857142857143,4,3,2,70,0,0
45790,-125,4,3,2,70,0,0
45827,-111.111111111111,4,3,2,100,0,0
47027,-109.89010989011,4,3,2,100,0,0
47327,-108.695652173913,4,3,2,100,0,0
47627,-107.52688172043,4,3,2,100,0,0
47927,-106.382978723404,4,3,2,100,0,0
48227,-105.263157894737,4,3,2,100,0,0
49427,-104.166666666667,4,3,2,100,0,0
49727,-103.092783505155,4,3,2,100,0,0
50027,-102.040816326531,4,3,2,100,0,0
50327,-101.010101010101,4,3,2,100,0,0
50627,-100,4,3,2,100,0,0
53027,-250,4,3,2,70,0,0
53252,-45.4545454545455,4,3,2,70,0,0
53327,-250,4,3,2,70,0,0
53552,-45.4545454545455,4,3,2,70,0,0
53627,-250,4,3,2,70,0,0
53852,-45.4545454545455,4,3,2,70,0,0
53927,-250,4,3,2,70,0,0
54002,-71.4285714285714,4,3,2,70,0,0
54077,-250,4,3,2,70,0,0
54302,-45.4545454545455,4,3,2,70,0,0
54377,-250,4,3,2,70,0,0
54602,-45.4545454545455,4,3,2,70,0,0
54677,-250,4,3,2,70,0,0
54752,-71.4285714285714,4,3,2,70,0,0
54902,-160,4,3,2,70,0,0
54977,-133.333333333333,4,3,2,70,0,0
55052,-114.285714285714,4,3,2,70,0,0
55127,-100,4,3,2,70,0,0
55427,-100,4,3,2,70,0,1
62927,-121.951219512195,4,3,2,70,0,1
63152,-64.9350649350649,4,3,2,70,0,1
63227,-100,4,3,2,70,0,1
63527,-121.951219512195,4,3,2,70,0,1
63752,-64.9350649350649,4,3,2,70,0,1
63827,-100,4,3,2,70,0,1
64727,-100,4,3,2,70,0,0
65027,-100,4,3,2,70,0,1
72527,-121.951219512195,4,3,2,70,0,1
72752,-64.9350649350649,4,3,2,70,0,1
72827,-100,4,3,2,70,0,1
73127,-121.951219512195,4,3,2,70,0,1
73352,-64.9350649350649,4,3,2,70,0,1
73427,-100,4,3,2,70,0,1
73727,-121.951219512195,4,3,2,70,0,1
73952,-64.9350649350649,4,3,2,70,0,1
74027,-100,4,3,2,70,0,1
74327,-121.951219512195,4,3,2,70,0,1
74552,-64.9350649350649,4,3,2,70,0,1
74627,-100,4,3,2,70,0,1
74927,-121.951219512195,4,3,2,70,0,1
75152,-64.9350649350649,4,3,2,70,0,1
75227,-100,4,3,2,70,0,1
75527,-121.951219512195,4,3,2,70,0,1
75752,-64.9350649350649,4,3,2,70,0,1
75827,-100,4,3,2,70,0,1
76877,-100,4,3,2,70,0,0
78677,-49.3827160493827,4,3,2,70,0,0
78714,-196.078431372549,4,3,2,70,0,0
78752,-172.413793103448,4,3,2,70,0,0
78789,-153.846153846154,4,3,2,70,0,0
78827,-138.888888888889,4,3,2,70,0,0
78864,-126.582278481013,4,3,2,70,0,0
78902,-116.279069767442,4,3,2,70,0,0
78939,-107.52688172043,4,3,2,70,0,0
78977,-100,4,3,2,70,0,0
81077,-49.3827160493827,4,3,2,70,0,0
81114,-196.078431372549,4,3,2,70,0,0
81152,-172.413793103448,4,3,2,70,0,0
81189,-153.846153846154,4,3,2,70,0,0
81227,-138.888888888889,4,3,2,70,0,0
81264,-126.582278481013,4,3,2,70,0,0
81302,-116.279069767442,4,3,2,70,0,0
81339,-107.52688172043,4,3,2,70,0,0
81377,-100,4,3,2,70,0,0
83477,-49.3827160493827,4,3,2,70,0,0
83514,-196.078431372549,4,3,2,70,0,0
83552,-172.413793103448,4,3,2,70,0,0
83589,-153.846153846154,4,3,2,70,0,0
83627,-138.888888888889,4,3,2,70,0,0
83664,-126.582278481013,4,3,2,70,0,0
83702,-116.279069767442,4,3,2,70,0,0
83739,-107.52688172043,4,3,2,70,0,0
83777,-100,4,3,2,70,0,0
85877,-49.3827160493827,4,3,2,70,0,0
85914,-196.078431372549,4,3,2,70,0,0
85952,-172.413793103448,4,3,2,70,0,0
85989,-153.846153846154,4,3,2,70,0,0
86027,-138.888888888889,4,3,2,70,0,0
86064,-126.582278481013,4,3,2,70,0,0
86102,-116.279069767442,4,3,2,70,0,0
86139,-107.52688172043,4,3,2,70,0,0
86177,-100,4,3,2,70,0,0
86927,-121.951219512195,4,3,2,70,0,0
87152,-64.9350649350649,4,3,2,70,0,0
87227,-100,4,3,2,70,0,0
87527,-121.951219512195,4,3,2,70,0,0
87752,-64.9350649350649,4,3,2,70,0,0
87827,-100,4,3,2,70,0,0

[Colours]
Combo1 : 255,204,204
Combo2 : 255,255,200

[HitObjects]
192,192,386,5,0,0:0:0:0:
320,192,461,1,0,0:0:0:0:
448,192,536,1,0,0:0:0:0:
64,192,586,1,0,0:0:0:0:
192,192,636,1,0,0:0:0:0:
320,192,686,1,0,0:0:0:0:
448,192,723,1,0,0:0:0:0:
64,192,761,1,0,0:0:0:0:
192,192,798,1,0,0:0:0:0:
320,192,836,128,4,1136:2:0:0:100:
448,192,836,128,4,1736:0:0:0:0:
64,192,1136,128,0,1436:0:0:0:0:
192,192,1436,128,0,1736:0:0:0:0:
64,192,1736,128,4,2636:0:0:0:0:
320,192,1736,128,4,2336:2:0:0:100:
448,192,2336,128,0,2636:0:0:0:0:
192,192,2636,128,4,3536:0:0:0:0:
320,192,2636,128,4,2936:2:0:0:100:
448,192,2936,128,0,3236:0:0:0:0:
64,192,3236,128,0,3536:0:0:0:0:
448,192,3536,128,4,3884:0:0:0:0:
320,192,3536,128,4,3884:2:0:0:100:
64,192,3884,1,0,0:0:0:0:
192,192,3930,1,0,0:0:0:0:
320,192,3977,1,0,0:0:0:0:
448,192,4024,1,0,0:0:0:0:
64,192,4071,1,0,0:0:0:0:
192,192,4118,1,0,0:0:0:0:
320,192,4165,1,0,0:0:0:0:
448,192,4212,1,0,0:0:0:0:
64,192,4259,1,0,0:0:0:0:
192,192,4317,1,0,0:0:0:0:
320,192,4376,1,0,0:0:0:0:
448,192,4434,1,0,0:0:0:0:
64,192,4493,1,0,0:0:0:0:
192,192,4551,1,0,0:0:0:0:
320,192,4610,1,0,0:0:0:0:
448,192,4669,1,0,0:0:0:0:
64,192,4727,1,0,0:0:0:0:
192,192,4789,1,0,0:0:0:0:
320,192,4852,1,0,0:0:0:0:
448,192,4914,1,0,0:0:0:0:
64,192,4977,1,0,0:0:0:0:
192,192,5039,1,0,0:0:0:0:
320,192,5102,1,0,0:0:0:0:
448,192,5164,1,0,0:0:0:0:
64,192,5227,1,0,0:0:0:0:
192,192,5289,1,0,0:0:0:0:
320,192,5352,1,0,0:0:0:0:
448,192,5414,1,0,0:0:0:0:
64,192,5477,1,0,0:0:0:0:
192,192,5539,1,0,0:0:0:0:
320,192,5602,128,0,7427:0:0:0:0:
64,192,7427,128,0,7727:0:0:0:0:
192,192,7427,1,2,0:0:0:0:
448,192,7427,1,4,0:0:0:0:
192,192,7727,1,0,0:0:0:0:
320,192,7727,1,8,2:0:0:0:
448,192,7727,1,0,0:0:0:0:
64,192,7877,1,2,0:0:0:0:
448,192,7877,1,0,0:0:0:0:
320,192,7877,128,0,8177:0:0:0:0:
192,192,8177,1,0,0:0:0:0:
64,192,8327,1,0,0:0:0:0:
192,192,8327,128,0,8627:0:0:0:0:
448,192,8327,1,2,0:0:0:0:
320,192,8627,1,0,0:0:0:0:
64,192,9227,128,0,9377:0:0:0:0:
192,192,9227,1,2,0:0:0:0:
448,192,9527,1,2,0:0:0:0:
64,192,9527,128,0,9677:0:0:0:0:
448,192,9827,1,4,0:0:0:0:
64,192,9827,1,2,0:0:0:0:
192,192,9827,128,0,10127:0:0:0:0:
64,192,10127,1,0,0:0:0:0:
320,192,10127,1,8,0:2:0:0:
448,192,10127,1,0,0:0:0:0:
192,192,10277,1,2,0:0:0:0:
320,192,10277,128,0,10577:0:0:0:0:
448,192,10277,1,0,0:0:0:0:
64,192,10577,1,0,0:0:0:0:
64,192,10727,1,0,0:0:0:0:
192,192,10727,1,2,0:0:0:0:
448,192,10727,128,0,11027:0:0:0:0:
320,192,11027,1,0,0:0:0:0:
64,192,11627,1,2,0:0:0:0:
192,192,11627,128,0,11777:0:0:0:0:
448,192,11927,1,2,0:0:0:0:
192,192,11927,128,0,12077:0:0:0:0:
64,192,12227,1,2,0:0:0:0:
320,192,12227,128,0,12527:0:0:0:0:
448,192,12227,1,4,0:0:0:0:
192,192,12527,1,8,0:2:0:0:
64,192,12527,1,0,0:0:0:0:
448,192,12527,1,0,0:0:0:0:
192,192,12677,1,2,0:0:0:0:
320,192,12677,1,0,0:0:0:0:
64,192,12677,128,0,12977:0:0:0:0:
448,192,12977,1,0,0:0:0:0:
192,192,13127,1,2,0:0:0:0:
320,192,13127,128,0,13427:0:0:0:0:
448,192,13127,1,0,0:0:0:0:
64,192,13427,1,0,0:0:0:0:
192,192,14027,1,2,0:0:0:0:
320,192,14027,128,0,14177:0:0:0:0:
64,192,14327,1,2,0:0:0:0:
320,192,14327,128,0,14477:0:0:0:0:
64,192,14627,1,2,0:0:0:0:
192,192,14627,128,0,14777:0:0:0:0:
320,192,14777,128,0,14927:0:0:0:0:
64,192,14927,1,0,0:0:0:0:
192,192,14927,1,8,0:2:0:0:
448,192,14927,1,0,0:0:0:0:
448,192,15227,1,2,0:0:0:0:
320,192,15227,128,0,15377:0:0:0:0:
192,192,15377,128,0,15527:0:0:0:0:
64,192,15527,1,0,0:0:0:0:
320,192,15527,1,8,0:2:0:0:
448,192,15527,1,0,0:0:0:0:
64,192,15827,1,2,0:0:0:0:
192,192,15827,128,0,15977:0:0:0:0:
320,192,15977,128,0,16127:0:0:0:0:
64,192,16127,1,0,0:0:0:0:
192,192,16127,1,8,0:2:0:0:
448,192,16127,128,0,16277:0:0:0:0:
64,192,16277,1,2,0:0:0:0:
192,192,16277,128,0,16577:0:0:0:0:
64,192,16577,1,0,0:0:0:0:
320,192,16577,128,0,16727:0:0:0:0:
448,192,16577,1,8,0:2:0:0:
192,192,16727,1,8,0:2:0:0:
64,192,16727,1,0,0:0:0:0:
448,192,16727,1,0,0:0:0:0:
320,192,16877,1,2,0:0:0:0:
64,192,16877,128,4,17177:0:0:0:0:
448,192,16877,128,0,17177:0:0:0:0:
192,192,17177,1,2,0:0:0:0:
320,192,17177,1,0,0:0:0:0:
64,192,17327,1,0,0:0:0:0:
320,192,17327,1,8,0:0:0:0:
448,192,17327,1,0,0:0:0:0:
192,192,17477,1,0,0:0:0:0:
320,192,17627,1,0,0:0:0:0:
448,192,17627,1,2,0:0:0:0:
320,192,17777,1,2,0:0:0:0:
64,192,17777,1,0,0:0:0:0:
64,192,17927,1,0,0:0:0:0:
192,192,17927,1,8,0:0:0:0:
448,192,17927,1,0,0:0:0:0:
320,192,18077,1,0,0:0:0:0:
192,192,18227,1,0,0:0:0:0:
64,192,18227,1,2,0:0:0:0:
448,192,18377,1,0,0:0:0:0:
320,192,18527,1,0,0:0:0:0:
192,192,18527,1,8,0:0:0:0:
64,192,18527,1,0,0:0:0:0:
64,192,18677,1,2,0:0:0:0:
192,192,18677,1,0,0:0:0:0:
320,192,18977,1,2,0:0:0:0:
448,192,18977,1,0,0:0:0:0:
448,192,19127,1,0,0:0:0:0:
320,192,19127,1,8,0:0:0:0:
192,192,19127,1,0,0:0:0:0:
192,192,19277,1,2,0:0:0:0:
64,192,19277,128,4,19577:0:0:0:0:
448,192,19277,128,0,19577:0:0:0:0:
320,192,19577,1,2,0:0:0:0:
192,192,19577,1,0,0:0:0:0:
64,192,19727,1,0,0:0:0:0:
320,192,19727,1,8,0:0:0:0:
448,192,19727,1,0,0:0:0:0:
192,192,19877,1,0,0:0:0:0:
64,192,20027,1,0,0:0:0:0:
320,192,20027,1,2,0:0:0:0:
320,192,20177,1,0,0:0:0:0:
192,192,20177,1,2,0:0:0:0:
192,192,20327,1,0,0:0:0:0:
64,192,20327,1,8,0:0:0:0:
448,192,20327,1,0,0:0:0:0:
320,192,20477,1,0,0:0:0:0:
192,192,20627,1,2,0:0:0:0:
64,192,20627,1,0,0:0:0:0:
320,192,20777,1,0,0:0:0:0:
448,192,20927,1,0,0:0:0:0:
192,192,20927,1,8,0:0:0:0:
64,192,20927,1,0,0:0:0:0:
320,192,21077,1,2,0:0:0:0:
448,192,21077,1,0,0:0:0:0:
192,192,21377,1,2,0:0:0:0:
64,192,21377,1,0,0:0:0:0:
64,192,21527,1,0,0:0:0:0:
320,192,21527,1,8,0:0:0:0:
448,192,21527,1,0,0:0:0:0:
192,192,21677,1,2,0:0:0:0:
448,192,21677,128,0,21977:0:0:0:0:
64,192,21677,128,4,21977:0:0:0:0:
192,192,21977,1,0,0:0:0:0:
320,192,21977,1,2,0:0:0:0:
64,192,22127,1,0,0:0:0:0:
320,192,22127,1,0,0:0:0:0:
448,192,22127,1,8,0:0:0:0:
192,192,22277,1,0,0:0:0:0:
320,192,22427,1,2,0:0:0:0:
448,192,22427,1,0,0:0:0:0:
64,192,22577,1,2,0:0:0:0:
448,192,22577,1,0,0:0:0:0:
64,192,22727,1,0,0:0:0:0:
192,192,22727,1,8,0:0:0:0:
320,192,22727,1,0,0:0:0:0:
448,192,22877,1,0,0:0:0:0:
320,192,23027,1,0,0:0:0:0:
192,192,23027,1,2,0:0:0:0:
64,192,23177,1,0,0:0:0:0:
192,192,23327,1,0,0:0:0:0:
320,192,23327,1,8,0:0:0:0:
448,192,23327,1,0,0:0:0:0:
64,192,23477,1,2,0:0:0:0:
448,192,23477,1,0,0:0:0:0:
320,192,23777,1,0,0:0:0:0:
192,192,23777,1,2,0:0:0:0:
192,192,23927,1,0,0:0:0:0:
64,192,23927,1,8,0:0:0:0:
448,192,23927,1,0,0:0:0:0:
320,192,24077,1,2,0:0:0:0:
64,192,24077,128,4,24377:0:0:0:0:
448,192,24077,128,0,24377:0:0:0:0:
192,192,24377,1,2,0:0:0:0:
320,192,24377,1,0,0:0:0:0:
64,192,24527,1,0,0:0:0:0:
192,192,24527,1,8,0:0:0:0:
448,192,24527,1,0,0:0:0:0:
320,192,24677,1,0,0:0:0:0:
192,192,24827,1,2,0:0:0:0:
64,192,24827,1,0,0:0:0:0:
192,192,24977,1,0,0:0:0:0:
320,192,24977,1,2,0:0:0:0:
64,192,25127,1,0,0:0:0:0:
320,192,25127,1,0,0:0:0:0:
448,192,25127,1,8,0:0:0:0:
192,192,25277,1,0,0:0:0:0:
320,192,25427,1,2,0:0:0:0:
448,192,25427,1,0,0:0:0:0:
64,192,25577,1,0,0:0:0:0:
192,192,25727,1,8,0:0:0:0:
448,192,25727,1,0,0:0:0:0:
320,192,25727,1,0,0:0:0:0:
320,192,25877,1,2,0:0:0:0:
64,192,25877,1,0,0:0:0:0:
192,192,26177,1,2,0:0:0:0:
448,192,26177,1,0,0:0:0:0:
64,192,26327,1,0,0:0:0:0:
192,192,26327,1,0,0:0:0:0:
320,192,26327,1,8,0:0:0:0:
64,192,26477,1,0,0:0:0:0:
320,192,26477,1,2,0:0:0:0:
448,192,26477,1,4,0:0:0:0:
192,192,26777,1,0,0:0:0:0:
192,192,26927,1,0,0:0:0:0:
192,192,27077,1,0,0:0:0:0:
192,192,27227,1,0,0:0:0:0:
192,192,27527,1,0,0:0:0:0:
192,192,27827,1,0,0:0:0:0:
192,192,28127,1,0,0:0:0:0:
192,192,28427,1,0,0:0:0:0:
64,192,28577,1,0,0:0:0:0:
320,192,28577,1,8,0:2:0:0:
448,192,28577,1,0,0:0:0:0:
192,192,28727,1,8,0:2:0:0:
64,192,28727,1,0,0:0:0:0:
448,192,28727,1,0,0:0:0:0:
320,192,28877,1,0,0:0:0:0:
192,192,28877,1,2,0:0:0:0:
64,192,28877,1,0,0:0:0:0:
448,192,29177,1,0,0:0:0:0:
448,192,29327,1,0,0:0:0:0:
448,192,29477,1,0,0:0:0:0:
448,192,29627,1,0,0:0:0:0:
448,192,29927,1,0,0:0:0:0:
448,192,30227,1,0,0:0:0:0:
448,192,30527,1,0,0:0:0:0:
448,192,30827,1,0,0:0:0:0:
320,192,30977,1,8,0:2:0:0:
192,192,30977,1,0,0:0:0:0:
64,192,30977,1,0,0:0:0:0:
64,192,31127,1,0,0:0:0:0:
192,192,31127,1,8,0:2:0:0:
448,192,31127,1,0,0:0:0:0:
192,192,31277,1,0,0:0:0:0:
320,192,31277,1,2,0:0:0:0:
448,192,31277,1,0,0:0:0:0:
64,192,31577,1,0,0:0:0:0:
64,192,31727,1,0,0:0:0:0:
64,192,31877,1,0,0:0:0:0:
64,192,32027,1,0,0:0:0:0:
64,192,32327,1,0,0:0:0:0:
64,192,32627,1,0,0:0:0:0:
64,192,32927,1,0,0:0:0:0:
64,192,33227,1,0,0:0:0:0:
192,192,33377,1,0,0:0:0:0:
320,192,33377,1,8,0:2:0:0:
448,192,33377,1,0,0:0:0:0:
64,192,33527,1,0,0:0:0:0:
320,192,33527,1,8,0:2:0:0:
448,192,33527,1,0,0:0:0:0:
448,192,33677,128,0,33977:0:0:0:0:
192,192,33677,128,2,33977:0:0:0:0:
64,192,33677,128,0,33977:0:0:0:0:
320,192,33977,1,0,0:0:0:0:
192,192,34427,128,0,34727:0:0:0:0:
320,192,34427,1,0,0:0:0:0:
320,192,34727,1,0,0:0:0:0:
192,192,35027,128,0,35252:0:0:0:0:
320,192,35027,1,0,0:0:0:0:
192,192,35327,128,0,35552:0:0:0:0:
320,192,35327,1,0,0:0:0:0:
320,192,35627,1,0,0:0:0:0:
64,192,35627,1,0,0:0:0:0:
192,192,35727,1,0,0:0:0:0:
448,192,35777,1,0,0:0:0:0:
320,192,35877,1,0,0:0:0:0:
64,192,35927,1,0,0:0:0:0:
192,192,36002,1,0,0:0:0:0:
320,192,36077,1,0,0:0:0:0:
448,192,36152,1,0,0:0:0:0:
192,192,36227,1,2,0:0:0:0:
64,192,36227,1,0,0:0:0:0:
320,192,36377,1,0,0:0:0:0:
192,192,36527,1,8,0:2:0:0:
64,192,36527,1,0,0:0:0:0:
448,192,36527,1,0,0:0:0:0:
320,192,36677,1,0,0:0:0:0:
192,192,36827,1,0,0:0:0:0:
448,192,36827,1,2,0:0:0:0:
64,192,36977,1,0,0:0:0:0:
192,192,37127,1,0,0:0:0:0:
320,192,37127,1,8,0:2:0:0:
448,192,37127,1,0,0:0:0:0:
64,192,37277,1,0,0:0:0:0:
320,192,37427,1,2,0:0:0:0:
448,192,37427,1,0,0:0:0:0:
192,192,37577,1,0,0:0:0:0:
64,192,37727,1,0,0:0:0:0:
320,192,37727,1,8,0:2:0:0:
448,192,37727,1,0,0:0:0:0:
192,192,37877,1,0,0:0:0:0:
320,192,38027,1,2,0:0:0:0:
448,192,38027,1,0,0:0:0:0:
192,192,38177,1,2,0:0:0:0:
320,192,38177,1,0,0:0:0:0:
192,192,38327,1,8,0:2:0:0:
64,192,38327,1,0,0:0:0:0:
448,192,38327,1,0,0:0:0:0:
64,192,38477,1,2,0:0:0:0:
320,192,38477,128,0,38777:0:0:0:0:
448,192,38477,128,0,38777:0:0:0:0:
192,192,38777,1,2,0:0:0:0:
64,192,38777,1,0,0:0:0:0:
192,192,38927,1,0,0:0:0:0:
320,192,38927,1,8,0:2:0:0:
448,192,38927,1,0,0:0:0:0:
64,192,39077,1,0,0:0:0:0:
192,192,39227,1,0,0:0:0:0:
320,192,39227,1,2,0:0:0:0:
448,192,39377,1,0,0:0:0:0:
320,192,39527,1,0,0:0:0:0:
192,192,39527,1,8,0:2:0:0:
64,192,39527,1,0,0:0:0:0:
448,192,39677,1,0,0:0:0:0:
64,192,39827,1,0,0:0:0:0:
192,192,39827,1,2,0:0:0:0:
320,192,39977,1,0,0:0:0:0:
448,192,40127,1,0,0:0:0:0:
192,192,40127,1,8,0:2:0:0:
64,192,40127,1,0,0:0:0:0:
320,192,40277,1,0,0:0:0:0:
64,192,40427,1,2,0:0:0:0:
192,192,40427,1,0,0:0:0:0:
192,192,40577,1,0,0:0:0:0:
320,192,40577,1,2,0:0:0:0:
64,192,40727,1,0,0:0:0:0:
320,192,40727,1,8,0:2:0:0:
448,192,40727,1,0,0:0:0:0:
448,192,40877,1,2,0:0:0:0:
192,192,40877,128,0,41177:0:0:0:0:
64,192,40877,128,0,41177:0:0:0:0:
320,192,41177,1,2,0:0:0:0:
448,192,41177,1,0,0:0:0:0:
320,192,41327,1,0,0:0:0:0:
192,192,41327,1,8,0:2:0:0:
64,192,41327,1,0,0:0:0:0:
448,192,41477,1,0,0:0:0:0:
320,192,41627,1,2,0:0:0:0:
64,192,41627,1,0,0:0:0:0:
192,192,41777,1,0,0:0:0:0:
64,192,41927,1,0,0:0:0:0:
320,192,41927,1,8,0:2:0:0:
448,192,41927,1,0,0:0:0:0:
192,192,42077,1,0,0:0:0:0:
64,192,42227,1,0,0:0:0:0:
320,192,42227,1,2,0:0:0:0:
448,192,42377,1,0,0:0:0:0:
320,192,42527,1,0,0:0:0:0:
192,192,42527,1,8,0:2:0:0:
64,192,42527,1,0,0:0:0:0:
448,192,42677,1,0,0:0:0:0:
320,192,42827,1,2,0:0:0:0:
192,192,42827,1,0,0:0:0:0:
64,192,42977,1,0,0:0:0:0:
192,192,43127,1,8,0:2:0:0:
320,192,43127,1,0,0:0:0:0:
448,192,43127,1,0,0:0:0:0:
64,192,43277,1,0,0:0:0:0:
320,192,43427,128,0,43727:0:0:0:0:
448,192,43427,1,2,0:0:0:0:
448,192,43727,1,0,0:0:0:0:
192,192,43727,1,8,0:2:0:0:
64,192,43727,1,0,0:0:0:0:
320,192,43877,1,2,0:0:0:0:
192,192,43877,128,0,44177:0:0:0:0:
64,192,44177,1,0,0:0:0:0:
192,192,44327,1,2,0:0:0:0:
320,192,44327,1,8,0:2:0:0:
448,192,44327,128,0,44627:0:0:0:0:
64,192,44627,1,2,0:0:0:0:
192,192,44627,128,0,44777:0:0:0:0:
320,192,44777,128,0,44927:0:0:0:0:
64,192,44927,1,0,0:0:0:0:
192,192,44927,1,8,0:2:0:0:
448,192,44927,128,0,45077:0:0:0:0:
64,192,45077,128,0,45227:0:0:0:0:
192,192,45227,1,0,0:0:0:0:
320,192,45227,1,2,0:0:0:0:
64,192,45827,128,0,46727:0:0:0:0:
320,192,45827,128,0,46127:0:0:0:0:
320,192,46427,128,0,46727:0:0:0:0:
192,192,46727,128,0,46877:0:0:0:0:
64,192,46877,128,0,47027:0:0:0:0:
320,192,47027,128,0,47327:0:0:0:0:
448,192,47027,128,0,47327:0:0:0:0:
64,192,47327,128,0,47627:0:0:0:0:
192,192,47627,128,0,47927:0:0:0:0:
448,192,47627,128,0,47927:0:0:0:0:
320,192,47927,128,0,48227:0:0:0:0:
448,192,48227,128,0,49427:0:0:0:0:
64,192,48227,128,0,48977:0:0:0:0:
192,192,48227,128,0,48527:0:0:0:0:
320,192,48827,128,0,49127:0:0:0:0:
192,192,48977,128,0,49127:0:0:0:0:
64,192,49127,128,0,49277:0:0:0:0:
192,192,49277,128,0,49427:0:0:0:0:
320,192,49427,128,0,49727:0:0:0:0:
64,192,49427,128,0,49727:0:0:0:0:
192,192,49727,128,0,50027:0:0:0:0:
320,192,50027,128,0,50327:0:0:0:0:
64,192,50027,128,0,50327:0:0:0:0:
448,192,50327,128,0,50627:0:0:0:0:
64,192,50627,1,0,0:0:0:0:
192,192,50627,1,0,0:0:0:0:
320,192,50702,1,0,0:0:0:0:
192,192,50777,1,0,0:0:0:0:
64,192,50852,1,0,0:0:0:0:
448,192,50927,1,0,0:0:0:0:
320,192,51002,1,0,0:0:0:0:
192,192,51077,1,0,0:0:0:0:
64,192,51152,1,0,0:0:0:0:
448,192,51227,1,0,0:0:0:0:
320,192,51227,1,0,0:0:0:0:
192,192,51302,1,0,0:0:0:0:
64,192,51377,1,0,0:0:0:0:
448,192,51452,1,0,0:0:0:0:
192,192,51527,1,0,0:0:0:0:
64,192,51602,1,0,0:0:0:0:
320,192,51677,1,0,0:0:0:0:
192,192,51752,1,0,0:0:0:0:
64,192,51827,1,0,0:0:0:0:
448,192,51827,1,0,0:0:0:0:
320,192,51902,1,0,0:0:0:0:
192,192,51977,1,0,0:0:0:0:
448,192,52052,1,0,0:0:0:0:
320,192,52127,1,0,0:0:0:0:
64,192,52202,1,0,0:0:0:0:
448,192,52277,1,0,0:0:0:0:
320,192,52352,1,0,0:0:0:0:
192,192,52427,1,0,0:0:0:0:
64,192,52427,1,0,0:0:0:0:
448,192,52502,1,0,0:0:0:0:
320,192,52577,1,0,0:0:0:0:
192,192,52652,1,0,0:0:0:0:
64,192,52727,1,0,0:0:0:0:
448,192,52802,1,0,0:0:0:0:
320,192,52877,1,0,0:0:0:0:
192,192,52952,1,0,0:0:0:0:
64,192,53027,1,0,0:0:0:0:
320,192,53027,1,2,0:0:0:0:
448,192,53027,1,0,0:0:0:0:
64,192,53327,1,0,0:0:0:0:
320,192,53327,1,2,0:0:0:0:
448,192,53327,1,0,0:0:0:0:
64,192,53627,1,0,0:0:0:0:
320,192,53627,1,2,0:0:0:0:
448,192,53627,1,0,0:0:0:0:
448,192,53927,1,0,0:0:0:0:
320,192,53927,1,2,0:0:0:0:
64,192,53927,1,0,0:0:0:0:
64,192,54077,1,0,0:0:0:0:
192,192,54077,1,2,0:0:0:0:
320,192,54077,1,4,0:0:0:0:
448,192,54077,1,0,0:0:0:0:
320,192,54377,1,0,0:0:0:0:
192,192,54377,1,2,0:0:0:0:
64,192,54377,1,0,0:0:0:0:
320,192,54677,1,0,0:0:0:0:
192,192,54677,1,2,0:0:0:0:
64,192,54677,1,0,0:0:0:0:
64,192,54827,1,0,0:0:0:0:
320,192,54827,1,0,0:0:0:0:
192,192,54827,1,2,0:0:0:0:
448,192,55127,1,0,0:0:0:0:
320,192,55127,1,8,0:2:0:0:
64,192,55202,1,0,0:0:0:0:
192,192,55277,1,0,0:0:0:0:
320,192,55352,1,0,0:0:0:0:
192,192,55427,1,4,0:0:0:0:
64,192,55427,1,2,0:0:0:0:
448,192,55427,128,0,55727:0:0:0:0:
320,192,55727,1,8,0:0:0:0:
192,192,55727,1,0,0:0:0:0:
64,192,55727,1,0,0:0:0:0:
448,192,55877,1,0,0:0:0:0:
320,192,56027,1,0,0:0:0:0:
192,192,56027,1,2,0:0:0:0:
64,192,56177,1,0,0:0:0:0:
192,192,56327,1,0,0:0:0:0:
320,192,56327,1,8,0:0:0:0:
448,192,56327,1,0,0:0:0:0:
64,192,56477,1,0,0:0:0:0:
320,192,56627,1,2,0:0:0:0:
448,192,56627,1,0,0:0:0:0:
320,192,56777,1,0,0:0:0:0:
192,192,56927,1,8,0:0:0:0:
64,192,56927,1,0,0:0:0:0:
448,192,56927,1,0,0:0:0:0:
192,192,57077,1,0,0:0:0:0:
320,192,57227,1,2,0:0:0:0:
448,192,57227,1,0,0:0:0:0:
64,192,57377,1,0,0:0:0:0:
192,192,57527,1,8,0:0:0:0:
320,192,57527,1,0,0:0:0:0:
448,192,57527,1,0,0:0:0:0:
64,192,57677,1,0,0:0:0:0:
320,192,57827,1,2,0:0:0:0:
448,192,57827,1,0,0:0:0:0:
192,192,57977,1,0,0:0:0:0:
64,192,58127,1,0,0:0:0:0:
320,192,58127,1,0,0:0:0:0:
448,192,58127,1,8,0:0:0:0:
192,192,58277,1,0,0:0:0:0:
64,192,58427,1,2,0:0:0:0:
320,192,58427,1,0,0:0:0:0:
448,192,58577,1,0,0:0:0:0:
320,192,58727,1,0,0:0:0:0:
192,192,58727,1,8,0:0:0:0:
64,192,58727,1,0,0:0:0:0:
448,192,58877,1,0,0:0:0:0:
320,192,59027,1,2,0:0:0:0:
64,192,59027,1,0,0:0:0:0:
64,192,59177,1,0,0:0:0:0:
192,192,59327,1,8,0:0:0:0:
320,192,59327,1,0,0:0:0:0:
448,192,59327,1,0,0:0:0:0:
448,192,59477,1,0,0:0:0:0:
192,192,59627,1,2,0:0:0:0:
64,192,59627,1,0,0:0:0:0:
320,192,59777,1,0,0:0:0:0:
192,192,59927,1,8,0:0:0:0:
64,192,59927,1,0,0:0:0:0:
448,192,59927,1,0,0:0:0:0:
320,192,60077,1,0,0:0:0:0:
192,192,60227,1,2,0:0:0:0:
64,192,60227,1,0,0:0:0:0:
448,192,60227,1,4,0:0:0:0:
192,192,60377,1,0,0:0:0:0:
64,192,60527,1,0,0:0:0:0:
448,192,60527,1,0,0:0:0:0:
320,192,60527,1,8,0:0:0:0:
192,192,60677,1,0,0:0:0:0:
64,192,60827,1,2,0:0:0:0:
320,192,60827,1,0,0:0:0:0:
448,192,60977,1,0,0:0:0:0:
320,192,61127,1,0,0:0:0:0:
192,192,61127,1,8,0:0:0:0:
64,192,61127,1,0,0:0:0:0:
448,192,61277,1,0,0:0:0:0:
320,192,61427,1,0,0:0:0:0:
192,192,61427,1,2,0:0:0:0:
320,192,61577,1,0,0:0:0:0:
192,192,61727,1,8,0:0:0:0:
64,192,61727,1,0,0:0:0:0:
448,192,61727,1,0,0:0:0:0:
64,192,61877,1,0,0:0:0:0:
448,192,62027,1,2,0:0:0:0:
320,192,62027,128,0,62177:0:0:0:0:
192,192,62177,1,0,0:0:0:0:
64,192,62327,1,0,0:0:0:0:
320,192,62327,128,8,62477:0:0:0:0:
448,192,62327,1,0,0:0:0:0:
64,192,62627,1,2,0:0:0:0:
192,192,62627,128,0,62777:0:0:0:0:
320,192,62777,128,0,62927:0:0:0:0:
448,192,62927,1,0,0:0:0:0:
192,192,62927,1,8,0:2:0:0:
64,192,62927,1,0,0:0:0:0:
320,192,63227,128,0,63377:0:0:0:0:
448,192,63227,1,2,0:0:0:0:
192,192,63377,128,0,63527:0:0:0:0:
64,192,63527,1,8,0:2:0:0:
320,192,63527,1,0,0:0:0:0:
448,192,63527,1,0,0:0:0:0:
320,192,63827,128,0,63977:0:0:0:0:
64,192,63827,1,2,0:0:0:0:
192,192,63977,128,0,64127:0:0:0:0:
320,192,64127,128,0,64277:0:0:0:0:
64,192,64127,1,0,0:0:0:0:
448,192,64127,1,8,0:2:0:0:
64,192,64277,128,0,64577:0:0:0:0:
192,192,64277,1,2,0:0:0:0:
448,192,64277,1,4,0:0:0:0:
448,192,64577,1,2,0:0:0:0:
192,192,64577,128,0,64727:0:0:0:0:
448,192,64727,1,0,0:0:0:0:
64,192,64727,1,0,0:0:0:0:
320,192,64727,1,8,0:2:0:0:
448,192,65027,1,4,0:0:0:0:
320,192,65027,1,2,0:0:0:0:
64,192,65027,128,0,65177:0:0:0:0:
192,192,65177,128,0,65327:0:0:0:0:
320,192,65327,128,0,65477:0:0:0:0:
64,192,65327,1,0,0:0:0:0:
448,192,65327,1,8,0:2:0:0:
192,192,65477,1,4,0:0:0:0:
64,192,65477,1,2,0:0:0:0:
448,192,65477,128,0,65777:0:0:0:0:
192,192,65777,128,0,65927:0:0:0:0:
64,192,65777,1,0,0:0:0:0:
320,192,65777,1,8,0:2:0:0:
64,192,65927,128,0,66227:0:0:0:0:
320,192,65927,1,2,0:0:0:0:
448,192,65927,1,4,0:0:0:0:
192,192,66227,1,2,0:0:0:0:
320,192,66227,1,0,0:0:0:0:
448,192,66377,1,0,0:0:0:0:
320,192,66527,1,0,0:0:0:0:
192,192,66527,1,8,0:0:0:0:
64,192,66527,1,0,0:0:0:0:
448,192,66677,1,0,0:0:0:0:
320,192,66827,1,2,0:0:0:0:
64,192,66827,1,0,0:0:0:0:
192,192,66977,1,0,0:0:0:0:
64,192,67127,1,0,0:0:0:0:
320,192,67127,1,8,0:0:0:0:
448,192,67127,1,0,0:0:0:0:
192,192,67277,1,0,0:0:0:0:
320,192,67427,1,2,0:0:0:0:
448,192,67427,1,4,0:0:0:0:
64,192,67427,128,0,67577:0:0:0:0:
192,192,67577,128,0,67727:0:0:0:0:
448,192,67727,128,0,67877:0:0:0:0:
320,192,67727,1,8,0:2:0:0:
64,192,67727,1,0,0:0:0:0:
320,192,67877,128,0,68177:0:0:0:0:
192,192,67877,1,2,0:0:0:0:
64,192,67877,1,4,0:0:0:0:
192,192,68177,1,8,0:2:0:0:
64,192,68177,1,0,0:0:0:0:
448,192,68177,128,0,68327:0:0:0:0:
320,192,68327,1,4,0:0:0:0:
192,192,68327,1,2,0:0:0:0:
64,192,68327,128,0,68627:0:0:0:0:
320,192,68627,1,2,0:0:0:0:
448,192,68627,1,0,0:0:0:0:
192,192,68777,1,0,0:0:0:0:
64,192,68927,1,0,0:0:0:0:
320,192,68927,1,8,0:0:0:0:
448,192,68927,1,0,0:0:0:0:
192,192,69077,1,0,0:0:0:0:
64,192,69227,1,2,0:0:0:0:
448,192,69227,1,0,0:0:0:0:
320,192,69377,1,0,0:0:0:0:
192,192,69527,1,8,0:0:0:0:
64,192,69527,1,0,0:0:0:0:
448,192,69527,1,0,0:0:0:0:
320,192,69677,1,0,0:0:0:0:
64,192,69827,1,4,0:0:0:0:
192,192,69827,1,2,0:0:0:0:
448,192,69827,128,0,69977:0:0:0:0:
320,192,69977,128,0,70127:0:0:0:0:
192,192,70127,128,0,70277:0:0:0:0:
64,192,70127,1,8,0:2:0:0:
448,192,70127,1,0,0:0:0:0:
64,192,70277,1,4,0:0:0:0:
320,192,70277,1,2,0:0:0:0:
448,192,70277,128,0,70577:0:0:0:0:
64,192,70577,1,0,0:0:0:0:
192,192,70577,1,8,0:2:0:0:
320,192,70577,128,0,70727:0:0:0:0:
192,192,70727,1,2,0:0:0:0:
448,192,70727,1,4,0:0:0:0:
64,192,70727,128,0,71027:0:0:0:0:
192,192,71027,1,0,0:0:0:0:
448,192,71027,1,2,0:0:0:0:
320,192,71177,1,0,0:0:0:0:
192,192,71327,1,8,0:0:0:0:
64,192,71327,1,0,0:0:0:0:
448,192,71327,1,0,0:0:0:0:
320,192,71477,1,0,0:0:0:0:
192,192,71627,1,2,0:0:0:0:
448,192,71627,1,0,0:0:0:0:
64,192,71777,1,0,0:0:0:0:
192,192,71927,1,0,0:0:0:0:
320,192,71927,1,8,0:0:0:0:
448,192,71927,1,0,0:0:0:0:
64,192,72077,1,0,0:0:0:0:
448,192,72227,1,2,0:0:0:0:
320,192,72227,128,0,72377:0:0:0:0:
192,192,72377,128,0,72527:0:0:0:0:
64,192,72527,1,0,0:0:0:0:
320,192,72527,1,8,0:2:0:0:
448,192,72527,1,0,0:0:0:0:
64,192,72827,1,2,0:0:0:0:
192,192,72827,128,0,72977:0:0:0:0:
320,192,72977,128,0,73127:0:0:0:0:
192,192,73127,1,8,0:2:0:0:
64,192,73127,1,0,0:0:0:0:
448,192,73127,1,0,0:0:0:0:
320,192,73427,1,2,0:0:0:0:
448,192,73427,128,0,73577:0:0:0:0:
64,192,73577,128,0,73727:0:0:0:0:
192,192,73727,1,8,0:2:0:0:
320,192,73727,1,0,0:0:0:0:
448,192,73727,1,0,0:0:0:0:
192,192,74027,1,2,0:0:0:0:
64,192,74027,128,0,74177:0:0:0:0:
448,192,74177,128,0,74327:0:0:0:0:
320,192,74327,1,8,0:2:0:0:
192,192,74327,1,0,0:0:0:0:
64,192,74327,1,0,0:0:0:0:
64,192,74627,1,2,0:0:0:0:
448,192,74627,128,0,74777:0:0:0:0:
320,192,74777,128,0,74927:0:0:0:0:
192,192,74927,1,8,0:2:0:0:
64,192,74927,1,0,0:0:0:0:
448,192,74927,1,0,0:0:0:0:
448,192,75227,1,2,0:0:0:0:
64,192,75227,128,0,75377:0:0:0:0:
192,192,75377,128,0,75527:0:0:0:0:
64,192,75527,1,0,0:0:0:0:
320,192,75527,1,8,0:2:0:0:
448,192,75527,1,0,0:0:0:0:
320,192,75827,1,2,0:0:0:0:
64,192,75827,128,0,75977:0:0:0:0:
192,192,75977,128,0,76127:0:0:0:0:
64,192,76127,1,8,0:2:0:0:
448,192,76127,1,0,0:0:0:0:
320,192,76127,128,0,76277:0:0:0:0:
192,192,76277,1,2,0:0:0:0:
448,192,76277,128,0,76577:0:0:0:0:
64,192,76277,1,4,0:0:0:0:
320,192,76577,1,8,0:2:0:0:
192,192,76577,1,0,0:0:0:0:
64,192,76577,1,0,0:0:0:0:
64,192,76727,1,0,0:0:0:0:
192,192,76727,1,0,0:0:0:0:
320,192,76727,1,8,0:2:0:0:
192,192,76877,1,2,0:0:0:0:
448,192,76877,128,4,77177:0:0:0:0:
64,192,76877,128,0,77177:0:0:0:0:
320,192,77177,1,2,0:0:0:0:
192,192,77177,1,0,0:0:0:0:
448,192,77327,1,0,0:0:0:0:
192,192,77327,1,8,0:0:0:0:
64,192,77327,1,0,0:0:0:0:
320,192,77477,1,0,0:0:0:0:
192,192,77627,1,0,0:0:0:0:
64,192,77627,1,2,0:0:0:0:
192,192,77777,1,2,0:0:0:0:
448,192,77777,1,0,0:0:0:0:
448,192,77927,1,0,0:0:0:0:
320,192,77927,1,8,0:0:0:0:
64,192,77927,1,0,0:0:0:0:
192,192,78077,1,0,0:0:0:0:
320,192,78227,1,2,0:0:0:0:
448,192,78227,1,0,0:0:0:0:
64,192,78377,1,0,0:0:0:0:
192,192,78527,1,8,0:0:0:0:
320,192,78527,1,0,0:0:0:0:
448,192,78527,1,0,0:0:0:0:
448,192,78677,1,0,0:0:0:0:
320,192,78677,1,2,0:0:0:0:
192,192,78977,1,0,0:0:0:0:
64,192,78977,1,2,0:0:0:0:
64,192,79127,1,0,0:0:0:0:
192,192,79127,1,0,0:0:0:0:
320,192,79127,1,8,0:0:0:0:
320,192,79277,1,2,0:0:0:0:
448,192,79277,128,4,79577:0:0:0:0:
64,192,79277,128,0,79577:0:0:0:0:
192,192,79577,1,2,0:0:0:0:
320,192,79577,1,0,0:0:0:0:
448,192,79727,1,0,0:0:0:0:
192,192,79727,1,8,0:0:0:0:
64,192,79727,1,0,0:0:0:0:
320,192,79877,1,0,0:0:0:0:
448,192,80027,1,0,0:0:0:0:
192,192,80027,1,2,0:0:0:0:
192,192,80177,1,0,0:0:0:0:
320,192,80177,1,2,0:0:0:0:
320,192,80327,1,0,0:0:0:0:
448,192,80327,1,0,0:0:0:0:
64,192,80327,1,8,0:0:0:0:
192,192,80477,1,0,0:0:0:0:
320,192,80627,1,2,0:0:0:0:
448,192,80627,1,0,0:0:0:0:
192,192,80777,1,0,0:0:0:0:
64,192,80927,1,0,0:0:0:0:
320,192,80927,1,8,0:0:0:0:
448,192,80927,1,0,0:0:0:0:
192,192,81077,1,2,0:0:0:0:
64,192,81077,1,0,0:0:0:0:
320,192,81377,1,2,0:0:0:0:
448,192,81377,1,0,0:0:0:0:
448,192,81527,1,0,0:0:0:0:
192,192,81527,1,8,0:0:0:0:
64,192,81527,1,0,0:0:0:0:
320,192,81677,1,2,0:0:0:0:
64,192,81677,128,4,81977:0:0:0:0:
448,192,81677,128,0,81977:0:0:0:0:
320,192,81977,1,0,0:0:0:0:
192,192,81977,1,2,0:0:0:0:
448,192,82127,1,0,0:0:0:0:
192,192,82127,1,8,0:0:0:0:
64,192,82127,1,0,0:0:0:0:
320,192,82277,1,0,0:0:0:0:
192,192,82427,1,2,0:0:0:0:
64,192,82427,1,0,0:0:0:0:
448,192,82577,1,2,0:0:0:0:
64,192,82577,1,0,0:0:0:0:
448,192,82727,1,0,0:0:0:0:
320,192,82727,1,8,0:0:0:0:
192,192,82727,1,0,0:0:0:0:
64,192,82877,1,0,0:0:0:0:
192,192,83027,1,2,0:0:0:0:
320,192,83027,1,0,0:0:0:0:
448,192,83177,1,0,0:0:0:0:
320,192,83327,1,0,0:0:0:0:
192,192,83327,1,8,0:0:0:0:
64,192,83327,1,0,0:0:0:0:
448,192,83477,1,2,0:0:0:0:
64,192,83477,1,0,0:0:0:0:
192,192,83777,1,0,0:0:0:0:
320,192,83777,1,2,0:0:0:0:
320,192,83927,1,8,0:0:0:0:
448,192,83927,1,0,0:0:0:0:
64,192,83927,1,0,0:0:0:0:
192,192,84077,1,2,0:0:0:0:
448,192,84077,128,4,84377:0:0:0:0:
64,192,84077,128,0,84377:0:0:0:0:
320,192,84377,1,2,0:0:0:0:
192,192,84377,1,0,0:0:0:0:
448,192,84527,1,0,0:0:0:0:
320,192,84527,1,8,0:0:0:0:
64,192,84527,1,0,0:0:0:0:
192,192,84677,1,0,0:0:0:0:
320,192,84827,1,2,0:0:0:0:
448,192,84827,1,0,0:0:0:0:
320,192,84977,1,0,0:0:0:0:
192,192,84977,1,2,0:0:0:0:
448,192,85127,1,0,0:0:0:0:
192,192,85127,1,8,0:0:0:0:
64,192,85127,1,0,0:0:0:0:
320,192,85277,1,0,0:0:0:0:
192,192,85427,1,2,0:0:0:0:
64,192,85427,1,0,0:0:0:0:
448,192,85577,1,0,0:0:0:0:
320,192,85727,1,8,0:0:0:0:
64,192,85727,1,0,0:0:0:0:
192,192,85727,1,0,0:0:0:0:
192,192,85877,1,2,0:0:0:0:
448,192,85877,1,0,0:0:0:0:
320,192,86177,1,2,0:0:0:0:
64,192,86177,1,0,0:0:0:0:
64,192,86327,1,0,0:0:0:0:
192,192,86327,1,8,0:0:0:0:
448,192,86327,1,0,0:0:0:0:
320,192,86477,1,2,0:0:0:0:
448,192,86477,1,0,0:0:0:0:
64,192,86627,1,2,0:0:0:0:
192,192,86627,128,0,86777:0:0:0:0:
448,192,86777,128,0,86927:0:0:0:0:
64,192,86927,1,0,0:0:0:0:
192,192,86927,1,0,0:0:0:0:
320,192,86927,1,8,0:2:0:0:
320,192,87227,1,2,0:0:0:0:
448,192,87227,128,0,87377:0:0:0:0:
64,192,87377,128,0,87527:0:0:0:0:
192,192,87527,1,8,0:2:0:0:
320,192,87527,1,0,0:0:0:0:
448,192,87527,1,0,0:0:0:0:
448,192,87827,1,2,0:0:0:0:
64,192,87827,128,0,87977:0:0:0:0:
192,192,87977,128,0,88127:0:0:0:0:
64,192,88127,1,8,0:2:0:0:
320,192,88127,128,0,88277:0:0:0:0:
448,192,88127,1,0,0:0:0:0:
192,192,88277,1,4,0:0:0:0:
64,192,88277,1,2,0:0:0:0:
448,192,88277,128,0,88727:0:0:0:0:
320,192,88577,1,0,0:0:0:0:
192,192,88577,1,2,0:0:0:0:
320,192,88727,1,0,0:0:0:0:
192,192,88727,1,8,0:2:0:0:
64,192,88727,1,0,0:0:0:0:
64,192,88877,128,2,89177:0:0:0:0:
448,192,88877,128,0,89177:0:0:0:0:
