osu file format v14

[General]
AudioFilename: dro.mp3
AudioLeadIn: 0
PreviewTime: 55352
Countdown: 0
SampleSet: Soft
StackLeniency: 0.7
Mode: 0
LetterboxInBreaks: 0
WidescreenStoryboard: 1

[Editor]
DistanceSpacing: 1
BeatDivisor: 4
GridSize: 4
TimelineZoom: 1.7

[Metadata]
Title:Hallelujah*Essaim
TitleUnicode:ハレルヤ☆エッサイム
Artist:Tomita Miyu, Onishi Saori, Ohzora Naomi, Hanazawa Kana
ArtistUnicode:富田美憂、大西沙織、大空直美、花澤香菜
Creator:Doormat
Version:Hard
Source:ガヴリールドロップアウト
Tags:Karen Kisses Akitoshi Corinn Kibbleru Kalibe [_-Scarlet-_] Pentori dropout gabdro ガヴドロ ending ed tv size tenma gabriel white 天真・ガヴリール・ホワイト tsukinose vignette april 月乃瀬・ヴィネット・エイプリル vigne ヴィーネ kurumizawa satanichia mcdowell 胡桃沢・サタニキア・マクドウェル satania サターニャ shiraha raphiel ainsworth 白羽・ラフィエル・エインズワース
BeatmapID:1182881
BeatmapSetID:559248

[Difficulty]
HPDrainRate:5
CircleSize:4
OverallDifficulty:6
ApproachRate:8
SliderMultiplier:1.4
SliderTickRate:1

[Events]
//Background and Video events
0,0,"gabdro.jpg",0,0
Video,0,"gabdro movie.avi"
//Break Periods
//Storyboard Layer 0 (Background)
//Storyboard Layer 1 (Fail)
//Storyboard Layer 2 (Pass)
//Storyboard Layer 3 (Foreground)
//Storyboard Sound Samples

[TimingPoints]
836,300,3,2,1,50,1,0
836,-133.333333333333,3,2,1,50,0,0
3536,348.837209302326,4,2,1,50,1,0
3884,375,4,2,1,50,1,0
4259,468.75,4,2,1,50,1,0
4727,500,4,2,1,50,1,0
6227,300,4,2,1,60,1,0
7427,-100,4,2,1,80,0,0
16877,-100,4,2,1,80,0,0
26477,-100,4,2,1,80,0,0
26777,-100,4,2,2,50,0,0
36227,-100,4,2,1,60,0,0
45827,-133.333333333333,4,2,2,50,0,0
53027,-100,4,2,1,70,0,0
55427,-100,4,2,1,80,0,1
64952,-100,4,2,1,80,0,0
65027,-100,4,2,1,80,0,1
72227,-100,4,2,1,80,0,1
74627,-100,4,2,1,80,0,1
76877,-100,4,2,1,80,0,0

[Colours]
Combo1 : 234,88,37
Combo2 : 254,217,73
Combo3 : 148,25,203
Combo4 : 62,129,220

[HitObjects]
304,144,836,6,0,P|344:128|412:136,2,105.000004005432,4|0|0,0:0|0:0|0:0,0:0:0:0:
190,174,1736,2,0,P|156:147|129:84,2,105.000004005432,4|0|0,0:0|0:0|0:0,0:0:0:0:
273,257,2636,2,0,P|267:300|226:355,2,105.000004005432,4|0|0,0:0|0:0|0:0,0:0:0:0:
304,144,3536,6,0,L|165:124,1,140,4|0,0:0|0:0,0:0:0:0:
228,32,4259,2,0,L|366:12,1,140,0|0,0:0|0:0,0:0:0:0:
256,192,4977,12,2,6227,0:0:0:0:
388,132,7427,6,0,P|321:147|260:116,1,140,6|0,1:2|0:0,0:0:0:0:
168,80,7877,2,0,P|183:146|152:207,1,140,0|0,1:0|0:0,0:0:0:0:
72,264,8327,1,0,1:0:0:0:
336,208,8627,5,0,0:0:0:0:
76,132,8927,1,0,0:0:0:0:
312,0,9227,2,0,L|305:69,1,70,0|0,1:0|0:0,0:0:0:0:
236,128,9527,2,0,L|242:197,1,70,0|0,1:0|0:0,0:0:0:0:
284,288,9827,6,0,P|216:284|116:288,1,140,0|0,1:0|0:0,0:0:0:0:
200,368,10277,2,0,P|268:372|368:368,1,140,0|0,1:0|0:0,0:0:0:0:
436,356,10727,1,0,1:0:0:0:
380,92,11027,5,0,0:0:0:0:
132,200,11327,1,0,0:0:0:0:
384,300,11627,2,0,P|383:265|375:231,1,70,0|0,1:0|0:0,0:0:0:0:
311,167,11927,2,0,P|280:184|255:208,1,70,0|0,1:0|0:0,0:0:0:0:
176,264,12227,6,0,L|166:124,1,140,0|0,1:0|0:0,0:0:0:0:
80,80,12677,2,0,L|70:219,1,140,0|0,1:0|0:0,0:0:0:0:
64,316,13127,1,0,1:0:0:0:
324,240,13427,5,0,0:0:0:0:
80,120,13727,1,0,0:0:0:0:
328,8,14027,2,0,L|397:18,1,70,0|0,1:0|0:0,0:0:0:0:
344,92,14327,2,0,L|274:102,1,70,0|0,1:0|0:0,0:0:0:0:
184,68,14627,6,0,P|180:124|192:156,2,70,0|0|2,1:0|0:0|0:0,0:0:0:0:
24,188,15227,2,0,P|28:132|16:100,2,70,0|0|2,1:0|0:0|0:0,0:0:0:0:
140,344,15827,5,0,1:0:0:0:
140,344,15977,2,0,L|236:328,1,70,0|0,1:0|1:0,0:0:0:0:
268,264,16277,2,0,L|130:238,1,140,0|0,1:0|0:0,0:0:0:0:
84,160,16727,1,0,0:0:0:0:
160,95,16877,6,0,P|221:124|283:96,1,140,4|0,0:0|0:0,0:0:0:0:
356,152,17327,2,0,L|362:221,1,70,8|0,0:0|0:0,0:0:0:0:
444,180,17627,2,0,L|450:110,1,70,2|0,0:0|0:0,0:0:0:0:
488,28,17927,2,0,P|454:20|419:25,1,70,8|0,0:0|0:0,0:0:0:0:
336,60,18227,6,0,P|269:78|202:60,1,140,2|8,0:0|0:0,0:0:0:0:
136,0,18677,1,2,0:0:0:0:
20,140,18977,2,0,L|32:240,1,70,0|8,0:0|0:0,0:0:0:0:
56,304,19277,6,0,B|96:272|96:272|184:278,1,140,4|0,0:0|0:0,0:0:0:0:
264,320,19727,2,0,P|271:286|268:251,1,70,8|0,0:0|0:0,0:0:0:0:
356,267,20027,2,0,P|381:291|413:305,1,70,2|0,0:0|0:0,0:0:0:0:
488,256,20327,2,0,P|495:222|492:187,1,70,8|0,0:0|0:0,0:0:0:0:
452,104,20627,6,0,B|400:148|400:148|324:136,1,140,2|8,0:0|0:0,0:0:0:0:
244,108,21077,1,2,0:0:0:0:
128,248,21377,2,0,L|224:240,1,70,0|8,0:0|0:0,0:0:0:0:
156,332,21677,6,0,L|16:320,1,140,4|0,0:0|0:0,0:0:0:0:
3,232,22127,2,0,P|19:200|25:166,1,70,8|0,0:0|0:0,0:0:0:0:
51,79,22427,2,0,P|78:102|110:117,1,70,2|0,0:0|0:0,0:0:0:0:
192,76,22727,2,0,P|188:41|194:6,1,70,8|0,0:0|0:0,0:0:0:0:
288,8,23027,6,0,L|432:28,1,140,2|8,0:0|0:0,0:0:0:0:
388,108,23477,1,2,0:0:0:0:
480,264,23777,2,0,P|432:260|388:276,1,70,0|8,0:0|0:0,0:0:0:0:
344,336,24077,6,0,P|292:352|204:304,1,140,4|0,0:0|0:0,0:0:0:0:
148,260,24527,2,0,L|124:325,1,70,8|0,0:0|0:0,0:0:0:0:
56,264,24827,2,0,L|49:194,1,70,2|0,0:0|0:0,0:0:0:0:
136,172,25127,2,0,L|205:183,1,70,8|0,0:0|0:0,0:0:0:0:
288,220,25427,6,0,P|292:176|280:136,2,70,2|0|8,0:0|0:0|0:0,0:0:0:0:
240,300,25877,1,2,0:0:0:0:
108,172,26177,2,0,L|116:80,1,70,0|0,1:0|1:0,0:0:0:0:
120,4,26477,1,4,1:2:0:0:
308,64,26777,6,0,P|352:64|384:52,2,70,0|8|0,0:0|0:0|0:0,0:0:0:0:
236,120,27227,2,0,L|244:288,1,140,8|8,0:0|0:0,0:0:0:0:
304,328,27677,1,0,0:0:0:0:
388,292,27827,6,0,L|457:298,1,70,8|0,0:0|0:0,0:0:0:0:
512,224,28127,2,0,L|454:182,1,70,8|0,0:0|0:0,0:0:0:0:
364,196,28427,1,8,0:0:0:0:
296,136,28577,2,0,P|298:101|306:67,1,70,0|0,1:0|1:0,0:0:0:0:
384,8,28877,1,0,1:0:0:0:
200,76,29177,6,0,L|128:52,2,70,0|8|0,0:0|0:0|0:0,0:0:0:0:
224,164,29627,2,0,P|200:208|228:312,1,140,8|8,0:0|0:0,0:0:0:0:
288,348,30077,1,0,0:0:0:0:
375,320,30227,6,0,P|410:312|445:313,1,70,8|0,0:0|0:0,0:0:0:0:
508,248,30527,2,0,P|499:214|483:183,1,70,8|0,0:0|0:0,0:0:0:0:
432,108,30827,1,8,0:0:0:0:
348,144,30977,2,0,L|340:213,1,70,0|0,1:0|1:0,0:0:0:0:
252,256,31277,1,0,1:0:0:0:
112,120,31577,6,0,P|116:156|100:196,2,70,0|8|0,0:0|0:0|0:0,0:0:0:0:
192,72,32027,2,0,L|336:68,1,140,8|8,0:0|0:0,0:0:0:0:
396,4,32477,1,0,0:0:0:0:
476,48,32627,6,0,L|468:124,1,70,8|0,0:0|0:0,0:0:0:0:
412,188,32927,2,0,L|340:160,1,70,8|0,0:0|0:0,0:0:0:0:
256,172,33227,1,8,0:0:0:0:
192,236,33377,2,0,L|200:312,1,70,0|0,1:0|1:0,0:0:0:0:
288,348,33677,1,0,1:0:0:0:
460,284,33977,6,0,L|456:368,2,70,0|8|0,0:0|0:0|0:0,0:0:0:0:
492,200,34427,2,0,P|479:167|475:132,1,70,8|0,0:0|0:0,0:0:0:0:
424,56,34727,2,0,P|401:82|373:103,1,70,8|0,0:0|0:0,0:0:0:0:
292,148,35027,6,0,P|232:124|144:144,1,140,2|2,0:0|0:0,0:0:0:0:
4,44,35627,2,0,L|12:0,3,35,2|0|0|0,0:0|0:0|0:0|0:0,0:0:0:0:
8,76,35927,2,0,P|16:124|8:160,1,70,2|0,0:0|0:0,0:0:0:0:
0,243,36227,6,0,P|68:247|116:296,1,140,6|8,0:0|0:0,0:0:0:0:
168,372,36677,1,0,0:0:0:0:
248,328,36827,2,0,L|255:258,1,70,2|0,0:0|0:0,0:0:0:0:
340,292,37127,2,0,L|347:361,1,70,8|0,0:0|0:0,0:0:0:0:
428,316,37427,6,0,P|472:308|512:316,2,70,2|0|8,0:0|0:0|0:0,0:0:0:0:
340,292,37877,2,0,P|356:240|328:156,1,140,0|0,0:0|0:0,0:0:0:0:
256,108,38327,1,8,0:0:0:0:
324,28,38477,6,0,L|480:44,1,140,2|0,0:0|0:0,0:0:0:0:
508,116,38927,2,0,P|490:147|481:180,1,70,8|0,0:0|0:0,0:0:0:0:
416,244,39227,2,0,P|398:213|374:188,1,70,2|0,0:0|0:0,0:0:0:0:
324,264,39527,2,0,P|306:294|297:327,1,70,8|0,0:0|0:0,0:0:0:0:
218,280,39827,6,0,L|206:208,2,70,2|0|8,0:0|0:0|0:0,0:0:0:0:
160,352,40277,2,0,P|104:368|8:340,1,140,0|0,0:0|0:0,0:0:0:0:
0,264,40727,1,8,0:0:0:0:
72,188,40877,6,0,B|88:152|88:152|64:20,1,140,2|0,0:0|0:0,0:0:0:0:
152,16,41327,2,0,P|194:32|234:32,1,70,8|0,0:0|0:0,0:0:0:0:
308,20,41627,2,0,P|375:2|444:10,1,140,2|8,0:0|0:0,0:0:0:0:
512,72,42077,1,0,0:0:0:0:
452,140,42227,6,0,P|448:188|452:236,1,70,2|0,0:0|0:0,0:0:0:0:
464,300,42527,1,8,0:0:0:0:
404,368,42677,2,0,P|340:364|252:368,1,140,0|0,0:0|0:0,0:0:0:0:
192,310,43127,2,0,P|226:291|246:265,1,70,8|0,0:0|0:0,0:0:0:0:
160,216,43427,6,0,L|20:232,1,140,2|8,0:0|0:0,0:0:0:0:
36,140,43877,2,0,L|204:120,1,140,2|0,0:0|0:0,0:0:0:0:
247,67,44327,2,0,P|262:99|264:134,1,70,8|0,0:0|0:0,0:0:0:0:
244,224,44627,5,2,0:0:0:0:
100,52,44927,1,2,0:0:0:0:
320,13,45227,1,2,0:0:0:0:
500,216,45827,6,0,P|468:192|316:248,1,210.000008010865,2|2,0:0|0:0,0:0:0:0:
268,376,46727,1,0,0:0:0:0:
136,308,47027,2,0,L|146:203,1,105.000004005432,2|0,0:0|0:0,0:0:0:0:
260,112,47627,2,0,L|270:216,1,105.000004005432,2|0,0:0|0:0,0:0:0:0:
416,248,48227,6,0,L|396:38,1,210.000008010865,2|2,0:0|0:0,0:0:0:0:
252,8,49127,1,0,0:0:0:0:
152,116,49427,2,0,P|130:163|131:215,1,105.000004005432,2|0,0:0|0:0,0:0:0:0:
274,246,50027,2,0,P|295:198|294:146,1,105.000004005432,2|0,0:0|0:0,0:0:0:0:
252,8,50627,6,0,L|198:13,1,52.5000020027161,2|0,0:0|0:0,0:0:0:0:
134,49,50927,2,0,L|80:54,1,52.5000020027161,0|0,0:0|0:0,0:0:0:0:
12,28,51227,1,2,0:0:0:0:
64,168,51527,1,0,0:0:0:0:
204,116,51827,6,0,L|262:123,1,52.5000020027161,2|0,0:0|0:0,0:0:0:0:
326,151,52127,2,0,P|303:197|304:252,1,105.000004005432,0|2,0:0|0:0,0:0:0:0:
448,228,52727,1,0,0:0:0:0:
412,64,53027,5,2,0:0:0:0:
412,64,53327,1,2,0:0:0:0:
220,184,53627,2,0,P|204:228|248:316,1,140,2|2,0:0|0:0,0:0:0:0:
296,236,54077,5,2,0:0:0:0:
296,236,54377,2,0,L|435:224,1,140,2|2,0:0|0:0,0:0:0:0:
500,160,54827,1,2,0:0:0:0:
264,112,55127,6,0,P|248:156|228:112,1,105,0|0,0:0|0:0,0:0:0:0:
264,112,55427,6,0,L|403:123,1,140,6|8,0:0|0:0,0:0:0:0:
368,32,55877,2,0,L|228:20,1,140,0|0,0:0|0:0,0:0:0:0:
132,12,56327,1,8,0:0:0:0:
52,238,56627,6,0,P|73:266|101:287,1,70,2|0,0:0|0:0,0:0:0:0:
196,308,56927,2,0,P|228:294|262:292,1,70,8|0,0:0|0:0,0:0:0:0:
356,328,57227,1,2,0:0:0:0:
356,328,57377,1,0,0:0:0:0:
420,256,57527,2,0,L|412:180,1,70,8|0,0:0|0:0,0:0:0:0:
451,87,57827,6,0,P|383:81|325:118,1,140,2|8,0:0|0:0,0:0:0:0:
260,192,58277,2,0,P|191:198|133:161,1,140,0|0,0:0|0:0,0:0:0:0:
84,76,58727,1,8,0:0:0:0:
20,304,59027,6,0,L|29:373,1,70,2|0,0:0|0:0,0:0:0:0:
124,340,59327,2,0,L|115:271,1,70,8|0,0:0|0:0,0:0:0:0:
180,196,59627,1,2,0:0:0:0:
180,196,59777,1,0,0:0:0:0:
260,252,59927,2,0,P|304:260|340:252,1,70,8|0,0:0|0:0,0:0:0:0:
408,184,60227,6,0,L|424:348,1,140,6|8,0:0|0:0,0:0:0:0:
496,260,60677,2,0,L|509:120,1,140,0|0,0:0|0:0,0:0:0:0:
480,28,61127,1,8,0:0:0:0:
256,124,61427,6,0,P|221:124|188:112,1,70,2|0,0:0|0:0,0:0:0:0:
115,48,61727,2,0,P|97:78|71:100,1,70,8|0,0:0|0:0,0:0:0:0:
0,168,62027,1,2,0:0:0:0:
0,168,62177,1,0,0:0:0:0:
41,256,62327,1,8,0:0:0:0:
41,256,62477,1,0,0:0:0:0:
156,220,62627,6,0,L|240:228,1,70,2|0,0:0|0:0,0:0:0:0:
332,236,62927,1,8,0:0:0:0:
164,112,63227,2,0,L|248:120,1,70,2|0,0:0|0:0,0:0:0:0:
340,128,63527,1,8,0:0:0:0:
172,4,63827,6,0,L|256:12,2,70,2|0|8,0:0|0:0|0:0,0:0:0:0:
80,36,64277,2,0,P|96:96|60:176,1,140,2|0,0:0|0:0,0:0:0:0:
0,236,64727,1,8,0:0:0:0:
168,364,65027,6,0,P|217:316|286:315,1,140,6|8,0:0|0:0,0:0:0:0:
372,364,65477,2,0,P|440:362|489:314,1,140,0|0,0:0|0:0,0:0:0:0:
512,220,65927,1,8,0:0:0:0:
312,88,66227,6,0,L|304:157,1,70,2|0,0:0|0:0,0:0:0:0:
220,108,66527,2,0,L|228:39,1,70,8|0,0:0|0:0,0:0:0:0:
136,0,66827,1,2,0:0:0:0:
136,0,66977,1,0,0:0:0:0:
64,64,67127,2,0,P|56:120|68:160,1,70,8|0,0:0|0:0,0:0:0:0:
92,232,67427,6,0,B|147:188|147:188|216:195,1,140,2|8,0:0|0:0,0:0:0:0:
248,288,67877,2,0,B|192:331|192:331|123:324,1,140,0|0,0:0|0:0,0:0:0:0:
27,305,68327,1,8,0:0:0:0:
127,88,68627,6,0,P|144:57|152:23,1,70,2|0,0:0|0:0,0:0:0:0:
236,72,68927,2,0,P|255:101|264:134,1,70,8|0,0:0|0:0,0:0:0:0:
224,224,69227,1,2,0:0:0:0:
224,224,69377,1,0,0:0:0:0:
308,276,69527,2,0,L|384:264,1,70,8|0,0:0|0:0,0:0:0:0:
356,368,69827,6,0,L|200:360,1,140,6|8,0:0|0:0,0:0:0:0:
143,292,70277,2,0,P|92:336|20:334,1,140,0|0,0:0|0:0,0:0:0:0:
58,242,70727,1,8,0:0:0:0:
168,28,71027,6,0,L|236:40,1,70,2|0,0:0|0:0,0:0:0:0:
324,84,71327,2,0,L|392:71,1,70,8|0,0:0|0:0,0:0:0:0:
492,60,71627,1,2,0:0:0:0:
492,60,71777,1,0,0:0:0:0:
452,151,71927,1,8,0:0:0:0:
452,151,72077,1,0,0:0:0:0:
332,168,72227,6,0,L|263:155,1,70,2|0,0:0|0:0,0:0:0:0:
160,136,72527,1,8,0:0:0:0:
320,268,72827,2,0,L|251:255,1,70,2|0,0:0|0:0,0:0:0:0:
148,236,73127,1,8,0:0:0:0:
308,368,73427,6,0,L|239:355,2,70,2|0|8,0:0|0:0|0:0,0:0:0:0:
400,328,73877,2,0,L|469:315,1,70,0|2,0:0|0:0,0:0:0:0:
484,216,74177,1,0,0:0:0:0:
484,216,74327,2,0,P|473:182|471:147,1,70,8|0,0:0|0:0,0:0:0:0:
352,164,74627,6,0,P|323:183|299:209,1,70,2|0,0:0|0:0,0:0:0:0:
256,304,74927,1,8,0:0:0:0:
284,96,75227,2,0,P|255:115|231:141,1,70,2|0,0:0|0:0,0:0:0:0:
188,236,75527,1,8,0:0:0:0:
216,28,75827,6,0,P|187:47|163:73,2,70,2|0|8,0:0|0:0|0:0,0:0:0:0:
311,3,76277,2,0,P|380:17|449:6,1,140,2|0,0:0|0:0,0:0:0:0:
512,84,76727,1,8,0:0:0:0:
448,176,76877,6,0,P|379:162|310:173,1,140,4|0,0:0|0:0,0:0:0:0:
232,220,77327,2,0,L|220:150,1,70,8|0,0:0|0:0,0:0:0:0:
140,192,77627,2,0,L|128:261,1,70,2|0,0:0|0:0,0:0:0:0:
63,323,77927,2,0,P|92:344|126:349,1,70,8|0,0:0|0:0,0:0:0:0:
212,320,78227,6,0,P|256:300|348:320,1,140,2|8,0:0|0:0,0:0:0:0:
412,376,78677,1,2,0:0:0:0:
500,216,78977,2,0,L|492:136,1,70,0|8,0:0|0:0,0:0:0:0:
404,104,79277,6,0,L|389:243,1,140,4|0,0:0|0:0,0:0:0:0:
312,304,79727,2,0,P|296:264|296:220,1,70,8|0,0:0|0:0,0:0:0:0:
308,148,80027,1,2,0:0:0:0:
308,148,80177,1,0,0:0:0:0:
224,112,80327,2,0,L|155:125,1,70,8|0,0:0|0:0,0:0:0:0:
172,36,80627,6,0,L|308:10,1,140,2|8,0:0|0:0,0:0:0:0:
400,28,81077,1,2,0:0:0:0:
492,184,81377,2,0,P|448:180|408:200,1,70,0|8,0:0|0:0,0:0:0:0:
340,240,81677,6,0,P|292:220|212:248,1,140,4|0,0:0|0:0,0:0:0:0:
120,240,82127,2,0,L|113:170,1,70,8|0,0:0|0:0,0:0:0:0:
32,212,82427,2,0,L|25:281,1,70,2|0,0:0|0:0,0:0:0:0:
16,372,82727,2,0,L|85:360,1,70,8|0,0:0|0:0,0:0:0:0:
168,324,83027,6,0,L|306:345,1,140,2|8,0:0|0:0,0:0:0:0:
392,312,83477,1,2,0:0:0:0:
484,152,83777,2,0,P|444:164|408:156,1,70,0|8,0:0|0:0,0:0:0:0:
328,108,84077,6,0,B|284:100|284:100|184:128,1,140,4|0,0:0|0:0,0:0:0:0:
119,180,84527,2,0,P|105:148|103:113,1,70,8|0,0:0|0:0,0:0:0:0:
136,28,84827,1,2,0:0:0:0:
136,28,84977,1,0,0:0:0:0:
228,32,85127,2,0,P|262:29|294:15,1,70,8|0,0:0|0:0,0:0:0:0:
348,88,85427,6,0,L|336:168,2,70,2|0|8,0:0|0:0|0:0,0:0:0:0:
428,44,85877,1,2,0:0:0:0:
492,216,86177,2,0,L|480:296,1,70,0|8,0:0|0:0,0:0:0:0:
412,344,86477,1,0,0:0:0:0:
328,296,86627,6,0,P|320:256|320:216,1,70,6|0,0:0|0:0,0:0:0:0:
336,136,86927,1,8,0:0:0:0:
244,300,87227,2,0,P|235:259|235:219,1,70,2|0,0:0|0:0,0:0:0:0:
251,139,87527,1,8,0:0:0:0:
159,303,87827,2,0,P|150:262|150:222,1,70,2|2,0:0|0:0,0:0:0:0:
166,142,88127,1,8,0:0:0:0:
260,172,88277,6,0,P|323:186|399:129,1,140,6|0,0:0|0:0,0:0:0:0:
416,64,88727,1,8,0:0:0:0:
476,133,88877,1,2,0:0:0:0:
