osu file format v14

[General]
AudioFilename: audio.mp3
AudioLeadIn: 0
PreviewTime: 10141
Countdown: 0
SampleSet: Soft
StackLeniency: 0.7
Mode: 0
LetterboxInBreaks: 0
WidescreenStoryboard: 0

[Editor]
DistanceSpacing: 1
BeatDivisor: 4
GridSize: 8
TimelineZoom: 1.3

[Metadata]
Title:Gabriel Drop Kick
TitleUnicode:ガヴリールドロップキック
Artist:Tomita Miyu, Onishi Saori, Ohzora Naomi, Hanazawa Kana
ArtistUnicode:富田美憂、大西沙織、大空直美、花澤香菜
Creator:wcx19911123
Version:Tenshi
Source:ガヴリールドロップアウト
Tags:Curisu yangzd88 Dropout Dropkick TV Size opening 天真 ガヴリール ホワイト Tenma White 月乃瀬 ヴィネット エイプリル Tsukinose Vignette April 胡桃沢 サタニキア マクドウェル Kurumizawa Satanichia McDowell 白羽 ラフィエル エインズワース Shiraha Raphiel Ainsworth
BeatmapID:1199949
BeatmapSetID:566465

[Difficulty]
HPDrainRate:6.4
CircleSize:4
OverallDifficulty:8.6
ApproachRate:9.2
SliderMultiplier:1.92
SliderTickRate:1

[Events]
//Background and Video events
Video,-150,"video.avi"
0,0,"bg.jpg",0,0
//Break Periods
//Storyboard Layer 0 (Background)
//Storyboard Layer 1 (Fail)
//Storyboard Layer 2 (Pass)
//Storyboard Layer 3 (Foreground)
//Storyboard Sound Samples

[TimingPoints]
231,357.142857142857,4,2,1,20,1,0
588,-100,4,2,1,40,0,0
945,-100,4,2,1,60,0,0
1302,-100,4,2,1,70,0,0
1659,-100,4,2,1,75,0,0
3088,-100,4,2,1,80,0,0
3802,-100,4,2,1,50,0,0
3980,-100,4,2,1,80,0,0
5230,-100,4,2,1,50,0,0
5409,-100,4,2,1,80,0,0
6659,-100,4,2,1,50,0,0
6838,-100,4,2,1,80,0,0
7373,-133.333333333333,4,2,1,80,0,0
8088,-133.333333333333,4,2,1,50,0,0
8266,-133.333333333333,4,2,1,70,0,0
8802,-133.333333333333,4,2,2,80,0,0
9516,-200,4,2,0,70,0,0
10230,357.142857142857,4,2,1,75,1,0
15229,-100,4,2,1,90,0,0
15854,-100,4,2,1,75,0,0
21658,-100,4,2,1,70,0,0
24337,-100,4,2,1,45,0,0
24515,-100,4,1,1,55,0,0
27372,-100,4,2,1,75,0,0
30229,-100,4,1,1,55,0,0
32372,-100,4,1,1,45,0,0
33087,-100,4,2,1,75,0,0
35944,-100,4,1,1,55,0,0
38087,-100,4,1,1,45,0,0
38801,-100,4,2,1,75,0,0
48801,-100,4,2,1,85,0,0
50229,-100,4,2,1,75,0,0
55944,-100,4,2,1,65,0,0
58444,-100,4,2,2,75,0,0
58622,-100,4,2,1,65,0,0
58802,357.142857142857,5,1,1,65,1,0
60409,357.142857142857,5,1,1,65,1,0
62016,357.142857142857,4,1,1,70,1,0
64516,357.142857142857,4,2,1,80,1,0
65766,-100,4,2,1,60,0,0
65944,357.142857142857,4,2,1,75,1,1
71122,-100,4,2,2,70,0,1
71569,-100,4,2,1,75,0,0
71658,-100,4,2,1,75,0,1
76836,-100,4,2,2,70,0,1
77194,-100,4,2,1,75,0,1
78444,-66.6666666666667,4,2,1,75,0,1
78801,-100,4,2,1,75,0,1
79872,-66.6666666666667,4,2,1,75,0,1
80586,-50,4,2,1,75,0,1
80944,-66.6666666666667,4,2,1,75,0,1
81301,-50,4,2,1,75,0,1
81658,-100,4,2,1,65,0,1
82372,-100,4,2,1,50,0,1
83088,357.142857142857,3,2,1,75,1,0
84159,-100,4,2,1,50,0,0
84516,-100,4,2,1,75,0,0
85230,-100,4,2,1,50,0,0
87641,-100,4,2,2,40,0,0

[Colours]
Combo1 : 211,41,46
Combo2 : 242,218,0
Combo3 : 73,45,85
Combo4 : 182,214,243

[HitObjects]
168,248,320,6,0,B|145:157|205:112|266:127|296:45|296:45|318:82|303:120|303:120|326:135|356:135|356:135|333:165|303:172|303:172|318:195|348:203|348:203|311:225|251:195|205:263,1,672
192,312,1659,5,2,0:0:0:0:
192,312,1748,2,0,L|184:360,2,48
296,312,2016,1,2,0:0:0:0:
296,312,2105,2,0,L|328:352,2,48
392,232,2373,1,2,0:0:0:0:
392,232,2463,2,0,L|448:232,2,48
352,88,2730,1,2,0:0:0:0:
352,88,2820,2,0,L|400:64,2,48
200,192,3088,6,0,B|128:248|88:176|16:240,1,192,0|0,3:0|0:0,0:0:0:0:
248,304,3623,1,0,0:0:0:0:
136,120,3802,2,0,P|136:72|160:24,1,96,4|0,0:3|0:0,0:0:0:0:
272,8,4159,1,0,0:0:0:0:
424,184,4338,6,0,P|368:192|328:176,1,96,0|2,0:0|0:0,0:0:0:0:
64,272,4695,2,0,B|104:264|128:232|128:232|160:280|224:288,1,192
296,64,5230,2,0,B|312:104|344:120|344:120|320:136|320:136|344:176|328:224,1,192,4|0,3:0|0:0,0:0:0:0:
304,312,5766,1,0,0:0:0:0:
448,104,5945,5,2,0:0:0:0:
32,40,6302,1,0,0:0:0:0:
168,328,6659,1,4,3:0:0:0:
408,216,7016,1,0,0:0:0:0:
184,152,7373,6,0,P|144:152|40:208,1,144.000005493164,2|0,0:0|0:0,0:0:0:0:
152,272,7909,1,0,0:0:0:0:
272,208,8088,2,0,P|336:200|416:232,1,144.000005493164,4|2,3:0|0:0,0:0:0:0:
504,368,8802,5,4,0:0:0:0:
496,360,9516,2,0,L|448:192,1,168
416,88,10230,6,0,P|392:136|352:168,1,96,4|0,0:0|0:0,0:0:0:0:
288,192,10497,1,0,0:0:0:0:
288,192,10587,2,0,L|240:192,1,48,8|2,0:0|0:0,0:0:0:0:
168,240,10765,2,0,L|104:240,1,48
32,152,10944,1,8,0:0:0:0:
88,336,11122,1,0,0:0:0:0:
88,336,11212,1,0,0:0:0:0:
88,336,11301,2,0,P|112:352|136:352,1,48,8|2,0:0|0:0,0:0:0:0:
176,80,11569,5,0,0:0:0:0:
176,80,11658,2,0,L|160:128,1,48,8|0,0:0|0:0,0:0:0:0:
232,224,11837,1,0,0:0:0:0:
232,224,11926,1,0,0:0:0:0:
232,224,12015,2,0,P|232:200|216:176,1,48,8|2,0:0|0:0,0:0:0:0:
408,88,12283,1,0,0:0:0:0:
408,88,12372,2,0,L|432:136,1,48,8|0,0:0|0:0,0:0:0:0:
384,256,12551,2,0,L|392:184,1,48
320,16,12730,2,0,P|304:48|304:112,1,96,8|2,0:0|0:0,0:0:0:0:
312,112,12997,1,0,0:0:0:0:
224,184,13087,6,0,B|192:176|192:176|176:192,1,48,4|0,0:0|0:0,0:0:0:0:
264,272,13265,2,0,B|264:304|264:304|280:320,1,48,2|0,0:0|0:0,0:0:0:0:
80,240,13444,2,0,B|64:216|64:216|64:192,1,48,8|0,0:0|0:0,0:0:0:0:
144,344,13622,2,0,P|176:336|192:336,1,48,2|0,0:0|0:0,0:0:0:0:
376,352,13801,2,0,L|384:304,1,48,8|0,0:0|0:0,0:0:0:0:
336,224,13979,1,0,0:0:0:0:
336,224,14069,2,0,P|320:184|304:168,1,48,2|8,0:0|0:0,0:0:0:0:
216,136,14247,1,0,0:0:0:0:
216,136,14337,2,0,P|200:96|200:80,1,48,2|0,0:0|0:0,0:0:0:0:
304,16,14515,5,4,0:0:0:0:
304,16,14604,1,0,0:0:0:0:
304,16,14694,1,2,0:0:0:0:
304,16,14783,1,0,0:0:0:0:
344,96,14872,1,8,0:0:0:0:
344,96,14962,1,0,0:0:0:0:
344,96,15051,1,2,0:0:0:0:
344,96,15140,1,0,0:0:0:0:
424,128,15229,1,8,0:0:0:0:
24,248,15408,1,10,0:0:0:0:
432,352,15587,2,0,P|368:328|320:264,1,144,8|0,0:0|0:0,0:0:0:0:
288,152,15944,5,4,0:0:0:0:
168,344,16122,1,2,0:0:0:0:
32,32,16301,1,8,0:0:0:0:
112,152,16479,1,2,0:0:0:0:
480,56,16658,1,8,0:0:0:0:
400,32,16747,2,0,P|344:32|288:56,1,96
128,144,17015,2,0,L|176:152,1,48,8|0,0:0|0:0,0:0:0:0:
48,288,17194,1,2,0:0:0:0:
48,288,17283,2,0,L|96:272,1,48,0|8,0:0|0:0,0:0:0:0:
248,384,17462,6,0,P|248:360|264:336,1,48,0|2,0:0|0:0,0:0:0:0:
440,240,17640,1,0,0:0:0:0:
440,240,17729,2,0,L|424:176,1,48,8|2,0:0|0:0,0:0:0:0:
336,40,17908,1,0,0:0:0:0:
336,40,17997,2,0,L|352:104,1,48,2|8,0:0|0:0,0:0:0:0:
400,336,18176,1,0,0:0:0:0:
400,336,18265,1,2,0:0:0:0:
216,72,18444,1,8,0:0:0:0:
48,344,18622,1,2,0:0:0:0:
96,104,18801,5,12,0:0:0:0:
96,104,18890,1,0,0:0:0:0:
96,104,18979,1,2,0:0:0:0:
96,104,19069,1,0,0:0:0:0:
160,200,19158,1,8,0:0:0:0:
160,200,19247,1,0,0:0:0:0:
160,200,19337,1,2,0:0:0:0:
160,200,19426,1,0,0:0:0:0:
256,144,19515,2,0,P|296:128|312:128,1,48,12|2,0:0|0:0,0:0:0:0:
432,312,19694,2,0,P|400:288|392:272,1,48,8|2,0:0|0:0,0:0:0:0:
432,40,19872,2,0,L|440:96,1,48,8|2,0:0|0:0,0:0:0:0:
280,336,20051,2,0,L|272:288,1,48,8|2,0:0|0:0,0:0:0:0:
232,24,20229,5,12,0:0:0:0:
32,336,20587,1,8,0:0:0:0:
368,168,20944,2,0,P|408:168|440:176,6,48,8|0|0|0|0|0|0,0:0|0:0|0:0|0:0|0:0|0:0|0:0,0:0:0:0:
152,312,21658,6,0,P|104:320|56:312,2,96,2|0|2,0:0|0:0|0:0,0:0:0:0:
256,256,22194,1,0,0:0:0:0:
104,32,22372,1,2,0:0:0:0:
136,144,22551,1,0,0:0:0:0:
344,136,22729,2,0,P|400:144|440:160,1,96,2|0,0:0|0:0,0:0:0:0:
132,232,23087,6,0,B|92:232|68:200|68:200|52:264|84:312,1,192,2|2,0:0|0:0,0:0:0:0:
288,72,23622,1,0,0:0:0:0:
376,200,23801,2,0,P|384:288|368:320,1,96,2|0,0:0|0:0,0:0:0:0:
208,64,24158,1,2,0:0:0:0:
280,256,24337,1,2,0:0:0:0:
16,312,24515,6,0,B|32:264|32:264|80:320|80:320|152:320,1,192,4|2,0:0|0:2,0:0:0:0:
416,72,25051,1,0,0:0:0:0:
264,176,25229,2,0,B|216:192|216:192|256:216,1,96,8|2,0:0|0:2,0:0:0:0:
128,112,25587,1,0,0:0:0:0:
360,224,25765,6,0,B|400:248|400:248|352:280,1,96,8|2,0:0|0:2,0:0:0:0:
120,256,26122,1,8,0:0:0:0:
328,144,26301,1,0,0:0:0:0:
72,176,26479,1,2,0:2:0:0:
280,368,26658,2,0,L|304:256,1,96,8|2,0:0|0:2,0:0:0:0:
104,32,27015,2,0,B|80:96|80:96|56:64,1,96,8|2,0:0|0:2,0:0:0:0:
160,192,27283,5,0,0:0:0:0:
160,192,27372,2,0,P|224:176|272:184,1,96,2|0,0:0|0:0,0:0:0:0:
352,240,27729,1,2,0:0:0:0:
264,72,27908,1,0,0:0:0:0:
216,280,28087,2,0,P|184:320|128:344,1,96,2|0,0:0|0:0,0:0:0:0:
32,352,28444,1,2,0:0:0:0:
168,168,28622,1,0,0:0:0:0:
240,256,28801,6,0,P|288:280|336:280,1,96,2|0,0:0|0:0,0:0:0:0:
432,56,29158,1,2,0:0:0:0:
376,160,29337,1,0,0:0:0:0:
288,232,29515,2,0,B|224:272|152:256|152:256|152:288|136:304,1,192,2|2,0:0|0:0,0:0:0:0:
64,336,29962,2,0,P|32:328|16:312,2,48,0|2|0,0:0|0:0|0:0,0:0:0:0:
56,160,30229,6,0,L|72:256,1,96,4|2,0:0|0:2,0:0:0:0:
192,72,30587,1,0,0:0:0:0:
280,304,30765,2,0,L|320:200,1,96,0|8,0:0|0:0,0:0:0:0:
344,144,31033,1,0,0:0:0:0:
344,144,31122,1,2,0:2:0:0:
152,216,31301,1,0,0:0:0:0:
384,344,31479,2,0,B|368:312|368:312|408:208,1,144,8|2,0:0|0:2,0:0:0:0:
432,136,31837,5,8,0:0:0:0:
216,48,32015,1,0,0:0:0:0:
160,296,32194,1,0,0:0:0:0:
152,128,32372,1,0,0:0:0:0:
104,112,32462,1,8,0:0:0:0:
56,96,32551,2,0,L|8:80,1,48,0|8,0:0|0:0,0:0:0:0:
232,200,32729,1,0,0:0:0:0:
184,216,32819,1,8,0:0:0:0:
136,232,32908,2,0,L|88:248,1,48,0|8,0:0|0:0,0:0:0:0:
256,104,33087,6,0,P|304:72|352:64,1,96,4|2,0:0|0:0,0:0:0:0:
448,104,33444,1,8,0:0:0:0:
256,8,33622,1,0,0:0:0:0:
360,216,33801,2,0,P|368:264|352:320,1,96,8|2,0:0|0:0,0:0:0:0:
16,304,34158,2,0,P|72:304|112:288,1,96,8|0,0:0|0:0,0:0:0:0:
216,96,34515,5,8,0:0:0:0:
248,304,34694,2,0,B|224:224|288:248|264:160,1,144,2|0,0:0|0:0,0:0:0:0:
216,96,35051,1,0,0:0:0:0:
336,280,35229,2,0,P|384:296|432:296,1,96,8|0,0:0|0:0,0:0:0:0:
72,192,35587,1,12,0:0:0:0:
56,184,35944,5,4,0:0:0:0:
128,328,36122,2,0,L|224:312,1,96,0|8,0:0|0:0,0:0:0:0:
304,296,36390,1,0,0:0:0:0:
304,296,36479,1,2,0:2:0:0:
192,64,36658,1,0,0:0:0:0:
168,224,36837,2,0,B|208:160|208:160|216:184,1,96,8|2,0:0|0:2,0:0:0:0:
464,288,37194,6,0,B|424:352|424:352|416:328,2,96,8|0|2,0:0|0:0|0:2,0:0:0:0:
352,48,37729,1,8,0:0:0:0:
376,160,37908,1,0,0:0:0:0:
192,72,38087,2,0,L|136:56,1,48,0|8,0:0|0:0,0:0:0:0:
256,128,38265,2,0,L|312:112,1,48,0|8,0:0|0:0,0:0:0:0:
200,208,38444,2,0,B|176:224|176:224|152:224,1,48,0|8,0:0|0:0,0:0:0:0:
264,288,38622,2,0,B|280:312|280:312|304:320,1,48,0|8,0:0|0:0,0:0:0:0:
72,360,38801,6,0,P|64:312|72:264,1,96,4|2,0:0|0:0,0:0:0:0:
96,152,39158,1,8,0:0:0:0:
280,232,39337,2,0,P|312:264|320:280,1,48
192,232,39515,2,0,P|208:184|248:152,1,96,8|2,0:0|0:0,0:0:0:0:
480,336,39872,2,0,P|408:352|352:336,1,96,8|0,0:0|0:0,0:0:0:0:
152,304,40229,5,8,0:0:0:0:
312,112,40408,1,2,0:0:0:0:
384,240,40587,1,8,0:0:0:0:
64,144,40765,1,2,0:0:0:0:
336,32,40944,2,0,B|408:16|448:64|448:64|416:88|408:120,2,192,8|8|0,0:0|0:0|0:0,0:0:0:0:
320,40,44158,5,8,0:0:0:0:
312,88,44247,1,8,0:0:0:0:
304,136,44337,1,8,0:0:0:0:
296,184,44426,1,8,0:0:0:0:
288,232,44515,2,0,P|248:280|216:296,1,96,4|0,0:0|0:0,0:0:0:0:
344,320,44783,1,0,0:0:0:0:
344,320,44872,2,0,P|400:352|440:352,1,96,10|0,0:0|0:0,0:0:0:0:
504,288,45140,1,0,0:0:0:0:
504,288,45229,2,0,P|504:240|480:200,1,96,0|2,0:0|0:0,0:0:0:0:
400,176,45497,1,0,0:0:0:0:
400,176,45587,1,8,0:0:0:0:
40,192,45854,5,0,0:0:0:0:
40,192,45944,2,0,L|48:240,1,48,2|0,0:0|0:0,0:0:0:0:
120,168,46122,2,0,L|152:128,1,48
168,248,46301,2,0,L|216:264,1,48,8|0,0:0|0:0,0:0:0:0:
256,184,46479,2,0,L|248:136,1,48,2|0,0:0|0:0,0:0:0:0:
232,48,46658,1,0,0:0:0:0:
232,48,46747,1,0,0:0:0:0:
232,48,46837,1,0,0:0:0:0:
232,48,46926,1,0,0:0:0:0:
312,88,47015,1,10,0:0:0:0:
312,88,47104,1,0,0:0:0:0:
312,88,47194,1,0,0:0:0:0:
312,88,47283,1,0,0:0:0:0:
328,176,47372,6,0,P|352:208|376:216,1,48,4|0,0:0|0:0,0:0:0:0:
456,136,47551,2,0,P|400:144|384:160,2,48,2|0|8,0:0|0:0|0:0,0:0:0:0:
336,304,47908,1,0,0:0:0:0:
176,152,48087,2,0,P|112:128|72:128,1,96,2|0,0:0|0:0,0:0:0:0:
24,184,48354,1,0,0:0:0:0:
56,264,48444,2,0,P|80:280|104:288,2,48,8|2|0,0:0|0:0|0:0,0:0:0:0:
16,56,48801,5,8,0:0:0:0:
496,328,49158,1,8,0:0:0:0:
184,152,49515,2,0,L|192:104,1,48,8|0,0:0|0:0,0:0:0:0:
328,232,49694,2,0,L|320:280,1,48,8|0,0:0|0:0,0:0:0:0:
128,272,49872,2,0,L|176:240,1,48,8|0,0:0|0:0,0:0:0:0:
384,112,50051,2,0,L|336:144,1,48,8|0,0:0|0:0,0:0:0:0:
144,232,50229,5,4,0:0:0:0:
48,248,50408,1,0,0:0:0:0:
64,344,50587,1,8,0:0:0:0:
160,328,50765,1,2,0:0:0:0:
240,48,50944,1,0,0:0:0:0:
320,104,51122,1,0,0:0:0:0:
232,144,51301,1,8,0:0:0:0:
240,48,51479,1,2,0:0:0:0:
440,336,51658,5,0,0:0:0:0:
352,296,51837,1,0,0:0:0:0:
432,344,52015,2,0,L|384:320,1,48,8|0,0:0|0:0,0:0:0:0:
344,304,52194,1,2,0:0:0:0:
56,120,52372,1,0,0:0:0:0:
48,128,52551,1,0,0:0:0:0:
64,128,52729,1,8,0:0:0:0:
56,120,52908,1,2,0:0:0:0:
360,208,53087,5,0,0:0:0:0:
360,208,53176,2,0,L|312:184,1,48,0|8,0:0|0:0,0:0:0:0:
248,152,53354,1,0,0:0:0:0:
248,152,53444,1,2,0:0:0:0:
280,304,53622,1,8,0:0:0:0:
400,104,53801,1,0,0:0:0:0:
136,64,53979,1,8,0:0:0:0:
136,64,54069,1,0,0:0:0:0:
136,64,54158,1,2,0:0:0:0:
320,48,54337,1,8,0:0:0:0:
128,192,54515,5,2,0:0:0:0:
156,230,54604,1,0,0:0:0:0:
198,254,54694,1,8,0:0:0:0:
244,264,54783,1,0,0:0:0:0:
291,257,54872,1,2,0:0:0:0:
464,40,55051,1,8,0:0:0:0:
176,104,55229,1,2,0:0:0:0:
128,120,55319,1,0,0:0:0:0:
80,136,55408,1,8,0:0:0:0:
64,184,55497,1,2,0:0:0:0:
48,232,55587,1,10,0:0:0:0:
312,368,55765,1,8,0:0:0:0:
240,176,55944,6,0,B|216:128|256:88|256:88|296:128|272:176,1,192,4|8,0:0|0:0,0:0:0:0:
160,288,56479,1,2,0:0:0:0:
376,104,56658,2,0,P|432:104|472:120,1,96,8|0,0:0|0:0,0:0:0:0:
136,104,57015,2,0,P|80:104|40:120,1,96,8|2,0:0|0:0,0:0:0:0:
352,288,57372,5,12,0:0:0:0:
104,208,57551,1,0,0:0:0:0:
408,208,57729,1,8,0:0:0:0:
176,304,57908,2,0,P|112:328|80:328,1,96,2|8,0:0|0:0,0:0:0:0:
256,72,58265,1,0,0:0:0:0:
426,328,58444,2,0,P|379:324|336:304,1,96,8|2,0:0|0:0,0:0:0:0:
176,144,58801,5,4,0:0:0:0:
80,136,58980,1,0,0:0:0:0:
120,224,59159,1,0,0:0:0:0:
416,264,59337,1,0,0:0:0:0:
392,368,59516,1,0,0:0:0:0:
312,296,59694,1,0,0:0:0:0:
256,32,59873,1,0,0:0:0:0:
224,144,60052,1,0,0:0:0:0:
192,256,60230,1,0,0:0:0:0:
472,344,60409,5,4,0:0:0:0:
360,288,60587,1,0,0:0:0:0:
248,232,60766,1,0,0:0:0:0:
40,336,60944,1,0,0:0:0:0:
176,328,61123,1,0,0:0:0:0:
40,336,61301,1,0,0:0:0:0:
144,56,61480,1,0,0:0:0:0:
160,200,61659,1,0,0:0:0:0:
144,56,61837,1,0,0:0:0:0:
456,184,62016,5,4,0:0:0:0:
320,112,62194,1,0,0:0:0:0:
248,248,62373,1,0,0:0:0:0:
16,160,62551,1,0,0:0:0:0:
152,248,62730,1,0,0:0:0:0:
240,112,62908,1,0,0:0:0:0:
456,288,63087,1,0,0:0:0:0:
352,152,63266,1,0,0:0:0:0:
256,368,63444,5,4,0:0:0:0:
96,280,63623,1,0,0:0:0:0:
96,96,63801,1,0,0:0:0:0:
256,8,63980,1,0,0:0:0:0:
416,96,64158,1,0,0:0:0:0:
416,280,64337,1,0,0:0:0:0:
256,192,64516,5,0,0:0:0:0:
208,104,64694,1,0,0:0:0:0:
208,104,64783,1,0,0:0:0:0:
208,104,64873,1,2,0:0:0:0:
304,104,65051,1,0,0:0:0:0:
352,192,65230,1,0,0:0:0:0:
304,272,65408,1,2,0:0:0:0:
208,272,65587,1,8,0:0:0:0:
160,192,65766,5,8,0:0:0:0:
160,192,65855,1,8,0:0:0:0:
160,192,65944,2,0,P|112:160|72:152,1,96,4|2,0:0|0:0,0:0:0:0:
192,104,66211,1,0,0:0:0:0:
192,104,66301,2,0,P|224:64|272:40,1,96,8|0,0:0|0:0,0:0:0:0:
496,72,66658,1,0,0:0:0:0:
392,120,66836,1,2,0:0:0:0:
392,120,66926,1,0,0:0:0:0:
392,120,67015,1,8,0:0:0:0:
400,8,67194,1,0,0:0:0:0:
488,184,67372,6,0,P|488:248|472:288,1,96,4|2,0:0|0:0,0:0:0:0:
384,344,67640,1,0,0:0:0:0:
384,344,67729,2,0,L|288:328,1,96,8|0,0:0|0:0,0:0:0:0:
40,296,68086,1,0,0:0:0:0:
168,248,68265,1,2,0:0:0:0:
216,232,68354,1,0,0:0:0:0:
264,216,68444,1,8,0:0:0:0:
392,176,68622,1,0,0:0:0:0:
176,80,68801,6,0,B|136:56|136:56|128:104,1,96
416,32,69158,2,0,B|472:64|464:128|464:128|424:128|424:128|400:160,1,192,0|2,0:0|0:0,0:0:0:0:
264,328,69694,2,0,L|248:280,1,48,8|0,0:0|0:0,0:0:0:0:
64,232,69872,2,0,L|80:280,1,48,8|0,0:0|0:0,0:0:0:0:
184,344,70051,5,0,0:0:0:0:
184,344,70140,1,0,0:0:0:0:
184,344,70229,2,0,L|136:192,2,144,8|8|8,0:0|0:0|0:0,0:0:0:0:
256,48,70944,1,8,0:0:0:0:
448,232,71122,2,0,P|424:280|408:264,1,96,8|8,0:0|0:0,0:0:0:0:
104,80,71658,6,0,B|120:144|120:144|112:176,1,96,4|2,0:0|0:0,0:0:0:0:
176,240,71926,1,0,0:0:0:0:
176,240,72015,2,0,L|200:144,1,96,8|0,0:0|0:0,0:0:0:0:
472,40,72372,1,0,0:0:0:0:
368,128,72551,1,2,0:0:0:0:
351,172,72640,1,0,0:0:0:0:
351,219,72729,1,8,0:0:0:0:
416,336,72908,1,0,0:0:0:0:
200,304,73086,6,0,L|80:280,1,96,4|2,0:0|0:0,0:0:0:0:
184,216,73354,1,0,0:0:0:0:
184,216,73444,2,0,P|176:160|192:112,1,96,8|0,0:0|0:0,0:0:0:0:
344,24,73801,1,0,0:0:0:0:
160,40,73979,1,2,0:0:0:0:
160,40,74069,1,0,0:0:0:0:
160,40,74158,1,8,0:0:0:0:
360,120,74336,1,0,0:0:0:0:
248,320,74515,6,0,P|200:360|160:368,1,96
88,112,74872,2,0,B|120:240|120:240|176:280,1,192,0|2,0:0|0:0,0:0:0:0:
440,328,75408,2,0,P|456:312|472:280,1,48,8|0,0:0|0:0,0:0:0:0:
328,168,75586,2,0,P|320:200|328:232,1,48,8|0,0:0|0:0,0:0:0:0:
360,336,75765,5,0,0:0:0:0:
360,336,75854,1,0,0:0:0:0:
360,336,75944,2,0,B|352:256|408:288|400:200,2,144,8|8|8,0:0|0:0|0:0,0:0:0:0:
80,208,76658,1,8,0:0:0:0:
264,24,76836,2,0,L|288:120,1,96,8|8,0:0|0:0,0:0:0:0:
344,344,77194,1,0,0:0:0:0:
160,120,77372,6,0,P|192:168|200:208,1,96,4|2,0:0|0:0,0:0:0:0:
176,288,77640,1,0,0:0:0:0:
176,288,77729,1,8,0:0:0:0:
320,120,77908,1,0,0:0:0:0:
352,312,78086,2,0,P|288:288|264:256,1,96
440,328,78444,2,0,P|336:336|272:304,1,144.000005493164,8|2,0:0|0:0,0:0:0:0:
208,48,78801,5,4,0:0:0:0:
56,160,78979,1,2,0:0:0:0:
56,160,79069,1,0,0:0:0:0:
56,160,79158,1,8,0:0:0:0:
88,272,79336,1,0,0:0:0:0:
296,136,79515,2,0,L|408:128,1,96
232,208,79872,2,0,B|264:172|264:172|376:164,1,144.000005493164,8|2,0:0|0:0,0:0:0:0:
32,240,80229,6,0,B|72:280|56:336|56:336|72:328|96:328,1,144.000005493164,12|0,0:0|0:0,0:0:0:0:
64,160,80586,2,0,B|120:192|136:256|136:256|168:272|176:312,1,192,8|0,0:0|0:0,0:0:0:0:
464,152,80944,2,0,B|416:160|416:160|376:136|376:136|360:184,1,144.000005493164,12|0,0:0|0:0,0:0:0:0:
432,64,81301,2,0,B|384:40|384:40|304:72|304:72|280:152,1,192,8|0,0:0|0:0,0:0:0:0:
192,352,81658,6,0,L|168:304,1,48,8|0,0:0|0:0,0:0:0:0:
88,288,81836,2,0,L|80:240,1,48,8|0,0:0|0:0,0:0:0:0:
24,168,82015,2,0,P|64:136|72:120,1,48,8|0,0:0|0:0,0:0:0:0:
136,48,82194,2,0,P|152:80|168:96,1,48,8|0,0:0|0:0,0:0:0:0:
284,158,82372,1,8,0:0:0:0:
330,169,82461,1,8,0:0:0:0:
377,166,82551,1,8,0:0:0:0:
421,148,82640,1,8,0:0:0:0:
408,264,82729,1,8,0:0:0:0:
352,248,82819,1,8,0:0:0:0:
296,232,82908,1,8,0:0:0:0:
240,216,82997,1,8,0:0:0:0:
240,224,83088,6,0,P|184:280|72:296,2,192,0|2|0,0:0|0:0|0:0,0:0:0:0:
56,32,84159,2,0,L|32:224,2,192,4|2|0,0:3|0:0|0:0,0:0:0:0:
336,80,85230,1,4,0:3:0:0:
280,360,85945,5,4,0:3:0:0:
296,240,86302,2,0,B|320:144|256:96|192:112|160:24|160:24|136:64|152:104|152:104|128:120|96:120|96:120|120:152|152:160|152:160|136:184|104:192|104:192|144:216|200:176|256:256,1,720,4|4,0:3|0:0,0:0:0:0:
