osu file format v14

[General]
AudioFilename: audio.mp3
AudioLeadIn: 0
PreviewTime: 10141
Countdown: 0
SampleSet: Soft
StackLeniency: 0.7
Mode: 0
LetterboxInBreaks: 0
WidescreenStoryboard: 0

[Editor]
DistanceSpacing: 1
BeatDivisor: 4
GridSize: 8
TimelineZoom: 1

[Metadata]
Title:Gabriel Drop Kick
TitleUnicode:ガヴリールドロップキック
Artist:Tomita Miyu, Onishi Saori, Ohzora Naomi, Hanazawa Kana
ArtistUnicode:富田美憂、大西沙織、大空直美、花澤香菜
Creator:wcx19911123
Version:Hard
Source:ガヴリールドロップアウト
Tags:Curisu yangzd88 Dropout Dropkick TV Size opening 天真 ガヴリール ホワイト Tenma White 月乃瀬 ヴィネット エイプリル Tsukinose Vignette April 胡桃沢 サタニキア マクドウェル Kurumizawa Satanichia McDowell 白羽 ラフィエル エインズワース Shiraha Raphiel Ainsworth
BeatmapID:1201585
BeatmapSetID:566465

[Difficulty]
HPDrainRate:5
CircleSize:4
OverallDifficulty:7
ApproachRate:8
SliderMultiplier:1.6
SliderTickRate:1

[Events]
//Background and Video events
Video,-150,"video.avi"
0,0,"bg.jpg",0,0
//Break Periods
//Storyboard Layer 0 (Background)
//Storyboard Layer 1 (Fail)
//Storyboard Layer 2 (Pass)
//Storyboard Layer 3 (Foreground)
//Storyboard Sound Samples

[TimingPoints]
231,357.142857142857,4,2,1,20,1,0
588,-100,4,2,1,40,0,0
945,-100,4,2,1,60,0,0
1302,-100,4,2,1,70,0,0
1659,-100,4,2,1,75,0,0
3088,-100,4,2,1,80,0,0
3802,-100,4,2,1,50,0,0
3980,-100,4,2,1,80,0,0
5230,-100,4,2,1,50,0,0
5409,-100,4,2,1,80,0,0
6659,-100,4,2,1,50,0,0
6838,-100,4,2,1,80,0,0
8088,-100,4,2,1,50,0,0
8266,-100,4,2,1,70,0,0
8802,-100,4,2,2,80,0,0
9516,-100,4,2,0,70,0,0
10230,357.142857142857,4,2,1,75,1,0
15229,-100,4,2,1,90,0,0
15854,-100,4,2,1,75,0,0
21658,-100,4,2,1,70,0,0
24515,-100,4,1,1,55,0,0
27372,-100,4,2,1,75,0,0
30229,-100,4,1,1,55,0,0
32372,-100,4,1,1,45,0,0
33087,-100,4,2,1,75,0,0
35944,-100,4,1,1,55,0,0
38801,-100,4,2,1,75,0,0
48801,-100,4,2,1,85,0,0
50229,-100,4,2,1,75,0,0
55944,-100,4,2,1,65,0,0
58444,-100,4,2,2,75,0,0
58802,357.142857142857,5,1,1,65,1,0
60409,357.142857142857,5,1,1,65,1,0
62016,357.142857142857,4,1,1,70,1,0
64516,357.142857142857,4,2,1,80,1,0
65766,-100,4,2,1,60,0,0
65944,357.142857142857,4,2,1,75,1,1
71122,-100,4,2,2,70,0,1
71569,-100,4,2,1,75,0,0
71658,-100,4,2,1,75,0,1
76836,-100,4,2,2,70,0,1
77194,-100,4,2,1,75,0,1
81658,-100,4,2,1,65,0,1
82372,-100,4,2,1,50,0,1
83088,357.142857142857,3,2,1,75,1,0
84159,-100,4,2,1,50,0,0
84516,-100,4,2,1,75,0,0
85230,-100,4,2,1,50,0,0
87641,-100,4,2,2,40,0,0

[Colours]
Combo1 : 211,41,46
Combo2 : 242,218,0
Combo3 : 73,45,85
Combo4 : 182,214,243

[HitObjects]
448,192,320,6,0,B|392:128|296:124|296:124|328:96|328:24|256:-4|184:24|184:96|216:124|216:124|120:128|64:192,1,600,0|2,0:0|0:0,0:0:0:0:
64,352,2016,1,2,0:0:0:0:
200,272,2373,1,2,0:0:0:0:
64,192,2730,1,2,0:0:0:0:
152,336,3088,6,0,P|208:344|312:312,1,160,0|0,3:0|0:0,0:0:0:0:
360,256,3623,1,0,0:0:0:0:
368,176,3802,2,0,L|368:96,2,80,4|0|0,0:3|0:0|0:0,0:0:0:0:
288,96,4338,6,0,P|312:40|432:48,2,160,0|0|0,0:0|0:0|0:0,0:0:0:0:
272,176,5230,2,0,P|224:224|136:248,1,160,4|0,3:0|0:0,0:0:0:0:
56,240,5766,5,0,0:0:0:0:
56,240,5945,1,2,0:0:0:0:
192,320,6302,1,0,0:0:0:0:
280,184,6659,1,4,3:0:0:0:
352,328,7016,1,0,0:0:0:0:
200,232,7373,6,0,P|160:176|160:80,1,160,2|0,0:0|0:0,0:0:0:0:
216,32,7909,1,0,0:0:0:0:
296,48,8088,2,0,P|336:104|336:200,1,160,4|2,3:0|0:0,0:0:0:0:
256,328,8802,1,4,0:0:0:0:
256,328,9516,6,0,B|256:256|192:224|192:224|216:176|216:176|136:184|88:136,1,320,0|4,0:0|0:0,0:0:0:0:
56,48,10408,5,0,0:0:0:0:
152,64,10587,2,0,L|192:56,2,40,8|2|0,0:0|0:0|0:0,0:0:0:0:
89,137,10944,1,8,0:0:0:0:
88,232,11122,1,0,0:0:0:0:
88,328,11301,2,0,L|88:368,2,40,8|2|0,0:0|0:0|0:0,0:0:0:0:
176,288,11658,5,8,0:0:0:0:
240,216,11837,1,0,0:0:0:0:
280,128,12015,2,0,P|280:104|272:64,2,40,8|0|2,0:0|0:0|0:0,0:0:0:0:
336,208,12372,1,8,0:0:0:0:
376,296,12551,1,0,0:0:0:0:
432,216,12730,2,0,P|448:160|440:112,1,80,8|2,0:0|0:0,0:0:0:0:
416,48,13087,5,4,0:0:0:0:
416,48,13265,1,2,0:0:0:0:
352,120,13444,2,0,P|328:128|264:120,1,80,8|2,0:0|0:0,0:0:0:0:
176,80,13801,2,0,P|184:128|160:200,1,120,8|2,0:0|0:0,0:0:0:0:
144,232,14158,2,0,L|224:224,1,80,8|2,0:0|0:0,0:0:0:0:
320,216,14515,5,4,0:0:0:0:
416,208,14694,1,2,0:0:0:0:
376,296,14872,2,0,P|336:320|288:328,1,80,8|2,0:0|0:0,0:0:0:0:
208,312,15229,1,8,0:0:0:0:
168,224,15408,1,10,0:0:0:0:
128,136,15587,1,8,0:0:0:0:
48,344,15944,6,0,P|88:360|144:352,1,80,4|2,0:0|0:0,0:0:0:0:
208,312,16301,1,8,0:0:0:0:
248,224,16479,1,2,0:0:0:0:
328,168,16658,2,0,P|368:176|408:208,1,80,8|0,0:0|0:0,0:0:0:0:
432,288,17015,1,8,0:0:0:0:
368,360,17194,1,2,0:0:0:0:
272,360,17372,6,0,L|224:360,1,40,8|0,0:0|0:0,0:0:0:0:
112,264,17729,2,0,P|72:320|16:344,2,120,8|2|2,0:0|0:0|0:0,0:0:0:0:
128,168,18444,1,8,0:0:0:0:
112,72,18622,1,2,0:0:0:0:
200,112,18801,6,0,L|240:120,3,40,12|0|2|0,0:0|0:0|0:0|0:0,0:0:0:0:
256,168,19158,2,0,L|296:160,3,40,8|0|2|0,0:0|0:0|0:0|0:0,0:0:0:0:
336,128,19515,1,12,0:0:0:0:
336,128,19694,1,8,0:0:0:0:
432,184,19872,1,8,0:0:0:0:
432,184,20051,1,8,0:0:0:0:
432,72,20229,5,12,0:0:0:0:
256,224,20587,1,8,0:0:0:0:
80,72,20944,2,0,P|40:104|24:136,2,80,8|0|0,0:0|0:0|0:0,0:0:0:0:
288,48,21658,6,0,B|368:72|328:128|408:152,1,160,2|2,0:0|0:0,0:0:0:0:
496,128,22194,1,0,0:0:0:0:
464,216,22372,2,0,P|424:248|384:256,1,80,2|0,0:0|0:0,0:0:0:0:
320,312,22729,2,0,P|288:256|256:240,1,80,2|0,0:0|0:0,0:0:0:0:
184,224,23087,5,2,0:0:0:0:
24,344,23444,1,2,0:0:0:0:
40,248,23622,1,0,0:0:0:0:
96,168,23801,2,0,P|152:128|248:120,1,160,2|2,0:0|0:0,0:0:0:0:
456,264,24515,6,0,B|376:264|376:264|304:224,1,160,4|2,0:0|0:2,0:0:0:0:
216,184,25051,1,0,0:0:0:0:
128,144,25229,1,8,0:0:0:0:
48,200,25408,2,0,L|32:248,2,40,2|0|0,0:2|0:0|0:0,0:0:0:0:
40,104,25765,6,0,B|32:48|32:48|136:64,1,160,8|8,0:0|0:0,0:0:0:0:
232,80,26301,1,0,0:0:0:0:
328,96,26479,1,2,0:2:0:0:
424,112,26658,2,0,L|392:200,1,80,8|2,0:0|0:2,0:0:0:0:
360,280,27015,1,8,0:0:0:0:
320,368,27194,2,0,L|288:336,1,40,2|0,0:2|0:0,0:0:0:0:
264,312,27372,6,0,P|208:288|104:288,1,160,2|2,0:0|0:0,0:0:0:0:
16,312,27908,1,0,0:0:0:0:
48,224,28087,2,0,P|56:184|48:136,1,80,2|0,0:0|0:0,0:0:0:0:
160,88,28444,2,0,P|144:128|144:176,1,80,2|0,0:0|0:0,0:0:0:0:
120,288,28801,6,0,B|112:264|128:248|128:248|192:252|224:196,1,160,2|2,0:0|0:0,0:0:0:0:
256,104,29337,1,0,0:0:0:0:
352,96,29515,2,0,P|432:120|480:176,1,160,2|2,0:0|0:0,0:0:0:0:
496,272,30051,1,2,0:0:0:0:
416,320,30229,6,0,L|328:312,1,80,4|2,0:0|0:2,0:0:0:0:
104,296,30765,1,0,0:0:0:0:
64,208,30944,2,0,L|80:128,1,80,8|2,0:0|0:2,0:0:0:0:
152,64,31301,1,0,0:0:0:0:
192,152,31479,2,0,L|176:232,1,80,8|0,0:0|0:0,0:0:0:0:
192,328,31837,6,0,L|200:376,2,40,8|0|0,0:0|0:0|0:0,0:0:0:0:
264,264,32194,1,0,0:0:0:0:
352,296,32372,2,0,L|400:312,3,40,0|8|0|8,0:0|0:0|0:0|0:0,0:0:0:0:
408,272,32729,2,0,L|456:272,3,40,0|8|0|8,0:0|0:0|0:0|0:0,0:0:0:0:
432,232,33087,6,0,P|456:184|456:144,1,80,4|2,0:0|0:0,0:0:0:0:
416,72,33444,1,8,0:0:0:0:
328,32,33622,1,0,0:0:0:0:
288,120,33801,2,0,P|240:144|192:144,1,80,8|2,0:0|0:0,0:0:0:0:
120,128,34158,1,8,0:0:0:0:
40,72,34337,1,0,0:0:0:0:
32,168,34515,5,8,0:0:0:0:
112,224,34694,2,0,P|168:248|208:248,1,80,2|8,0:0|0:0,0:0:0:0:
280,232,35051,1,0,0:0:0:0:
400,208,35229,2,0,P|360:184|336:152,1,80,8|0,0:0|0:0,0:0:0:0:
320,64,35587,1,12,0:0:0:0:
186,249,35944,5,4,0:0:0:0:
248,320,36122,2,0,L|336:312,1,80,0|8,0:0|0:0,0:0:0:0:
424,304,36479,1,2,0:2:0:0:
368,224,36658,1,0,0:0:0:0:
312,144,36837,2,0,L|256:64,1,80,8|2,0:0|0:2,0:0:0:0:
136,112,37194,6,0,B|192:128|192:128|264:232,1,160,8|2,0:0|0:2,0:0:0:0:
192,288,37729,2,0,L|136:208,1,80,8|0,0:0|0:0,0:0:0:0:
48,208,38087,1,0,0:0:0:0:
48,208,38265,1,8,0:0:0:0:
8,120,38444,1,0,0:0:0:0:
8,120,38622,1,8,0:0:0:0:
64,40,38801,6,0,P|104:24|216:40,1,160,4|8,0:0|0:0,0:0:0:0:
272,120,39337,1,0,0:0:0:0:
288,216,39515,2,0,P|312:264|336:288,1,80,8|2,0:0|0:0,0:0:0:0:
416,328,39872,1,8,0:0:0:0:
512,312,40051,1,0,0:0:0:0:
448,240,40229,6,0,P|432:192|432:136,1,80,8|2,0:0|0:0,0:0:0:0:
440,64,40587,1,8,0:0:0:0:
440,64,40765,1,2,0:0:0:0:
352,104,40944,2,0,B|304:112|264:88|264:88|232:112|240:152,2,160,8|8|0,0:0|0:0|0:0,0:0:0:0:
368,96,44158,6,0,L|360:152,3,40,8|8|8|8,0:0|0:0|0:0|0:0,0:0:0:0:
352,184,44515,6,0,P|336:216|312:240,2,40,4|0|0,0:0|0:0|0:0,0:0:0:0:
256,160,44872,2,0,P|232:160|208:168,2,40,10|0|0,0:0|0:0|0:0,0:0:0:0:
248,256,45229,2,0,P|216:304|192:320,1,80,0|2,0:0|0:0,0:0:0:0:
160,328,45497,2,0,P|136:336|120:336,1,40,0|8,0:0|0:0,0:0:0:0:
8,200,45854,6,0,L|48:192,1,40,0|2,0:0|0:0,0:0:0:0:
144,176,46122,1,0,0:0:0:0:
240,152,46301,2,0,L|280:144,2,40,8|0|2,0:0|0:0|0:0,0:0:0:0:
176,80,46658,2,0,L|256:64,1,80,0|0,0:0|0:0,0:0:0:0:
352,80,47015,1,10,0:0:0:0:
448,56,47194,1,0,0:0:0:0:
424,152,47372,6,0,P|424:184|432:208,1,40,4|0,0:0|0:0,0:0:0:0:
400,232,47551,2,0,P|400:272|392:288,2,40,2|0|8,0:0|0:0|0:0,0:0:0:0:
320,176,47908,1,0,0:0:0:0:
224,152,48087,2,0,P|168:152|128:168,1,80,2|0,0:0|0:0,0:0:0:0:
64,208,48444,2,0,P|56:224|56:264,2,40,8|2|0,0:0|0:0|0:0,0:0:0:0:
144,256,48801,5,8,0:0:0:0:
336,120,49158,1,8,0:0:0:0:
112,64,49515,1,8,0:0:0:0:
112,64,49694,1,8,0:0:0:0:
208,48,49872,1,8,0:0:0:0:
208,48,50051,1,8,0:0:0:0:
280,112,50229,6,0,P|304:152|304:208,1,80,4|0,0:0|0:0,0:0:0:0:
240,256,50587,2,0,P|216:216|216:160,1,80,8|2,0:0|0:0,0:0:0:0:
248,96,50944,1,0,0:0:0:0:
336,56,51122,2,0,L|416:56,2,80,0|8|2,0:0|0:0|0:0,0:0:0:0:
240,56,51658,5,0,0:0:0:0:
144,56,51837,1,0,0:0:0:0:
64,112,52015,2,0,L|16:112,2,40,8|0|2,0:0|0:0|0:0,0:0:0:0:
152,152,52372,1,0,0:0:0:0:
192,240,52551,1,0,0:0:0:0:
152,328,52729,2,0,P|112:360|72:368,1,80,8|2,0:0|0:0,0:0:0:0:
8,304,53087,5,0,0:0:0:0:
8,304,53265,1,8,0:0:0:0:
24,208,53444,1,2,0:0:0:0:
24,208,53622,1,8,0:0:0:0:
96,272,53801,1,0,0:0:0:0:
96,272,53979,1,8,0:0:0:0:
112,176,54158,1,2,0:0:0:0:
112,176,54337,1,8,0:0:0:0:
192,232,54515,6,0,L|200:184,1,40,2|0,0:0|0:0,0:0:0:0:
208,152,54694,2,0,L|216:104,2,40,8|0|2,0:0|0:0|0:0,0:0:0:0:
288,208,55051,1,8,0:0:0:0:
384,192,55229,2,0,L|392:144,1,40,2|0,0:0|0:0,0:0:0:0:
400,112,55408,2,0,L|408:64,2,40,8|2|10,0:0|0:0|0:0,0:0:0:0:
480,168,55765,1,8,0:0:0:0:
456,264,55944,6,0,P|400:320|312:344,1,160,4|8,0:0|0:0,0:0:0:0:
240,304,56479,1,2,0:0:0:0:
152,264,56658,2,0,P|88:272|64:288,2,80,8|0|8,0:0|0:0|0:0,0:0:0:0:
280,104,57372,6,0,P|336:80|376:80,2,80,12|0|8,0:0|0:0|0:0,0:0:0:0:
248,192,57908,2,0,P|296:208|408:192,1,160,2|0,0:0|0:0,0:0:0:0:
472,128,58444,1,8,0:0:0:0:
304,32,58801,5,4,0:0:0:0:
304,32,58980,2,0,L|216:40,1,80,0|0,0:0|0:0,0:0:0:0:
160,128,59337,1,0,0:0:0:0:
160,128,59516,2,0,L|248:120,1,80,0|0,0:0|0:0,0:0:0:0:
320,176,59873,1,0,0:0:0:0:
320,176,60052,2,0,L|328:264,1,80,0|0,0:0|0:0,0:0:0:0:
264,328,60409,5,4,0:0:0:0:
168,336,60587,2,0,P|112:320|88:296,1,80,0|0,0:0|0:0,0:0:0:0:
32,232,60944,1,0,0:0:0:0:
128,224,61123,2,0,P|176:208|208:176,1,80,0|0,0:0|0:0,0:0:0:0:
240,104,61480,1,0,0:0:0:0:
168,40,61659,2,0,P|120:32|72:40,1,80,0|0,0:0|0:0,0:0:0:0:
16,96,62016,5,4,0:0:0:0:
64,176,62194,1,0,0:0:0:0:
64,176,62373,1,0,0:0:0:0:
160,160,62551,1,0,0:0:0:0:
224,232,62730,1,0,0:0:0:0:
224,232,62908,1,0,0:0:0:0:
304,176,63087,2,0,P|328:168|392:168,1,80,0|0,0:0|0:0,0:0:0:0:
464,216,63444,5,4,0:0:0:0:
464,216,63623,1,0,0:0:0:0:
464,216,63801,1,0,0:0:0:0:
440,312,63980,1,0,0:0:0:0:
440,312,64158,1,0,0:0:0:0:
440,312,64337,1,0,0:0:0:0:
352,352,64516,5,0,0:0:0:0:
256,344,64694,2,0,P|232:336|208:312,2,40,0|0|2,0:0|0:0|0:0,0:0:0:0:
312,264,65051,1,0,0:0:0:0:
320,168,65230,2,0,P|304:112|280:88,1,80,0|2,0:0|0:0,0:0:0:0:
200,64,65587,1,8,0:0:0:0:
104,80,65766,2,0,P|80:96|64:120,1,40,8|8,0:0|0:0,0:0:0:0:
48,144,65944,6,0,P|40:192|56:264,1,120,4|0,0:0|0:0,0:0:0:0:
88,296,66301,2,0,P|104:256|144:216,1,80,8|0,0:0|0:0,0:0:0:0:
216,184,66658,2,0,P|280:176|344:200,1,120,0|0,0:0|0:0,0:0:0:0:
368,224,67015,1,8,0:0:0:0:
408,312,67194,1,0,0:0:0:0:
464,232,67372,6,0,P|480:192|472:96,1,120,4|0,0:0|0:0,0:0:0:0:
456,72,67729,1,8,0:0:0:0:
368,32,67908,1,0,0:0:0:0:
384,128,68086,1,0,0:0:0:0:
296,96,68265,2,0,L|248:80,2,40,2|0|8,0:0|0:0|0:0,0:0:0:0:
384,128,68622,1,0,0:0:0:0:
472,168,68801,5,0,0:0:0:0:
328,320,69158,2,0,B|272:336|224:312|224:312|208:280|184:272,1,160,0|2,0:0|0:0,0:0:0:0:
96,248,69694,1,8,0:0:0:0:
168,184,69872,2,0,P|184:136|184:96,1,80,8|0,0:0|0:0,0:0:0:0:
112,40,70229,6,0,P|72:40|0:80,2,120,8|8|8,0:0|0:0|0:0,0:0:0:0:
185,106,70944,1,8,0:0:0:0:
280,128,71122,2,0,P|320:128|360:112,1,80,8|8,0:0|0:0,0:0:0:0:
480,296,71658,6,0,P|432:264|352:256,1,120,4|0,0:0|0:0,0:0:0:0:
336,288,72015,2,0,L|248:264,1,80,8|0,0:0|0:0,0:0:0:0:
184,328,72372,2,0,L|40:288,1,120,0|0,0:0|0:0,0:0:0:0:
24,280,72729,1,8,0:0:0:0:
80,200,72908,1,0,0:0:0:0:
160,144,73086,6,0,P|200:136|280:152,1,120,4|0,0:0|0:0,0:0:0:0:
312,184,73444,1,8,0:0:0:0:
352,272,73622,1,0,0:0:0:0:
408,192,73801,1,0,0:0:0:0:
368,104,73979,2,0,L|352:64,2,40,2|0|8,0:0|0:0|0:0,0:0:0:0:
408,192,74336,1,0,0:0:0:0:
448,280,74515,5,0,0:0:0:0:
256,264,74872,2,0,B|152:256|152:256|96:288,1,160,0|2,0:0|0:0,0:0:0:0:
24,336,75408,1,8,0:0:0:0:
16,240,75586,2,0,P|24:200|48:160,1,80,8|0,0:0|0:0,0:0:0:0:
128,120,75944,6,0,P|88:80|0:80,2,120,8|8|8,0:0|0:0|0:0,0:0:0:0:
120,216,76658,1,8,0:0:0:0:
208,176,76836,2,0,L|288:136,1,80,8|8,0:0|0:0,0:0:0:0:
464,64,77372,6,0,P|480:128|464:192,1,120,4|0,0:0|0:0,0:0:0:0:
440,216,77729,1,8,0:0:0:0:
352,248,77908,1,0,0:0:0:0:
256,240,78086,2,0,P|208:224|176:192,1,80
136,288,78444,2,0,P|96:248|88:224,1,80,8|2,0:0|0:0,0:0:0:0:
72,136,78801,6,0,B|152:128|152:128|176:96,1,120,4|0,0:0|0:0,0:0:0:0:
200,56,79158,1,8,0:0:0:0:
296,48,79336,1,0,0:0:0:0:
392,40,79515,2,0,L|488:32,1,80,0|0,0:0|0:0,0:0:0:0:
416,128,79872,2,0,L|512:120,1,80,8|2,0:0|0:0,0:0:0:0:
480,216,80229,6,0,P|448:264|416:280,1,80,12|0,0:0|0:0,0:0:0:0:
360,344,80586,2,0,P|336:312|336:248,1,80,8|0,0:0|0:0,0:0:0:0:
336,176,80944,2,0,L|360:96,1,80,12|0,0:0|0:0,0:0:0:0:
248,136,81301,2,0,L|272:56,1,80,8|0,0:0|0:0,0:0:0:0:
184,16,81658,5,8,0:0:0:0:
184,16,81836,1,0,0:0:0:0:
96,56,82015,1,8,0:0:0:0:
96,56,82194,1,8,0:0:0:0:
176,112,82372,1,8,0:0:0:0:
88,152,82551,1,8,0:0:0:0:
168,208,82729,1,8,0:0:0:0:
80,248,82908,1,8,0:0:0:0:
400,320,83445,6,0,P|432:272|432:168,2,160,2|0|4,0:0|0:0|0:3,0:0:0:0:
232,224,84516,2,0,L|72:256,2,160,2|0|4,0:0|0:0|0:3,0:0:0:0:
480,32,85945,5,4,0:3:0:0:
464,192,86302,2,0,B|396:268|296:268|296:268|328:296|328:368|256:396|184:368|184:296|216:268|216:268|116:268|48:192,1,640,4|4,0:3|0:0,0:0:0:0:
