osu file format v14

[General]
AudioFilename: audio.mp3
AudioLeadIn: 0
PreviewTime: 10141
Countdown: 0
SampleSet: Soft
StackLeniency: 0.7
Mode: 0
LetterboxInBreaks: 0
WidescreenStoryboard: 0

[Editor]
DistanceSpacing: 1
BeatDivisor: 4
GridSize: 8
TimelineZoom: 1

[Metadata]
Title:Gabriel Drop Kick
TitleUnicode:ガヴリールドロップキック
Artist:Tomita Miyu, Onishi Saori, Ohzora Naomi, Hanazawa Kana
ArtistUnicode:富田美憂、大西沙織、大空直美、花澤香菜
Creator:wcx19911123
Version:Easy
Source:ガヴリールドロップアウト
Tags:Curisu yangzd88 Dropout Dropkick TV Size opening 天真 ガヴリール ホワイト Tenma White 月乃瀬 ヴィネット エイプリル Tsukinose Vignette April 胡桃沢 サタニキア マクドウェル Kurumizawa Satanichia McDowell 白羽 ラフィエル エインズワース Shiraha Raphiel Ainsworth
BeatmapID:1203189
BeatmapSetID:566465

[Difficulty]
HPDrainRate:2
CircleSize:3
OverallDifficulty:2
ApproachRate:3
SliderMultiplier:0.8
SliderTickRate:1

[Events]
//Background and Video events
Video,-150,"video.avi"
0,0,"bg.jpg",0,0
//Break Periods
//Storyboard Layer 0 (Background)
//Storyboard Layer 1 (Fail)
//Storyboard Layer 2 (Pass)
//Storyboard Layer 3 (Foreground)
//Storyboard Sound Samples

[TimingPoints]
231,357.142857142857,4,2,1,20,1,0
588,-100,4,2,1,40,0,0
945,-100,4,2,1,60,0,0
1302,-100,4,2,1,70,0,0
1659,-100,4,2,1,75,0,0
3088,-100,4,2,1,80,0,0
3802,-100,4,2,1,50,0,0
3980,-100,4,2,1,80,0,0
5230,-100,4,2,1,50,0,0
5409,-100,4,2,1,80,0,0
6659,-100,4,2,1,50,0,0
6838,-100,4,2,1,80,0,0
8088,-100,4,2,1,50,0,0
8266,-100,4,2,1,80,0,0
8802,-100,4,2,2,80,0,0
10230,357.142857142857,4,2,1,75,1,0
15229,-100,4,2,1,90,0,0
15854,-100,4,2,1,75,0,0
21658,-100,4,2,1,70,0,0
24515,-100,4,1,1,55,0,0
27372,-100,4,2,1,75,0,0
30229,-100,4,1,1,55,0,0
32372,-100,4,1,1,45,0,0
33087,-100,4,2,1,75,0,0
35944,-100,4,1,1,55,0,0
38801,-100,4,2,1,75,0,0
48801,-100,4,2,1,85,0,0
50229,-100,4,2,1,75,0,0
55944,-100,4,2,1,65,0,0
58444,-100,4,2,2,75,0,0
58802,357.142857142857,5,1,1,65,1,0
60409,357.142857142857,5,1,1,65,1,0
62016,357.142857142857,4,1,1,70,1,0
64516,357.142857142857,4,2,1,80,1,0
65944,357.142857142857,4,2,1,75,1,1
71122,-100,4,2,2,70,0,1
71569,-100,4,2,1,75,0,0
71658,-100,4,2,1,75,0,1
76836,-100,4,2,2,70,0,1
77194,-100,4,2,1,75,0,1
81658,-100,4,2,1,65,0,1
82372,-100,4,2,1,50,0,1
83088,357.142857142857,3,2,1,75,1,0
84159,-100,3,2,1,50,0,0
84516,-100,3,2,1,75,0,0
85230,-100,3,2,1,50,0,0
87641,-100,3,2,2,40,0,0

[Colours]
Combo1 : 211,41,46
Combo2 : 242,218,0
Combo3 : 73,45,85
Combo4 : 182,214,243

[HitObjects]
208,168,320,6,0,P|232:64|304:168,1,300,0|2,0:0|0:0,0:0:0:0:
168,256,2373,1,2,0:0:0:0:
312,328,3088,6,0,P|408:320|464:288,1,160,0|4,3:0|0:3,0:0:0:0:
488,128,4516,1,0,0:0:0:0:
344,56,5230,1,4,3:0:0:0:
200,120,5945,6,0,P|184:184|224:272,1,160,2|4,0:0|3:0,0:0:0:0:
296,288,7016,1,0,0:0:0:0:
368,256,7373,2,0,P|384:192|344:104,1,160,2|4,0:0|0:3,0:0:0:0:
272,88,8445,1,2,0:0:0:0:
200,120,8802,1,4,0:0:0:0:
56,336,10230,6,0,L|32:248,1,80,4|8,0:0|0:0,0:0:0:0:
112,232,10944,2,0,L|136:144,1,80,8|8,0:0|0:0,0:0:0:0:
176,88,11658,2,0,P|208:64|256:56,1,80,8|8,0:0|0:0,0:0:0:0:
328,56,12372,2,0,P|368:72|400:112,1,80,8|8,0:0|0:0,0:0:0:0:
416,176,13087,5,4,0:0:0:0:
336,160,13444,2,0,P|288:168|208:256,1,160,8|8,0:0|0:0,0:0:0:0:
192,320,14515,1,4,0:0:0:0:
136,264,14872,1,8,0:0:0:0:
80,208,15229,2,0,L|24:152,1,80,8|8,0:0|0:0,0:0:0:0:
40,72,15944,6,0,P|72:40|128:32,1,80,4|8,0:0|0:0,0:0:0:0:
184,32,16658,2,0,L|272:32,1,80,8|8,0:0|0:0,0:0:0:0:
344,32,17372,1,8,0:0:0:0:
408,80,17729,2,0,L|488:80,2,80,8|8|8,0:0|0:0|0:0,0:0:0:0:
336,112,18801,5,12,0:0:0:0:
280,168,19158,1,8,0:0:0:0:
272,248,19515,2,0,L|272:296,2,40,12|8|8,0:0|0:0|0:0,0:0:0:0:
208,200,20229,1,12,0:0:0:0:
136,168,20587,1,8,0:0:0:0:
56,168,20944,1,8,0:0:0:0:
160,48,21658,6,0,P|208:32|320:48,1,160,2|2,0:0|0:0,0:0:0:0:
376,96,22729,1,2,0:0:0:0:
408,168,23087,2,0,P|408:216|384:256,1,80,2|2,0:0|0:0,0:0:0:0:
416,320,23801,2,0,P|352:312|328:288,1,80,2|2,0:0|0:0,0:0:0:0:
316,228,24515,6,0,L|296:144,1,80,4|0,0:0|0:0,0:0:0:0:
280,72,25229,2,0,L|144:72,2,120,8|8|0,0:0|0:0|0:0,0:0:0:0:
360,72,26658,1,8,0:0:0:0:
440,72,27015,1,8,0:0:0:0:
472,144,27372,6,0,P|472:192|408:280,1,160,2|2,0:0|0:0,0:0:0:0:
328,288,28444,1,2,0:0:0:0:
248,280,28801,2,0,P|216:240|208:192,1,80,2|2,0:0|0:0,0:0:0:0:
232,136,29515,2,0,P|184:136|144:168,1,80,2|2,0:0|0:0,0:0:0:0:
128,224,30229,6,0,L|104:312,1,80,4|0,0:0|0:0,0:0:0:0:
168,352,30944,2,0,L|296:352,2,120,8|8|0,0:0|0:0|0:0,0:0:0:0:
88,352,32372,1,0,0:0:0:0:
32,296,32729,1,0,0:0:0:0:
24,216,33087,6,0,P|32:168|56:128,1,80,4|8,0:0|0:0,0:0:0:0:
104,88,33801,1,8,0:0:0:0:
184,80,34158,1,8,0:0:0:0:
264,80,34515,2,0,L|312:80,1,40,8|0,0:0|0:0,0:0:0:0:
368,128,35051,2,0,L|408:128,1,40,0|8,0:0|0:0,0:0:0:0:
488,128,35587,1,12,0:0:0:0:
448,200,35944,6,0,P|432:248|432:288,1,80,4|8,0:0|0:0,0:0:0:0:
456,352,36658,2,0,P|388:344|356:304,1,120,0|8,0:0|0:0,0:0:0:0:
328,192,37729,1,8,0:0:0:0:
328,112,38087,1,0,0:0:0:0:
328,32,38444,1,0,0:0:0:0:
256,72,38801,6,0,P|224:80|176:80,1,80,4|8,0:0|0:0,0:0:0:0:
96,64,39515,1,8,0:0:0:0:
56,136,39872,1,8,0:0:0:0:
56,216,40229,2,0,L|56:296,1,80,8|8,0:0|0:0,0:0:0:0:
120,344,40944,2,0,P|160:352|208:344,2,80,8|8|0,0:0|0:0|0:0,0:0:0:0:
112,328,44158,6,0,L|64:328,2,40,8|8|4,0:0|0:0|0:0,0:0:0:0:
176,280,44872,1,10,0:0:0:0:
224,216,45229,2,0,P|232:168|224:136,1,80,0|8,0:0|0:0,0:0:0:0:
176,72,45944,1,2,0:0:0:0:
96,56,46301,1,8,0:0:0:0:
32,104,46658,2,0,P|16:152|24:208,1,80,0|10,0:0|0:0,0:0:0:0:
64,248,47372,5,4,0:0:0:0:
144,256,47729,1,8,0:0:0:0:
224,256,48087,2,0,L|304:256,1,80,2|8,0:0|0:0,0:0:0:0:
384,256,48801,1,8,0:0:0:0:
464,256,49158,1,8,0:0:0:0:
424,184,49515,2,0,L|440:144,2,40,8|8|8,0:0|0:0|0:0,0:0:0:0:
384,256,50229,5,4,0:0:0:0:
312,288,50587,1,8,0:0:0:0:
232,288,50944,2,0,L|144:288,1,80,0|8,0:0|0:0,0:0:0:0:
80,256,51658,1,0,0:0:0:0:
48,184,52015,1,8,0:0:0:0:
48,104,52372,2,0,P|72:64|112:40,1,80,0|8,0:0|0:0,0:0:0:0:
176,32,53087,6,0,L|264:32,1,80,0|8,0:0|0:0,0:0:0:0:
312,88,53801,2,0,L|280:176,1,80,0|8,0:0|0:0,0:0:0:0:
328,232,54515,1,2,0:0:0:0:
328,232,54872,1,8,0:0:0:0:
288,304,55229,1,2,0:0:0:0:
288,304,55587,1,8,0:0:0:0:
216,344,55944,6,0,P|144:336|72:272,1,160,4|8,0:0|0:0,0:0:0:0:
64,200,57015,1,8,0:0:0:0:
72,120,57372,2,0,P|96:72|152:40,2,120,12|2|8,0:0|0:0|0:0,0:0:0:0:
136,168,58801,6,0,P|176:224|184:288,1,120,4|0,0:0|0:0,0:0:0:0:
288,336,59873,1,0,0:0:0:0:
304,216,60409,2,0,P|264:160|256:96,1,120,4|0,0:0|0:0,0:0:0:0:
344,24,61480,1,0,0:0:0:0:
456,72,62016,5,4,0:0:0:0:
472,192,62551,1,0,0:0:0:0:
360,144,63087,1,0,0:0:0:0:
392,216,63444,2,0,L|424:304,2,80,4|0|0,0:0|0:0|0:0,0:0:0:0:
320,176,64516,2,0,B|208:160|208:264|96:240,1,240,2|8,0:0|0:0,0:0:0:0:
32,192,65944,5,4,0:0:0:0:
32,112,66301,1,8,0:0:0:0:
64,40,66658,2,0,P|112:24|168:32,1,80,0|8,0:0|0:0,0:0:0:0:
216,56,67372,1,4,0:0:0:0:
248,128,67729,1,8,0:0:0:0:
256,208,68086,2,0,L|256:288,1,80,0|8,0:0|0:0,0:0:0:0:
256,368,68801,5,0,0:0:0:0:
328,328,69158,2,0,P|352:296|360:248,1,80,0|2,0:0|0:0,0:0:0:0:
360,176,69872,1,8,0:0:0:0:
328,104,70229,2,0,P|392:104|432:208,1,160,8|8,0:0|0:0,0:0:0:0:
400,248,71301,1,8,0:0:0:0:
328,280,71658,6,0,P|272:288|240:280,1,80,4|8,0:0|0:0,0:0:0:0:
176,256,72372,1,0,0:0:0:0:
128,192,72729,1,8,0:0:0:0:
208,184,73086,2,0,P|256:176|304:152,1,80,4|8,0:0|0:0,0:0:0:0:
352,120,73801,1,0,0:0:0:0:
384,48,74158,1,8,0:0:0:0:
432,112,74515,5,0,0:0:0:0:
400,184,74872,2,0,P|360:224|320:232,1,80,0|2,0:0|0:0,0:0:0:0:
256,232,75586,1,8,0:0:0:0:
192,184,75944,2,0,P|176:240|248:312,1,160,8|8,0:0|0:0,0:0:0:0:
316,288,77015,1,8,0:0:0:0:
344,216,77372,6,0,L|344:136,1,80,4|8,0:0|0:0,0:0:0:0:
312,64,78086,1,2,0:0:0:0:
240,32,78444,1,8,0:0:0:0:
248,112,78801,2,0,P|224:152|176:176,1,80,4|8,0:0|0:0,0:0:0:0:
120,192,79515,1,2,0:0:0:0:
40,176,79872,1,8,0:0:0:0:
68,252,80229,6,0,L|92:340,1,80,12|8,0:0|0:0,0:0:0:0:
168,336,80944,2,0,L|216:272,1,80,12|8,0:0|0:0,0:0:0:0:
264,208,81658,1,8,0:0:0:0:
312,144,82015,1,8,0:0:0:0:
344,216,82372,1,8,0:0:0:0:
296,280,82729,1,8,0:0:0:0:
160,192,83445,6,0,P|104:192|72:208,2,80,2|0|4,0:0|0:0|0:3,0:0:0:0:
304,120,84873,2,0,L|400:104,2,80,0|4|0,0:0|0:3|0:0,0:0:0:0:
256,184,85945,1,4,0:3:0:0:
208,248,86302,2,0,P|256:364|304:248,1,320,4|4,0:3|0:0,0:0:0:0:
