osu file format v14

[General]
AudioFilename: audio.mp3
AudioLeadIn: 0
PreviewTime: 65947
Countdown: 0
SampleSet: Normal
StackLeniency: 0.7
Mode: 1
LetterboxInBreaks: 0
WidescreenStoryboard: 0

[Editor]
Bookmarks: 3090,10232,21660,33089,44517,55946,65947
DistanceSpacing: 1.2
BeatDivisor: 4
GridSize: 32
TimelineZoom: 2.3

[Metadata]
Title:Gabriel Drop Kick
TitleUnicode:ガヴリールドロップキック
Artist:Tomita Miyu, Onishi Saori, Ohzora Naomi, Hanazawa Kana
ArtistUnicode:富田美憂、大西沙織、大空直美、花澤香菜
Creator:gaston_2199
Version:Oni
Source:ガヴリールドロップアウト
Tags:dropout gabdro dropkick ガヴドロ opening tv size tenma gabriel white 天真・ガヴリール・ホワイト tsukinose vignette april 月乃瀬・ヴィネット・エイプリル vigne ヴィーネ kurumizawa satanichia mcdowell 胡桃沢・サタニキア・マクドウェル satania サターニャ shiraha raphiel ainsworth 白羽・ラフィエル・エインズワース
BeatmapID:1285330
BeatmapSetID:608613

[Difficulty]
HPDrainRate:5
CircleSize:2
OverallDifficulty:5.5
ApproachRate:10
SliderMultiplier:1.4
SliderTickRate:1

[Events]
//Background and Video events
0,0,"BG1.jpg",0,30
//Break Periods
2,41503,43710
//Storyboard Layer 0 (Background)
//Storyboard Layer 1 (Fail)
//Storyboard Layer 2 (Pass)
//Storyboard Layer 3 (Foreground)
//Storyboard Sound Samples

[TimingPoints]
3090,357.142857142857,4,1,0,80,1,0
3090,-133.333333333333,4,1,0,80,0,0
10232,357.142857142857,4,1,0,80,1,0
21660,-133.333333333333,4,1,0,80,0,0
24517,-100,4,1,0,80,0,0
27017,-114.942528735632,4,1,0,80,0,0
27374,-133.333333333333,4,1,0,80,0,0
30231,-100,4,1,0,80,0,0
58804,357.142857142857,4,1,0,80,1,0
65947,357.142857142857,4,1,0,90,1,1
83089,357.142857142857,3,1,0,80,1,0

[HitObjects]
256,192,3090,5,8,0:0:0:0:
256,192,3625,5,0,0:0:0:0:
256,192,3804,1,8,0:0:0:0:
256,192,4161,1,8,0:0:0:0:
256,192,4340,1,0,0:0:0:0:
256,192,4697,1,8,0:0:0:0:
256,192,5054,1,0,0:0:0:0:
256,192,5232,1,8,0:0:0:0:
256,192,5947,1,8,0:0:0:0:
256,192,6304,1,8,0:0:0:0:
256,192,6661,1,0,0:0:0:0:
256,192,7018,1,0,0:0:0:0:
256,192,7375,1,8,0:0:0:0:
256,192,8089,1,8,0:0:0:0:
256,192,8447,1,0,0:0:0:0:
256,192,8804,1,8,0:0:0:0:
256,192,9518,12,0,10054,0:0:0:0:
256,192,10232,5,4,0:0:0:0:
256,192,10589,1,8,0:0:0:0:
256,192,10767,1,0,0:0:0:0:
256,192,10946,1,0,0:0:0:0:
256,192,11035,1,0,0:0:0:0:
256,192,11124,1,0,0:0:0:0:
256,192,11303,1,8,0:0:0:0:
256,192,11482,1,0,0:0:0:0:
256,192,11660,1,8,0:0:0:0:
256,192,12017,1,8,0:0:0:0:
256,192,12196,1,0,0:0:0:0:
256,192,12374,1,0,0:0:0:0:
256,192,12553,1,0,0:0:0:0:
256,192,12642,1,0,0:0:0:0:
256,192,12732,1,8,0:0:0:0:
256,192,12910,1,8,0:0:0:0:
256,192,13089,1,0,0:0:0:0:
256,192,13446,1,8,0:0:0:0:
256,192,13624,1,0,0:0:0:0:
256,192,13803,1,8,0:0:0:0:
256,192,13892,1,8,0:0:0:0:
256,192,13981,1,0,0:0:0:0:
256,192,14160,1,8,0:0:0:0:
256,192,14339,1,8,0:0:0:0:
256,192,14517,1,0,0:0:0:0:
256,192,14874,1,8,0:0:0:0:
256,192,15053,1,0,0:0:0:0:
256,192,15231,1,8,0:0:0:0:
256,192,15410,1,8,0:0:0:0:
256,192,15589,1,8,0:0:0:0:
256,192,15678,1,0,0:0:0:0:
256,192,15767,1,8,0:0:0:0:
256,192,15946,1,4,0:0:0:0:
256,192,16303,1,8,0:0:0:0:
256,192,16481,1,0,0:0:0:0:
256,192,16660,1,0,0:0:0:0:
256,192,16749,1,0,0:0:0:0:
256,192,16839,1,0,0:0:0:0:
256,192,17017,1,8,0:0:0:0:
256,192,17196,1,8,0:0:0:0:
256,192,17374,1,0,0:0:0:0:
256,192,17731,1,8,0:0:0:0:
256,192,17910,1,0,0:0:0:0:
256,192,18089,1,8,0:0:0:0:
256,192,18178,1,8,0:0:0:0:
256,192,18267,1,0,0:0:0:0:
256,192,18446,1,8,0:0:0:0:
256,192,18624,1,0,0:0:0:0:
256,192,18803,1,8,0:0:0:0:
256,192,19160,1,8,0:0:0:0:
256,192,19339,1,0,0:0:0:0:
256,192,19517,1,8,0:0:0:0:
256,192,19606,1,8,0:0:0:0:
256,192,19696,1,0,0:0:0:0:
256,192,19785,1,0,0:0:0:0:
256,192,19874,1,8,0:0:0:0:
256,192,20053,1,8,0:0:0:0:
256,192,20231,1,4,0:0:0:0:
256,192,20589,1,4,0:0:0:0:
256,192,20946,1,12,0:0:0:0:
256,192,21660,1,8,0:0:0:0:
256,192,22196,1,0,0:0:0:0:
256,192,22374,1,8,0:0:0:0:
256,192,22731,1,8,0:0:0:0:
256,192,22910,1,8,0:0:0:0:
256,192,23089,1,0,0:0:0:0:
256,192,23446,1,8,0:0:0:0:
256,192,23803,1,8,0:0:0:0:
256,192,24517,1,4,0:0:0:0:
256,192,25053,1,0,0:0:0:0:
256,192,25231,1,8,0:0:0:0:
256,192,25410,1,0,0:0:0:0:
256,192,25499,1,0,0:0:0:0:
256,192,25589,1,8,0:0:0:0:
256,192,25767,1,0,0:0:0:0:
256,192,26124,1,8,0:0:0:0:
256,192,26303,1,8,0:0:0:0:
256,192,26481,1,0,0:0:0:0:
256,192,26660,1,8,0:0:0:0:
256,192,27017,1,8,0:0:0:0:
256,192,27374,1,8,0:0:0:0:
256,192,27910,1,0,0:0:0:0:
256,192,28089,1,8,0:0:0:0:
256,192,28446,1,8,0:0:0:0:
256,192,28624,1,0,0:0:0:0:
256,192,28803,5,8,0:0:0:0:
256,192,29160,1,0,0:0:0:0:
256,192,29517,1,8,0:0:0:0:
256,192,30231,1,4,0:0:0:0:
256,192,30767,1,0,0:0:0:0:
256,192,30946,1,8,0:0:0:0:
256,192,31035,1,0,0:0:0:0:
256,192,31124,1,8,0:0:0:0:
256,192,31303,1,0,0:0:0:0:
256,192,31481,1,8,0:0:0:0:
256,192,31839,1,8,0:0:0:0:
256,192,32017,1,0,0:0:0:0:
256,192,32196,1,8,0:0:0:0:
256,192,32374,1,0,0:0:0:0:
256,192,32464,1,0,0:0:0:0:
256,192,32553,1,8,0:0:0:0:
256,192,32642,1,8,0:0:0:0:
256,192,32731,1,0,0:0:0:0:
256,192,32821,1,0,0:0:0:0:
256,192,32910,1,8,0:0:0:0:
256,192,33089,1,4,0:0:0:0:
256,192,33446,1,8,0:0:0:0:
256,192,33624,1,0,0:0:0:0:
256,192,33803,1,8,0:0:0:0:
256,192,34160,1,8,0:0:0:0:
256,192,34339,1,0,0:0:0:0:
256,192,34517,1,0,0:0:0:0:
256,192,34606,1,0,0:0:0:0:
256,192,34696,1,8,0:0:0:0:
256,192,34874,1,0,0:0:0:0:
256,192,35053,1,8,0:0:0:0:
256,192,35231,1,8,0:0:0:0:
256,192,35589,1,8,0:0:0:0:
256,192,35946,1,4,0:0:0:0:
256,192,36124,1,4,0:0:0:0:
256,192,36481,1,0,0:0:0:0:
256,192,36660,1,8,0:0:0:0:
256,192,36839,1,0,0:0:0:0:
256,192,36928,1,0,0:0:0:0:
256,192,37017,1,8,0:0:0:0:
256,192,37196,1,0,0:0:0:0:
256,192,37553,1,8,0:0:0:0:
256,192,37731,1,0,0:0:0:0:
256,192,37910,1,8,0:0:0:0:
256,192,37999,1,8,0:0:0:0:
256,192,38089,1,0,0:0:0:0:
256,192,38267,1,0,0:0:0:0:
256,192,38446,1,8,0:0:0:0:
256,192,38624,1,8,0:0:0:0:
256,192,38803,1,4,0:0:0:0:
256,192,39160,1,8,0:0:0:0:
256,192,39339,1,0,0:0:0:0:
256,192,39517,1,8,0:0:0:0:
256,192,39874,1,8,0:0:0:0:
256,192,40053,1,0,0:0:0:0:
256,192,40231,1,8,0:0:0:0:
256,192,40410,1,0,0:0:0:0:
256,192,40499,1,0,0:0:0:0:
256,192,40589,1,8,0:0:0:0:
256,192,40767,1,0,0:0:0:0:
256,192,40946,1,8,0:0:0:0:
256,192,41303,1,8,0:0:0:0:
256,192,44160,5,0,0:0:0:0:
256,192,44249,1,0,0:0:0:0:
256,192,44339,1,0,0:0:0:0:
256,192,44428,1,0,0:0:0:0:
256,192,44517,1,8,0:0:0:0:
256,192,44874,1,8,0:0:0:0:
256,192,45053,1,0,0:0:0:0:
256,192,45231,1,8,0:0:0:0:
256,192,45321,1,8,0:0:0:0:
256,192,45410,1,0,0:0:0:0:
256,192,45589,1,8,0:0:0:0:
256,192,45767,1,8,0:0:0:0:
256,192,45946,1,0,0:0:0:0:
256,192,46303,1,0,0:0:0:0:
256,192,46481,1,8,0:0:0:0:
256,192,46660,1,0,0:0:0:0:
256,192,46749,1,0,0:0:0:0:
256,192,46839,1,8,0:0:0:0:
256,192,47017,1,8,0:0:0:0:
256,192,47196,1,0,0:0:0:0:
256,192,47374,1,8,0:0:0:0:
256,192,47731,1,8,0:0:0:0:
256,192,47910,1,0,0:0:0:0:
256,192,48089,1,8,0:0:0:0:
256,192,48178,1,8,0:0:0:0:
256,192,48267,1,0,0:0:0:0:
256,192,48446,1,8,0:0:0:0:
256,192,48624,1,8,0:0:0:0:
256,192,48803,1,4,0:0:0:0:
256,192,49160,1,4,0:0:0:0:
256,192,49517,1,12,0:0:0:0:
256,192,49696,1,12,0:0:0:0:
256,192,49874,1,12,0:0:0:0:
256,192,50053,1,12,0:0:0:0:
256,192,50231,1,4,0:0:0:0:
256,192,50589,1,8,0:0:0:0:
256,192,50767,1,0,0:0:0:0:
256,192,50946,1,8,0:0:0:0:
256,192,51124,1,8,0:0:0:0:
256,192,51303,1,0,0:0:0:0:
256,192,51481,1,0,0:0:0:0:
256,192,51660,1,8,0:0:0:0:
256,192,52017,1,0,0:0:0:0:
256,192,52196,1,8,0:0:0:0:
256,192,52374,1,0,0:0:0:0:
256,192,52553,1,0,0:0:0:0:
256,192,52731,1,8,0:0:0:0:
256,192,52910,1,8,0:0:0:0:
256,192,53089,1,0,0:0:0:0:
256,192,53446,1,0,0:0:0:0:
256,192,53624,1,8,0:0:0:0:
256,192,53803,1,0,0:0:0:0:
256,192,53892,1,0,0:0:0:0:
256,192,53981,1,8,0:0:0:0:
256,192,54071,1,8,0:0:0:0:
256,192,54160,1,0,0:0:0:0:
256,192,54339,1,8,0:0:0:0:
256,192,54517,1,8,0:0:0:0:
256,192,54606,1,0,0:0:0:0:
256,192,54785,1,0,0:0:0:0:
256,192,54874,1,8,0:0:0:0:
256,192,55053,1,0,0:0:0:0:
256,192,55231,1,8,0:0:0:0:
256,192,55321,1,8,0:0:0:0:
256,192,55410,1,0,0:0:0:0:
256,192,55499,1,0,0:0:0:0:
256,192,55589,1,8,0:0:0:0:
256,192,55767,1,8,0:0:0:0:
256,192,55946,1,4,0:0:0:0:
256,192,56481,1,8,0:0:0:0:
256,192,56660,1,0,0:0:0:0:
256,192,56839,1,0,0:0:0:0:
256,192,57017,1,8,0:0:0:0:
256,192,57374,1,4,0:0:0:0:
256,192,57731,1,8,0:0:0:0:
256,192,57910,1,4,0:0:0:0:
256,192,58267,1,0,0:0:0:0:
256,192,58446,1,8,0:0:0:0:
256,192,58803,1,12,0:0:0:0:
256,192,58982,1,0,0:0:0:0:
256,192,59161,1,0,0:0:0:0:
256,192,59339,1,12,0:0:0:0:
256,192,59518,1,0,0:0:0:0:
256,192,59696,1,0,0:0:0:0:
256,192,59875,1,12,0:0:0:0:
256,192,60411,1,12,0:0:0:0:
256,192,60589,1,0,0:0:0:0:
256,192,60768,1,0,0:0:0:0:
256,192,60946,1,12,0:0:0:0:
256,192,61125,1,0,0:0:0:0:
256,192,61304,1,0,0:0:0:0:
256,192,61482,1,12,0:0:0:0:
256,192,62018,1,12,0:0:0:0:
256,192,62196,1,0,0:0:0:0:
256,192,62375,1,0,0:0:0:0:
256,192,62554,1,12,0:0:0:0:
256,192,62732,1,0,0:0:0:0:
256,192,62911,1,0,0:0:0:0:
256,192,63089,1,12,0:0:0:0:
64,192,63446,2,4,L|512:192,1,420
256,192,65946,5,0,0:0:0:0:
256,192,66214,1,8,0:0:0:0:
256,192,66482,1,0,0:0:0:0:
256,192,66661,1,8,0:0:0:0:
256,192,66839,1,0,0:0:0:0:
256,192,66929,1,8,0:0:0:0:
256,192,67018,1,0,0:0:0:0:
256,192,67197,1,0,0:0:0:0:
256,192,67375,1,8,0:0:0:0:
256,192,67643,1,8,0:0:0:0:
256,192,67911,1,0,0:0:0:0:
256,192,68089,1,8,0:0:0:0:
256,192,68268,1,0,0:0:0:0:
256,192,68357,1,0,0:0:0:0:
256,192,68447,1,8,0:0:0:0:
256,192,68625,1,8,0:0:0:0:
256,192,68804,1,0,0:0:0:0:
256,192,69161,1,12,0:0:0:0:
256,192,69518,1,12,0:0:0:0:
256,192,69875,1,0,0:0:0:0:
256,192,70054,1,0,0:0:0:0:
256,192,70143,1,0,0:0:0:0:
256,192,70232,1,8,0:0:0:0:
256,192,70500,1,0,0:0:0:0:
256,192,70768,1,8,0:0:0:0:
256,192,70947,1,0,0:0:0:0:
256,192,71125,1,12,0:0:0:0:
256,192,71304,1,12,0:0:0:0:
256,192,71661,5,8,0:0:0:0:
256,192,71929,1,0,0:0:0:0:
256,192,72197,1,0,0:0:0:0:
256,192,72375,1,8,0:0:0:0:
256,192,72554,1,0,0:0:0:0:
256,192,72643,1,8,0:0:0:0:
256,192,72732,1,0,0:0:0:0:
256,192,72911,1,0,0:0:0:0:
256,192,73089,1,8,0:0:0:0:
256,192,73357,1,8,0:0:0:0:
256,192,73625,1,0,0:0:0:0:
256,192,73804,1,8,0:0:0:0:
256,192,73982,1,0,0:0:0:0:
256,192,74072,1,0,0:0:0:0:
256,192,74161,1,8,0:0:0:0:
256,192,74339,1,8,0:0:0:0:
256,192,74518,1,0,0:0:0:0:
256,192,74875,1,12,0:0:0:0:
256,192,75232,1,12,0:0:0:0:
256,192,75589,1,0,0:0:0:0:
256,192,75768,1,0,0:0:0:0:
256,192,75857,1,0,0:0:0:0:
256,192,75947,1,8,0:0:0:0:
256,192,76214,1,0,0:0:0:0:
256,192,76482,1,8,0:0:0:0:
256,192,76661,1,0,0:0:0:0:
256,192,76839,1,12,0:0:0:0:
256,192,77018,1,12,0:0:0:0:
256,192,77375,1,8,0:0:0:0:
256,192,77643,1,8,0:0:0:0:
256,192,77732,1,0,0:0:0:0:
256,192,77911,1,0,0:0:0:0:
256,192,78089,1,8,0:0:0:0:
256,192,78268,1,0,0:0:0:0:
256,192,78447,1,12,0:0:0:0:
256,192,78804,1,8,0:0:0:0:
256,192,79072,1,0,0:0:0:0:
256,192,79161,1,8,0:0:0:0:
256,192,79339,1,8,0:0:0:0:
256,192,79518,1,8,0:0:0:0:
256,192,79697,1,0,0:0:0:0:
256,192,79875,1,12,0:0:0:0:
256,192,80232,1,8,0:0:0:0:
256,192,80411,1,0,0:0:0:0:
256,192,80589,1,8,0:0:0:0:
256,192,80679,1,8,0:0:0:0:
256,192,80768,1,0,0:0:0:0:
256,192,80947,1,8,0:0:0:0:
256,192,81125,1,0,0:0:0:0:
256,192,81304,1,8,0:0:0:0:
256,192,81661,1,8,0:0:0:0:
256,192,81750,1,0,0:0:0:0:
256,192,81839,1,0,0:0:0:0:
256,192,81929,1,0,0:0:0:0:
256,192,82018,1,8,0:0:0:0:
256,192,82197,1,0,0:0:0:0:
256,192,82375,1,8,0:0:0:0:
256,192,82464,1,8,0:0:0:0:
256,192,82554,1,0,0:0:0:0:
256,192,82643,1,0,0:0:0:0:
256,192,82732,1,8,0:0:0:0:
256,192,82822,1,8,0:0:0:0:
256,192,82911,1,8,0:0:0:0:
256,192,83089,1,0,0:0:0:0:
256,192,83446,1,8,0:0:0:0:
256,192,83803,1,0,0:0:0:0:
256,192,84160,1,8,0:0:0:0:
256,192,84517,1,8,0:0:0:0:
256,192,84874,1,0,0:0:0:0:
256,192,85231,1,8,0:0:0:0:
256,192,85946,1,0,0:0:0:0:
256,192,86303,1,8,0:0:0:0:
