osu file format v14

[General]
AudioFilename: audio.mp3
AudioLeadIn: 0
PreviewTime: 65947
Countdown: 0
SampleSet: Normal
StackLeniency: 0.7
Mode: 1
LetterboxInBreaks: 0
WidescreenStoryboard: 0

[Editor]
Bookmarks: 3090,10232,21660,33089,44517,55946,65947
DistanceSpacing: 1.2
BeatDivisor: 1
GridSize: 4
TimelineZoom: 0.6999999

[Metadata]
Title:Gabriel Drop Kick
TitleUnicode:ガヴリールドロップキック
Artist:Tomita Miyu, Onishi Saori, Ohzora Naomi, Hanazawa Kana
ArtistUnicode:富田美憂、大西沙織、大空直美、花澤香菜
Creator:gaston_2199
Version:Kantan
Source:ガヴリールドロップアウト
Tags:dropout gabdro dropkick ガヴドロ opening tv size tenma gabriel white 天真・ガヴリール・ホワイト tsukinose vignette april 月乃瀬・ヴィネット・エイプリル vigne ヴィーネ kurumizawa satanichia mcdowell 胡桃沢・サタニキア・マクドウェル satania サターニャ shiraha raphiel ainsworth 白羽・ラフィエル・エインズワース
BeatmapID:1465041
BeatmapSetID:608613

[Difficulty]
HPDrainRate:8
CircleSize:2
OverallDifficulty:3
ApproachRate:10
SliderMultiplier:1.4
SliderTickRate:1

[Events]
//Background and Video events
0,0,"BG1.jpg",0,30
//Break Periods
2,41661,44067
//Storyboard Layer 0 (Background)
//Storyboard Layer 1 (Fail)
//Storyboard Layer 2 (Pass)
//Storyboard Layer 3 (Foreground)
//Storyboard Sound Samples

[TimingPoints]
3090,357.142857142857,4,1,0,80,1,0
10232,357.142857142857,4,1,0,80,1,0
58804,357.142857142857,4,1,0,80,1,0
65947,357.142857142857,4,1,0,90,1,1
83089,357.142857142857,3,1,0,80,1,0

[HitObjects]
256,192,3090,5,8,0:0:0:0:
256,192,3804,1,0,0:0:0:0:
256,192,4518,5,8,0:0:0:0:
256,192,5947,1,8,0:0:0:0:
256,192,6661,1,8,0:0:0:0:
256,192,7375,1,0,0:0:0:0:
256,192,8804,1,8,0:0:0:0:
256,192,10232,5,4,0:0:0:0:
256,192,11660,1,0,0:0:0:0:
256,192,12374,1,8,0:0:0:0:
256,192,13089,1,0,0:0:0:0:
256,192,14517,1,8,0:0:0:0:
256,192,15231,1,8,0:0:0:0:
256,192,15589,1,8,0:0:0:0:
256,192,15946,1,4,0:0:0:0:
256,192,17374,1,0,0:0:0:0:
256,192,18089,1,8,0:0:0:0:
256,192,18803,1,0,0:0:0:0:
256,192,20231,1,4,0:0:0:0:
256,192,20946,1,12,0:0:0:0:
256,192,21660,1,8,0:0:0:0:
256,192,23089,1,0,0:0:0:0:
256,192,23803,1,8,0:0:0:0:
256,192,24517,1,4,0:0:0:0:
256,192,25231,1,8,0:0:0:0:
256,192,25589,1,0,0:0:0:0:
256,192,26303,1,0,0:0:0:0:
256,192,26660,1,8,0:0:0:0:
256,192,27374,1,8,0:0:0:0:
256,192,28803,5,8,0:0:0:0:
256,192,29517,1,8,0:0:0:0:
256,192,30231,1,4,0:0:0:0:
256,192,30946,1,8,0:0:0:0:
256,192,31303,1,0,0:0:0:0:
256,192,32017,1,0,0:0:0:0:
256,192,32374,1,8,0:0:0:0:
256,192,32731,1,8,0:0:0:0:
256,192,33089,1,4,0:0:0:0:
256,192,33803,1,8,0:0:0:0:
256,192,34517,1,0,0:0:0:0:
256,192,35231,1,8,0:0:0:0:
256,192,35946,1,4,0:0:0:0:
256,192,36660,1,0,0:0:0:0:
256,192,37017,1,8,0:0:0:0:
256,192,37731,1,8,0:0:0:0:
256,192,38089,1,0,0:0:0:0:
256,192,38446,1,0,0:0:0:0:
256,192,38803,1,8,0:0:0:0:
256,192,39517,1,0,0:0:0:0:
256,192,40231,1,8,0:0:0:0:
256,192,40946,1,8,0:0:0:0:
256,192,44517,5,0,0:0:0:0:
256,192,45231,1,8,0:0:0:0:
256,192,45946,1,0,0:0:0:0:
256,192,47374,1,8,0:0:0:0:
256,192,48089,1,8,0:0:0:0:
256,192,48803,1,4,0:0:0:0:
256,192,49517,1,12,0:0:0:0:
256,192,50231,1,4,0:0:0:0:
256,192,50946,1,0,0:0:0:0:
256,192,51660,1,8,0:0:0:0:
256,192,52374,1,8,0:0:0:0:
256,192,53089,1,0,0:0:0:0:
256,224,53803,1,0,0:0:0:0:
256,192,54517,1,8,0:0:0:0:
256,192,54874,1,0,0:0:0:0:
256,192,55231,1,8,0:0:0:0:
256,192,55946,1,4,0:0:0:0:
256,192,57374,1,0,0:0:0:0:
256,192,57910,1,0,0:0:0:0:
256,192,58803,1,12,0:0:0:0:
256,192,60411,1,12,0:0:0:0:
256,192,62018,1,12,0:0:0:0:
64,192,63446,2,4,L|492:192,1,420
256,192,65946,5,0,0:0:0:0:
256,192,66661,1,0,0:0:0:0:
256,192,67375,1,8,0:0:0:0:
256,192,68089,1,0,0:0:0:0:
256,192,68447,1,8,0:0:0:0:
256,192,68804,1,0,0:0:0:0:
256,192,69875,1,0,0:0:0:0:
256,192,70232,1,8,0:0:0:0:
256,192,70947,1,0,0:0:0:0:
256,192,71661,5,8,0:0:0:0:
256,192,72375,1,0,0:0:0:0:
256,192,73089,1,8,0:0:0:0:
256,192,73804,1,0,0:0:0:0:
256,192,74161,1,8,0:0:0:0:
256,192,74518,1,0,0:0:0:0:
256,192,75589,1,8,0:0:0:0:
256,192,75947,1,0,0:0:0:0:
256,192,76661,1,8,0:0:0:0:
256,192,77375,1,0,0:0:0:0:
256,192,78447,1,8,0:0:0:0:
256,192,78804,1,0,0:0:0:0:
256,192,79875,1,8,0:0:0:0:
256,192,80232,1,0,0:0:0:0:
256,192,80947,1,0,0:0:0:0:
256,192,81661,1,8,0:0:0:0:
256,192,82018,1,0,0:0:0:0:
256,192,82375,1,8,0:0:0:0:
256,192,82732,1,8,0:0:0:0:
256,192,83089,1,0,0:0:0:0:
256,192,84160,1,8,0:0:0:0:
256,192,84874,1,0,0:0:0:0:
256,192,85231,1,8,0:0:0:0:
256,192,85946,1,0,0:0:0:0:
256,192,86303,1,8,0:0:0:0:
