osu file format v14

[General]
AudioFilename: audio.mp3
AudioLeadIn: 0
PreviewTime: 2732
Countdown: 0
SampleSet: Soft
StackLeniency: 0.7
Mode: 0
LetterboxInBreaks: 0
WidescreenStoryboard: 0

[Editor]
Bookmarks: 232,3090,10232,20232,21661,24518,27375,30232,33089,35947,38804,41661,44518,50232,55947,58804,64518,65947,71661,83089,85947,86304
DistanceSpacing: 0.5
BeatDivisor: 4
GridSize: 4
TimelineZoom: 2.1

[Metadata]
Title:Gabriel Drop Kick
TitleUnicode:ガヴリールドロップキック
Artist:Tomita Miyu, Onishi Saori, Ohzora Naomi, Hanazawa Kana
ArtistUnicode:富田美憂、大西沙織、大空直美、花澤香菜
Creator:WillCookie
Version:help
Source:ガヴリールドロップアウト
Tags:
BeatmapID:2006483
BeatmapSetID:958308

[Difficulty]
HPDrainRate:5
CircleSize:4
OverallDifficulty:9
ApproachRate:9.4
SliderMultiplier:1.8
SliderTickRate:1

[Events]
//Background and Video events
//Break Periods
//Storyboard Layer 0 (Background)
//Storyboard Layer 1 (Fail)
//Storyboard Layer 2 (Pass)
//Storyboard Layer 3 (Foreground)
//Storyboard Sound Samples

[TimingPoints]
3090,357.142857142857,4,2,0,100,1,0
24518,-50,4,2,0,100,0,1
27375,-100,4,2,0,100,0,0
30232,-50,4,2,0,100,0,1
33089,-80,4,2,0,100,0,0
35947,-50,4,2,0,100,0,1
38804,-80,4,2,0,100,0,0
41661,-250,4,2,0,100,0,0
44518,-100,4,2,0,100,0,0
55947,-133.333333333333,4,2,0,100,0,0
58804,-80,4,2,0,100,0,0
65947,-25,4,2,0,100,0,1
83089,-250,4,2,0,100,0,0

[HitObjects]
59,91,10232,6,0,P|115:120|161:115,1,90
166,211,10589,2,0,P|221:205|257:181,1,90
330,241,10947,1,0,0:0:0:0:
317,344,11125,1,0,0:0:0:0:
417,271,11304,1,0,0:0:0:0:
434,375,11482,1,0,0:0:0:0:
498,261,11661,5,0,0:0:0:0:
499,238,11750,1,0,0:0:0:0:
494,216,11839,1,0,0:0:0:0:
483,197,11928,1,0,0:0:0:0:
449,196,12018,5,0,0:0:0:0:
439,175,12107,1,0,0:0:0:0:
424,159,12196,1,0,0:0:0:0:
404,148,12285,1,0,0:0:0:0:
370,162,12375,5,0,0:0:0:0:
351,149,12464,1,0,0:0:0:0:
330,142,12553,1,0,0:0:0:0:
307,142,12642,1,0,0:0:0:0:
282,171,12732,5,0,0:0:0:0:
259,169,12821,1,0,0:0:0:0:
237,174,12910,1,0,0:0:0:0:
218,185,12999,1,0,0:0:0:0:
203,201,13089,5,0,0:0:0:0:
301,297,13268,1,0,0:0:0:0:
189,284,13447,6,0,L|196:331,2,30
145,268,13625,2,0,L|150:228,2,30
112,300,13804,1,0,0:0:0:0:
105,281,13863,1,0,0:0:0:0:
98,262,13923,1,0,0:0:0:0:
91,243,13982,1,0,0:0:0:0:
84,224,14042,1,0,0:0:0:0:
77,206,14101,1,0,0:0:0:0:
70,186,14161,5,0,0:0:0:0:
109,193,14220,1,0,0:0:0:0:
149,197,14280,1,0,0:0:0:0:
189,196,14339,1,0,0:0:0:0:
228,191,14399,1,0,0:0:0:0:
267,182,14458,1,0,0:0:0:0:
305,169,14518,6,0,L|295:246,2,60
392,133,14875,2,0,L|377:48,2,60
471,184,15232,1,0,0:0:0:0:
399,345,15411,1,0,0:0:0:0:
321,15,15589,1,0,0:0:0:0:
257,172,15768,1,0,0:0:0:0:
375,224,15947,6,0,L|373:295,1,45
310,157,16125,2,0,L|290:224,1,45
259,76,16304,2,0,L|219:120,1,45
138,51,16482,2,0,L|148:126,1,45
34,121,16661,2,0,L|74:153,1,45
2,243,16839,2,0,L|72:236,1,45
112,355,17018,2,0,L|133:308,1,45
263,341,17197,2,0,L|320:306,1,45
440,354,17375,5,0,0:0:0:0:
462,302,17464,1,0,0:0:0:0:
466,246,17553,1,0,0:0:0:0:
451,192,17642,1,0,0:0:0:0:
420,146,17732,1,0,0:0:0:0:
375,113,17821,1,0,0:0:0:0:
321,96,17910,1,0,0:0:0:0:
265,98,17999,1,0,0:0:0:0:
213,118,18089,5,0,0:0:0:0:
224,143,18178,1,0,0:0:0:0:
230,171,18267,1,0,0:0:0:0:
229,199,18356,1,0,0:0:0:0:
222,226,18446,1,0,0:0:0:0:
210,251,18535,1,0,0:0:0:0:
192,273,18624,1,0,0:0:0:0:
170,291,18713,1,0,0:0:0:0:
145,303,18804,6,0,L|140:339,5,30
96,357,19161,2,0,L|85:313,5,30
43,317,19518,5,0,0:0:0:0:
46,277,19577,1,0,0:0:0:0:
50,237,19637,1,0,0:0:0:0:
53,197,19696,1,0,0:0:0:0:
57,157,19756,1,0,0:0:0:0:
60,117,19815,1,0,0:0:0:0:
64,77,19875,5,0,0:0:0:0:
124,130,19934,1,0,0:0:0:0:
195,167,19994,1,0,0:0:0:0:
272,188,20053,1,0,0:0:0:0:
351,192,20113,1,0,0:0:0:0:
430,177,20172,1,0,0:0:0:0:
504,146,20232,6,0,L|519:186,1,22.5
266,31,20589,6,0,L|305:38,1,22.5
13,377,20947,6,0,L|20:345,1,22.5
458,173,21661,6,0,L|351:161,3,90
321,247,22375,2,0,L|197:258,3,90
166,328,23089,5,0,0:0:0:0:
117,195,23268,1,0,0:0:0:0:
206,246,23447,5,0,0:0:0:0:
230,88,23625,1,0,0:0:0:0:
365,177,23804,2,0,P|387:228|369:268,2,90
99,284,24518,6,0,L|159:311,11,45
90,253,25054,1,0,0:0:0:0:
225,293,25232,5,0,0:0:0:0:
385,226,25411,1,0,0:0:0:0:
461,33,25589,1,0,0:0:0:0:
230,51,25768,6,0,L|334:397,1,360
168,197,26304,1,0,0:0:0:0:
399,237,26482,1,0,0:0:0:0:
341,33,26661,5,0,0:0:0:0:
341,33,27018,1,0,0:0:0:0:
139,48,27197,5,0,0:0:0:0:
124,90,27286,1,0,0:0:0:0:
136,133,27375,2,0,L|112:233,3,90
203,261,28089,2,0,L|218:362,3,90
310,316,28804,1,0,0:0:0:0:
410,4,29161,5,0,0:0:0:0:
336,80,29339,1,0,0:0:0:0:
231,73,29518,2,0,P|222:169|165:241,1,180
433,267,30232,6,0,L|377:252,11,45
383,227,30768,1,0,0:0:0:0:
301,319,30947,5,0,0:0:0:0:
411,115,31125,1,0,0:0:0:0:
190,316,31304,1,0,0:0:0:0:
41,69,31482,6,0,L|396:199,1,360
119,198,32018,1,0,0:0:0:0:
359,83,32197,1,0,0:0:0:0:
442,268,32375,5,0,0:0:0:0:
390,349,32464,1,0,0:0:0:0:
332,264,32554,5,0,0:0:0:0:
280,345,32643,1,0,0:0:0:0:
223,261,32732,5,0,0:0:0:0:
171,342,32821,1,0,0:0:0:0:
116,255,32911,5,0,0:0:0:0:
64,336,33000,1,0,0:0:0:0:
26,256,33089,6,0,P|34:195|21:140,1,112.5
122,157,33447,2,0,P|117:92|143:44,1,112.5
243,132,33804,5,0,0:0:0:0:
429,74,33982,1,0,0:0:0:0:
346,227,34161,5,0,0:0:0:0:
491,110,34339,1,0,0:0:0:0:
443,248,34518,5,0,0:0:0:0:
345,113,34697,2,0,P|312:182|273:198,1,112.5
247,321,35054,1,0,0:0:0:0:
208,131,35232,2,0,L|-18:205,1,225
151,306,35947,6,0,L|165:259,3,45
201,256,36125,6,0,L|236:220,7,45
278,224,36482,1,0,0:0:0:0:
350,321,36661,5,0,0:0:0:0:
175,208,36839,1,0,0:0:0:0:
413,26,37018,1,0,0:0:0:0:
500,334,37197,6,0,P|386:162|215:85,1,360
252,306,37732,1,0,0:0:0:0:
158,33,37911,1,0,0:0:0:0:
72,277,38089,6,0,L|99:230,1,45
326,225,38268,1,0,0:0:0:0:
23,157,38447,6,0,L|65:134,1,45
419,177,38625,1,0,0:0:0:0:
145,351,38804,6,0,L|137:234,1,112.5
263,289,39161,2,0,L|283:168,1,112.5
146,155,39518,6,0,P|214:128|272:124,1,112.5
398,66,39875,2,0,P|333:45|273:47,1,112.5
379,184,40232,5,0,0:0:0:0:
379,184,40411,1,0,0:0:0:0:
268,304,40589,2,0,L|177:206,1,112.5
310,166,40947,2,0,P|281:78|143:41,1,225
399,317,41661,6,0,L|109:307,1,288
29,202,44161,5,0,0:0:0:0:
101,172,44250,1,0,0:0:0:0:
174,142,44339,1,0,0:0:0:0:
247,112,44428,1,0,0:0:0:0:
320,82,44518,6,0,L|299:182,2,90
452,58,45054,1,0,0:0:0:0:
379,157,45232,2,0,L|417:251,1,90
312,326,45589,1,0,0:0:0:0:
237,222,45768,2,0,L|145:240,1,90
225,306,46125,1,0,0:0:0:0:
164,149,46304,2,0,L|72:167,1,90
42,284,46661,5,0,0:0:0:0:
42,284,46839,1,0,0:0:0:0:
169,262,47018,1,0,0:0:0:0:
296,238,47197,1,0,0:0:0:0:
400,155,47375,6,0,L|330:81,1,90
266,156,47732,2,0,L|177:111,1,90
165,217,48089,2,0,L|55:204,1,90
84,308,48447,1,0,0:0:0:0:
219,298,48625,1,0,0:0:0:0:
302,200,48804,5,0,0:0:0:0:
319,344,48982,1,0,0:0:0:0:
414,114,49161,5,0,0:0:0:0:
398,351,49339,1,0,0:0:0:0:
300,68,49518,6,0,L|262:78,1,22.5
300,68,49697,2,0,L|262:78,1,22.5
300,68,49875,2,0,L|262:78,1,22.5
300,68,50054,2,0,L|262:78,1,22.5
212,193,50232,5,0,0:0:0:0:
171,78,50411,1,0,0:0:0:0:
120,309,50589,1,0,0:0:0:0:
103,181,50768,1,0,0:0:0:0:
262,248,50947,6,0,P|319:232|354:204,2,90
297,144,51482,2,0,P|254:138|208:109,2,90
374,31,52018,6,0,L|395:140,1,90
467,189,52375,2,0,L|441:289,1,90
337,357,52732,2,0,L|328:251,1,90
232,298,53089,5,0,0:0:0:0:
160,195,53268,1,0,0:0:0:0:
232,298,53447,1,0,0:0:0:0:
160,195,53626,1,0,0:0:0:0:
312,223,53804,5,0,0:0:0:0:
239,79,53982,1,0,0:0:0:0:
312,223,54161,1,0,0:0:0:0:
239,79,54339,1,0,0:0:0:0:
402,173,54518,6,0,L|490:214,1,90
325,86,54875,2,0,L|417:54,1,90
402,173,55232,6,0,L|490:214,1,90
325,86,55589,2,0,L|417:54,1,90
304,209,55947,6,0,L|330:348,1,135.000005149842
212,123,56661,2,0,L|192:270,1,135.000005149842
341,33,57375,5,0,0:0:0:0:
434,68,57554,1,0,0:0:0:0:
266,80,57732,1,0,0:0:0:0:
499,143,57911,2,0,P|448:215|395:220,1,135.000005149842
362,104,58447,1,0,0:0:0:0:
316,322,58625,1,0,0:0:0:0:
165,222,58804,5,0,0:0:0:0:
379,169,58982,1,0,0:0:0:0:
127,178,59161,1,0,0:0:0:0:
392,226,59339,5,0,0:0:0:0:
116,212,59518,1,0,0:0:0:0:
415,171,59697,1,0,0:0:0:0:
100,161,59875,5,0,0:0:0:0:
429,202,60054,1,0,0:0:0:0:
70,222,60232,1,0,0:0:0:0:
465,160,60411,5,0,0:0:0:0:
57,186,60589,1,0,0:0:0:0:
487,232,60768,1,0,0:0:0:0:
24,153,60947,5,0,0:0:0:0:
476,117,61125,1,0,0:0:0:0:
168,190,61304,1,0,0:0:0:0:
405,169,61482,5,0,0:0:0:0:
177,117,61661,1,0,0:0:0:0:
285,190,61839,1,0,0:0:0:0:
148,264,62018,5,0,0:0:0:0:
265,91,62197,1,0,0:0:0:0:
394,244,62375,1,0,0:0:0:0:
92,297,62554,5,0,0:0:0:0:
212,37,62732,1,0,0:0:0:0:
461,191,62911,1,0,0:0:0:0:
39,349,63089,5,0,0:0:0:0:
142,8,63268,1,0,0:0:0:0:
512,110,63447,5,0,0:0:0:0:
199,344,63625,1,0,0:0:0:0:
505,60,63804,5,0,0:0:0:0:
93,283,63982,1,0,0:0:0:0:
488,5,64161,5,0,0:0:0:0:
3,202,64339,1,0,0:0:0:0:
449,166,64518,5,0,0:0:0:0:
449,166,64607,1,0,0:0:0:0:
449,166,64697,1,0,0:0:0:0:
290,147,64875,1,0,0:0:0:0:
449,166,65054,5,0,0:0:0:0:
245,69,65232,1,0,0:0:0:0:
449,166,65411,5,0,0:0:0:0:
165,166,65589,1,0,0:0:0:0:
371,202,65768,5,0,0:0:0:0:
343,224,65857,1,0,0:0:0:0:
308,227,65947,6,0,P|268:46|90:43,1,360
209,134,66214,2,0,P|166:315|-42:144,1,540
208,365,66661,6,0,L|506:124,1,360
37,369,66929,2,0,L|492:-6,1,540
30,58,67375,5,0,0:0:0:0:
277,134,67554,2,0,L|83:160,1,180
506,220,67911,1,0,0:0:0:0:
148,282,68089,5,0,0:0:0:0:
399,248,68268,1,0,0:0:0:0:
399,248,68357,1,0,0:0:0:0:
399,248,68447,1,0,0:0:0:0:
46,196,68625,1,0,0:0:0:0:
510,159,68804,1,0,0:0:0:0:
149,356,69161,6,0,P|86:158|479:88,1,720
385,366,69697,6,0,L|297:246,1,90
386,28,69875,2,0,L|236:64,1,90
37,346,70054,5,0,0:0:0:0:
92,271,70143,1,0,0:0:0:0:
37,193,70232,2,0,L|375:41,1,360
106,86,70500,2,0,L|674:188,1,540
363,358,70947,1,0,0:0:0:0:
504,42,71125,6,0,L|466:-54,1,90
334,227,71304,2,0,L|354:115,1,90
72,315,71661,6,0,P|65:115|210:33,1,360
72,315,71929,2,0,P|288:97|563:180,1,540
23,27,72375,6,0,P|109:129|314:46,1,360
302,68,72643,2,0,P|253:280|526:297,1,540
88,364,73089,6,0,L|-58:15,1,360
113,218,73357,2,0,L|694:-10,1,540
312,262,73804,5,0,0:0:0:0:
141,46,73982,1,0,0:0:0:0:
141,46,74072,1,0,0:0:0:0:
141,46,74161,1,0,0:0:0:0:
472,135,74339,1,0,0:0:0:0:
27,296,74518,1,0,0:0:0:0:
343,3,74875,6,0,P|461:258|141:217,1,720
420,162,75411,6,0,L|-2:123,1,360
266,315,75768,5,0,0:0:0:0:
266,315,75857,1,0,0:0:0:0:
266,315,75947,2,0,L|153:-50,1,360
351,276,76214,2,0,L|412:-81,1,360
434,333,76482,1,0,0:0:0:0:
445,51,76661,1,0,0:0:0:0:
56,195,76839,6,0,L|23:59,1,90
477,159,77017,2,0,L|504:53,1,90
35,41,77375,6,0,L|437:82,1,360
490,250,77643,2,0,L|59:297,1,360
427,152,77911,1,0,0:0:0:0:
13,18,78089,6,0,P|181:323|486:147,1,720
305,144,78804,6,0,L|-184:407,1,540
479,38,79161,2,0,L|55:69,1,360
499,224,79518,6,0,P|151:354|-38:42,1,720
427,32,80232,6,0,L|468:392,1,360
112,24,80589,2,0,L|74:407,1,360
497,22,80947,6,0,L|552:407,1,360
10,18,81304,2,0,L|-54:407,1,360
359,122,81661,6,0,L|546:165,1,180
132,315,81839,2,0,L|-40:248,1,180
454,18,82018,2,0,L|632:118,1,180
5,382,82197,2,0,L|-151:264,1,180
358,349,82375,5,0,0:0:0:0:
216,376,82464,1,0,0:0:0:0:
98,294,82554,1,0,0:0:0:0:
71,152,82643,1,0,0:0:0:0:
153,34,82732,1,0,0:0:0:0:
295,7,82822,1,0,0:0:0:0:
413,89,82911,1,0,0:0:0:0:
440,231,83000,1,0,0:0:0:0:
358,349,83089,1,0,0:0:0:0:
329,86,83447,6,0,L|251:77,1,72
426,269,84161,6,0,L|352:282,2,72
210,211,85232,6,0,L|132:203,1,72
490,65,85947,5,0,0:0:0:0:
429,182,86304,5,0,0:0:0:0:
256,192,86393,12,0,87375,0:0:0:0:
