osu file format v14

[General]
AudioFilename: GabrielDropKick.mp3
AudioLeadIn: 0
PreviewTime: 65503
Countdown: 1
SampleSet: Soft
StackLeniency: 0.7
Mode: 0
LetterboxInBreaks: 0
WidescreenStoryboard: 1

[Editor]
Bookmarks: 9740,10012
DistanceSpacing: 0.8
BeatDivisor: 8
GridSize: 4
TimelineZoom: 4.399998

[Metadata]
Title:Gabriel Drop Kick (TV Size)
TitleUnicode:Gabriel Drop Kick (TV Size)
Artist:Tomita Miyu, Onishi Saori, Ohzora Naomi, Hanazawa Kana
ArtistUnicode:Tomita Miyu, Onishi Saori, Ohzora Naomi, Hanazawa Kana
Creator:sorata143
Version:Gabriel
Source:Gabriel DropOut
Tags:Gabriel DropOut Satania Vigne Raphiel
BeatmapID:1204694
BeatmapSetID:568367

[Difficulty]
HPDrainRate:8
CircleSize:4.4
OverallDifficulty:9.2
ApproachRate:9.6
SliderMultiplier:1.39999990463257
SliderTickRate:1

[Events]
//Background and Video events
0,0,"GabrielDropOut.jpg",0,0
//Break Periods
2,41190,43249
//Storyboard Layer 0 (Background)
//Storyboard Layer 1 (Fail)
//Storyboard Layer 2 (Pass)
//Storyboard Layer 3 (Foreground)
//Storyboard Sound Samples

[TimingPoints]
1169,357.142857142857,4,2,1,50,1,0
8311,-166.666666666667,4,3,0,70,0,0
9472,-100,4,1,0,70,0,0
9740,-100,4,2,1,50,0,1
14740,-200,4,2,1,50,0,0
15454,-100,4,2,1,50,0,1
18311,-100,4,2,1,50,0,0
35454,-80,4,2,1,50,0,0
35811,-100,4,2,1,50,0,0
38311,-200,4,1,0,70,0,0
38713,-100,4,2,1,50,0,0
44115,-66.6666666666667,4,1,0,70,0,0
44338,-100,4,1,0,70,0,0
44963,-133.333333333333,4,1,0,70,0,0
45186,-100,4,1,0,70,0,0
45677,-57.1428571428571,4,1,0,70,0,0
45945,-100,4,2,1,50,0,0
55499,-200,4,1,0,70,0,0
55901,-100,4,2,1,50,0,0
65499,-66.6666666666667,4,2,1,50,0,1
65811,-100,4,2,1,50,0,1
69561,-66.6666666666667,4,3,1,50,0,1
69874,-100,4,3,1,50,0,1
71213,-200,4,2,1,50,0,1
71526,-100,4,2,1,50,0,1
74383,-100,4,3,1,50,0,1
76883,-50,4,1,0,70,0,1
77642,-100,4,1,0,70,0,1
78311,-50,4,1,0,70,0,1
78624,-100,4,1,0,70,0,1
79918,-50,4,1,0,70,0,1
80142,-100,4,1,0,70,0,1
80633,-50,4,1,0,70,0,1
80945,-100,4,2,1,50,0,1
82776,-100,4,1,0,70,0,0
83668,-66.6666666666667,4,1,0,70,0,0
84517,-100,4,1,0,70,0,0
85811,-111.111111111111,4,1,0,70,0,0
86570,-100,4,1,0,70,0,0

[HitObjects]
256,192,8,12,0,2241,0:0:0:0:
472,108,2598,5,8,0:0:0:0:
428,328,3133,2,8,L|364:280,1,69.9999952316285
292,128,3491,1,8,0:0:0:0:
292,128,3579,1,0,0:0:0:0:
292,128,3669,1,0,0:0:0:0:
128,288,3848,1,8,0:0:0:0:
136,80,4204,5,8,0:0:0:0:
136,80,4293,1,0,0:0:0:0:
136,80,4383,1,0,0:0:0:0:
352,288,4561,2,8,P|336:324|296:324,1,69.9999952316285
300,140,5097,1,0,0:0:0:0:
125,319,5454,6,8,B|163:283|215:318|175:219,1,139.999990463257
424,300,6169,1,8,0:0:0:0:
412,284,6258,1,0,0:0:0:0:
400,272,6347,1,0,0:0:0:0:
344,64,6526,1,8,0:0:0:0:
112,144,6883,5,8,0:0:0:0:
92,176,6972,1,0,0:0:0:0:
76,212,7061,1,0,0:0:0:0:
444,220,7419,1,8,0:0:0:0:
164,304,7597,1,0,0:0:0:0:
276,96,7955,1,8,0:0:0:0:
184,240,8311,2,0,B|216:272|264:264|276:208|248:160|236:148|260:96|332:152,1,251.999993382453
320,316,9741,5,2,0:0:0:0:
372,320,9830,1,2,0:0:0:0:
416,300,9919,1,2,0:0:0:0:
428,264,10008,1,0,0:0:0:0:
428,212,10098,1,8,0:0:0:0:
472,188,10187,1,0,0:0:0:0:
484,144,10276,1,0,0:0:0:0:
448,104,10366,1,0,0:0:0:0:
392,108,10455,5,2,0:0:0:0:
336,100,10544,1,0,0:0:0:0:
296,88,10633,1,0,0:0:0:0:
252,96,10722,1,0,0:0:0:0:
240,96,10812,1,8,0:0:0:0:
232,100,10901,1,0,0:0:0:0:
224,104,10990,1,0,0:0:0:0:
216,108,11080,1,0,0:0:0:0:
192,140,11168,5,2,0:0:0:0:
192,184,11258,1,2,0:0:0:0:
160,204,11347,1,2,0:0:0:0:
120,180,11436,1,0,0:0:0:0:
64,172,11526,1,8,0:0:0:0:
36,212,11615,1,0,0:0:0:0:
44,256,11704,1,0,0:0:0:0:
56,288,11793,1,0,0:0:0:0:
84,312,11883,5,2,0:0:0:0:
112,324,11972,1,0,0:0:0:0:
144,332,12061,1,0,0:0:0:0:
168,312,12151,1,0,0:0:0:0:
188,300,12240,1,8,0:0:0:0:
200,276,12329,1,0,0:0:0:0:
224,272,12418,1,0,0:0:0:0:
248,276,12508,1,0,0:0:0:0:
280,272,12597,6,2,L|316:256,2,35.0000001490115
336,240,12865,1,0,0:0:0:0:
356,256,12954,1,8,0:0:0:0:
376,276,13043,1,0,0:0:0:0:
420,300,13133,1,0,0:0:0:0:
456,272,13222,1,0,0:0:0:0:
448,228,13311,5,2,0:0:0:0:
432,200,13401,1,0,0:0:0:0:
416,176,13490,1,0,0:0:0:0:
436,152,13579,1,0,0:0:0:0:
464,128,13668,1,8,0:0:0:0:
476,112,13758,1,0,0:0:0:0:
500,80,13847,1,0,0:0:0:0:
476,48,13936,1,0,0:0:0:0:
440,44,14026,6,2,L|400:32,1,34.9999976158143
376,32,14204,1,2,0:0:0:0:
344,52,14293,1,0,0:0:0:0:
340,96,14383,1,8,0:0:0:0:
296,120,14472,1,0,0:0:0:0:
256,96,14561,1,0,0:0:0:0:
232,132,14651,1,0,0:0:0:0:
208,160,14741,2,2,L|168:188,1,43.7499970197678
128,212,15097,1,8,0:0:0:0:
156,344,15454,5,2,0:0:0:0:
116,332,15543,1,2,0:0:0:0:
80,304,15633,1,2,0:0:0:0:
64,264,15722,1,0,0:0:0:0:
60,228,15811,1,8,0:0:0:0:
88,200,15901,1,0,0:0:0:0:
124,180,15990,1,0,0:0:0:0:
128,144,16079,1,0,0:0:0:0:
92,108,16168,5,2,0:0:0:0:
112,60,16258,1,0,0:0:0:0:
160,32,16347,1,0,0:0:0:0:
212,24,16436,1,0,0:0:0:0:
268,36,16526,1,8,0:0:0:0:
304,64,16615,1,0,0:0:0:0:
316,116,16704,1,0,0:0:0:0:
356,152,16793,1,0,0:0:0:0:
404,144,16883,6,2,L|440:168,2,34.9999976158143
472,192,17151,1,0,0:0:0:0:
448,236,17240,1,8,0:0:0:0:
456,284,17329,1,0,0:0:0:0:
420,312,17418,1,0,0:0:0:0:
380,336,17508,1,0,0:0:0:0:
332,316,17597,6,2,L|364:276,1,34.9999976158143
352,248,17776,1,2,0:0:0:0:
328,236,17865,1,0,0:0:0:0:
280,224,17954,1,8,0:0:0:0:
232,228,18043,1,8,0:0:0:0:
180,208,18133,1,8,0:0:0:0:
128,236,18222,1,0,0:0:0:0:
152,40,18311,5,2,0:0:0:0:
208,68,18401,1,2,0:0:0:0:
228,128,18490,1,2,0:0:0:0:
212,184,18579,1,0,0:0:0:0:
268,204,18669,1,8,0:0:0:0:
324,188,18758,1,8,0:0:0:0:
372,224,18847,1,8,0:0:0:0:
336,272,18936,1,0,0:0:0:0:
124,236,19026,5,2,0:0:0:0:
140,232,19115,1,2,0:0:0:0:
160,196,19205,1,2,0:0:0:0:
184,160,19293,1,0,0:0:0:0:
236,144,19383,1,8,0:0:0:0:
280,192,19472,1,8,0:0:0:0:
360,176,19562,1,8,0:0:0:0:
432,100,19651,1,8,0:0:0:0:
444,268,19741,2,6,B|488:320|328:216|428:388|344:328,1,139.999990463257
144,308,20454,6,6,B|124:288|100:284|108:244,1,69.9999952316285
328,320,20722,1,6,0:0:0:0:
344,304,20811,1,0,0:0:0:0:
364,284,20991,1,6,0:0:0:0:
140,88,21168,6,0,B|96:100|72:120|80:144|88:164|52:192|32:192,1,157.499989271164
152,268,21704,1,0,0:0:0:0:
200,304,21793,1,0,0:0:0:0:
252,328,21883,1,0,0:0:0:0:
404,288,22062,2,0,P|432:244|424:220,1,69.9999952316285
328,84,22419,1,0,0:0:0:0:
328,84,22598,1,0,0:0:0:0:
156,128,22776,6,0,L|128:152,2,34.9999976158143
212,308,23133,1,0,0:0:0:0:
380,188,23312,1,0,0:0:0:0:
380,188,23490,1,0,0:0:0:0:
380,188,23669,1,0,0:0:0:0:
88,152,24026,6,2,B|56:88|72:72|124:40|168:72,1,157.499989271164,10|10,0:0|0:0,0:0:0:0:
376,96,24562,1,2,0:0:0:0:
408,152,24651,1,0,0:0:0:0:
376,208,24740,1,2,0:0:0:0:
192,88,24919,1,2,0:0:0:0:
116,288,25098,2,2,L|196:260,1,69.9999952316285
448,256,25633,5,2,0:0:0:0:
400,188,25722,1,0,0:0:0:0:
336,152,25812,1,2,0:0:0:0:
304,216,25901,1,0,0:0:0:0:
248,264,25990,1,2,0:0:0:0:
184,244,26079,5,0,0:0:0:0:
168,212,26168,1,2,0:0:0:0:
164,200,26258,1,0,0:0:0:0:
164,192,26347,1,0,0:0:0:0:
160,188,26436,1,0,0:0:0:0:
124,148,26526,2,8,L|92:116,2,35
96,324,26883,6,0,B|92:284|44:284|28:284|28:252|52:224|88:236,1,139.999990463257
208,164,27418,1,0,0:0:0:0:
252,120,27508,1,0,0:0:0:0:
304,80,27597,1,0,0:0:0:0:
484,92,27776,2,0,P|452:140|460:180,1,87.4999940395356
252,68,28133,1,0,0:0:0:0:
252,68,28312,1,0,0:0:0:0:
152,212,28490,5,0,0:0:0:0:
248,184,28579,1,0,0:0:0:0:
368,208,28669,2,0,L|327:147,1,69.9999952316285
368,208,29026,1,0,0:0:0:0:
148,80,29205,1,0,0:0:0:0:
64,212,29383,1,0,0:0:0:0:
168,344,29651,5,2,0:0:0:0:
296,256,29740,2,2,B|329:222|329:222|312:205|312:205,1,69.9999952316285
128,160,30276,1,2,0:0:0:0:
100,104,30365,1,0,0:0:0:0:
40,88,30454,1,2,0:0:0:0:
80,288,30633,1,2,0:0:0:0:
312,320,30812,2,2,L|312:248,1,69.9999952316285
204,136,31169,1,0,0:0:0:0:
160,288,31347,5,2,0:0:0:0:
108,236,31436,1,0,0:0:0:0:
108,172,31526,1,2,0:0:0:0:
140,116,31615,1,0,0:0:0:0:
212,104,31704,1,2,0:0:0:0:
256,56,31793,5,0,0:0:0:0:
320,52,31883,1,2,0:0:0:0:
368,100,31972,1,0,0:0:0:0:
324,144,32061,1,2,0:0:0:0:
348,200,32151,2,8,L|364:236,3,34.9999976158143
188,324,32597,6,0,B|124:220|244:348|236:240,1,139.999990463257
316,80,33133,2,0,L|336:48,2,34.9999976158143
336,256,33490,1,0,0:0:0:0:
292,296,33579,1,0,0:0:0:0:
252,280,33668,1,0,0:0:0:0:
124,180,33848,1,0,0:0:0:0:
168,152,34026,1,0,0:0:0:0:
424,128,34205,5,0,0:0:0:0:
352,176,34293,1,0,0:0:0:0:
296,244,34383,1,0,0:0:0:0:
168,356,34562,2,0,L|108:308,1,69.9999952316285
72,164,34919,2,0,L|28:152,2,34.9999976158143
168,356,35276,1,0,0:0:0:0:
308,276,35454,6,2,P|336:260|328:204,1,87.4999940395356
164,152,35991,1,2,0:0:0:0:
116,124,36079,1,0,0:0:0:0:
92,108,36169,1,2,0:0:0:0:
168,300,36348,1,2,0:0:0:0:
280,56,36526,2,2,L|312:120,1,69.9999952316285
368,252,36883,1,0,0:0:0:0:
440,108,37061,5,2,0:0:0:0:
380,96,37151,1,0,0:0:0:0:
320,128,37240,1,2,0:0:0:0:
344,188,37329,1,0,0:0:0:0:
320,248,37418,1,2,0:0:0:0:
288,300,37508,5,0,0:0:0:0:
228,320,37597,1,2,0:0:0:0:
168,304,37686,1,0,0:0:0:0:
104,316,37776,1,2,0:0:0:0:
56,276,37865,1,0,0:0:0:0:
40,220,37955,2,8,L|8:184,2,34.9999976158143
128,32,38311,6,0,L|168:96,1,65.6249980330467
184,252,38848,2,0,L|260:204,1,87.4999940395356
428,64,39204,5,0,0:0:0:0:
472,124,39293,1,0,0:0:0:0:
472,196,39383,1,0,0:0:0:0:
316,280,39562,1,0,0:0:0:0:
260,64,39741,1,0,0:0:0:0:
192,208,39919,5,0,0:0:0:0:
192,208,40008,1,0,0:0:0:0:
424,320,40098,2,0,L|436:244,1,69.9999952316285
356,20,40455,2,0,P|288:72|288:72,1,69.9999952316285
172,152,40811,1,0,0:0:0:0:
232,200,40901,1,0,0:0:0:0:
292,252,40990,1,0,0:0:0:0:
148,96,43758,6,2,L|152:136,3,34.9999976158143
400,52,44115,2,0,L|348:152,1,104.999992847443
260,208,44383,1,0,0:0:0:0:
172,320,44562,1,0,0:0:0:0:
104,328,44651,1,0,0:0:0:0:
48,292,44740,1,0,0:0:0:0:
52,128,44964,2,0,L|108:112,1,52.4999964237214
272,36,45320,1,0,0:0:0:0:
240,304,45499,5,0,0:0:0:0:
320,344,45588,1,0,0:0:0:0:
424,332,45678,2,0,L|488:224,1,122.499992823601
368,96,46035,2,0,P|336:72|336:72,2,34.9999976158143
244,220,46348,1,0,0:0:0:0:
364,340,46526,2,0,L|444:324,1,70
412,88,46883,5,0,0:0:0:0:
356,120,46972,1,0,0:0:0:0:
320,176,47061,1,0,0:0:0:0:
360,224,47151,1,0,0:0:0:0:
396,276,47240,1,0,0:0:0:0:
344,316,47329,5,0,0:0:0:0:
288,304,47418,1,0,0:0:0:0:
228,292,47508,1,0,0:0:0:0:
180,248,47597,1,0,0:0:0:0:
208,192,47686,1,0,0:0:0:0:
168,144,47776,1,0,0:0:0:0:
212,104,47865,5,0,0:0:0:0:
172,60,47954,1,0,0:0:0:0:
112,56,48043,1,0,0:0:0:0:
60,88,48133,1,0,0:0:0:0:
88,288,48312,5,2,0:0:0:0:
220,132,48669,1,2,0:0:0:0:
272,296,49026,2,2,L|292:264,1,34.9999976158143
376,56,49204,2,2,L|400:88,1,34.9999976158143
456,320,49383,2,2,L|416:300,1,34.9999976158143
252,208,49561,2,2,L|220:192,1,34.9999976158143
48,96,49740,5,0,0:0:0:0:
72,296,49963,1,0,0:0:0:0:
140,320,50052,1,0,0:0:0:0:
208,300,50142,1,0,0:0:0:0:
304,40,50321,1,0,0:0:0:0:
472,264,50455,1,0,0:0:0:0:
272,356,50633,2,0,L|308:332,2,34.9999976158143
236,184,50990,1,0,0:0:0:0:
384,300,51169,5,0,0:0:0:0:
480,128,51348,1,0,0:0:0:0:
416,68,51437,1,0,0:0:0:0:
324,56,51526,1,0,0:0:0:0:
148,116,51749,2,0,L|92:128,1,52.4999964237214
56,272,52062,1,0,0:0:0:0:
88,332,52151,1,0,0:0:0:0:
160,336,52241,2,0,B|196:316|224:320|232:336,1,69.9999952316285
420,288,52597,6,0,L|440:256,1,34.9999976158143
252,272,52776,2,0,L|228:304,1,34.9999976158143
420,116,52999,2,0,L|376:112,1,34.9999976158143
228,112,53177,2,0,L|260:96,1,34.9999976158143
88,292,53401,6,0,L|44:308,1,34.9999976158143
40,104,53579,2,0,L|52:144,1,34.9999976158143
232,208,53802,2,0,L|204:232,1,34.9999976158143
396,304,54026,5,8,0:0:0:0:
392,300,54115,1,8,0:0:0:0:
380,280,54204,1,8,0:0:0:0:
424,248,54293,1,8,0:0:0:0:
456,184,54383,1,8,0:0:0:0:
456,120,54472,1,8,0:0:0:0:
416,76,54561,1,8,0:0:0:0:
360,112,54651,5,8,0:0:0:0:
308,76,54740,1,8,0:0:0:0:
244,92,54829,1,8,0:0:0:0:
224,156,54918,1,8,0:0:0:0:
208,228,55008,1,8,0:0:0:0:
132,248,55097,1,8,0:0:0:0:
56,232,55186,1,8,0:0:0:0:
40,152,55276,1,8,0:0:0:0:
88,76,55365,1,8,0:0:0:0:
92,344,55499,6,0,L|144:288,1,69.9999952316285
272,192,55990,1,0,0:0:0:0:
244,112,56079,1,0,0:0:0:0:
172,72,56169,1,0,0:0:0:0:
90,342,56392,2,0,L|142:290,1,69.9999952316285
360,320,56749,1,0,0:0:0:0:
360,320,56839,1,0,0:0:0:0:
360,320,56928,1,0,0:0:0:0:
488,104,57107,1,0,0:0:0:0:
284,140,57240,6,0,L|228:92,1,69.9999952316285
88,252,57776,1,0,0:0:0:0:
144,304,57865,1,0,0:0:0:0:
220,308,57955,1,0,0:0:0:0:
328,40,58312,5,2,0:0:0:0:
352,236,58490,1,2,0:0:0:0:
480,108,58669,1,2,0:0:0:0:
220,80,58848,1,2,0:0:0:0:
240,300,59026,1,2,0:0:0:0:
416,140,59205,1,2,0:0:0:0:
196,208,59383,1,2,0:0:0:0:
460,324,59561,1,2,0:0:0:0:
304,48,59740,1,2,0:0:0:0:
196,184,59919,5,2,0:0:0:0:
360,352,60097,1,2,0:0:0:0:
76,336,60276,1,2,0:0:0:0:
144,76,60455,1,2,0:0:0:0:
372,216,60633,1,2,0:0:0:0:
164,312,60812,1,2,0:0:0:0:
280,80,60990,5,2,0:0:0:0:
312,296,61168,1,2,0:0:0:0:
116,76,61347,1,2,0:0:0:0:
52,360,61526,2,4,L|36:316,1,34.9999976158143,2|2,0:0|0:0,0:0:0:0:
4,144,61704,2,2,L|36:172,1,34.9999976158143
232,340,61883,2,2,L|232:296,1,34.9999976158143
232,68,62061,2,2,L|256:96,1,34.9999976158143
408,304,62240,2,2,L|416:264,1,34.9999976158143
424,80,62418,2,2,L|392:112,1,34.9999976158143
240,248,62597,6,2,L|260:212,1,34.9999976158143
336,12,62776,2,2,L|356:48,1,34.9999976158143
456,232,62954,2,2,L|416:216,1,34.9999976158143
208,116,63133,2,2,L|176:144,1,34.9999976158143
40,304,63311,2,2,L|84:300,1,34.9999976158143
312,300,63490,2,2,L|312:256,1,34.9999976158143
368,88,63668,5,10,0:0:0:0:
300,72,63758,1,10,0:0:0:0:
232,96,63847,1,10,0:0:0:0:
232,168,63936,1,10,0:0:0:0:
292,208,64026,1,10,0:0:0:0:
272,272,64115,1,10,0:0:0:0:
224,316,64204,1,10,0:0:0:0:
160,300,64293,1,10,0:0:0:0:
112,256,64383,1,10,0:0:0:0:
88,80,65232,5,2,0:0:0:0:
88,80,65321,1,2,0:0:0:0:
88,80,65410,1,2,0:0:0:0:
192,180,65499,6,2,L|276:312,1,131.249996066093,4|4,0:0|0:0,0:0:0:0:
424,320,65901,1,2,0:0:0:0:
376,264,65990,1,0,0:0:0:0:
340,200,66079,1,2,0:0:0:0:
264,192,66168,1,0,0:0:0:0:
160,324,66347,1,0,0:0:0:0:
64,136,66615,2,2,P|60:92|60:92,3,34.9999976158143
252,232,67106,1,2,0:0:0:0:
392,52,67418,6,2,L|320:28,1,69.9999952316285
184,148,67776,1,2,0:0:0:0:
176,200,67865,1,0,0:0:0:0:
208,248,67955,1,2,0:0:0:0:
388,208,68133,2,2,L|432:144,1,69.9999952316285
244,148,69249,5,4,1:0:0:0:
244,148,69339,1,4,1:0:0:0:
244,148,69428,1,4,1:0:0:0:
176,324,69561,2,0,L|80:264,1,104.999992847443
72,92,69740,1,4,0:0:0:0:
284,92,69963,1,2,0:0:0:0:
432,300,70321,2,4,L|400:348,1,52.5
224,288,70633,2,4,L|176:272,3,35
40,104,71214,6,2,L|80:88,1,43.7499970197678
180,236,71660,2,2,P|156:276|156:276,3,34.9999976158143
372,220,72107,1,2,0:0:0:0:
316,56,72374,1,2,0:0:0:0:
240,64,72463,1,2,0:0:0:0:
176,96,72552,1,2,0:0:0:0:
136,152,72642,1,0,0:0:0:0:
232,264,72865,1,2,0:0:0:0:
408,200,73133,6,2,L|464:148,1,69.9999952316285
428,84,73490,1,2,0:0:0:0:
344,72,73580,1,0,0:0:0:0:
244,84,73670,1,2,0:0:0:0:
88,240,73847,2,2,L|80:312,1,69.9999952316285
412,276,74964,5,2,1:0:0:0:
324,240,75054,1,4,1:0:0:0:
304,152,75143,1,4,1:0:0:0:
176,212,75277,1,4,1:0:0:0:
232,48,75455,1,4,0:0:0:0:
280,224,75679,1,4,0:0:0:0:
440,60,75990,2,4,L|468:124,1,69.9999952316285
408,264,76392,5,0,0:0:0:0:
384,296,76481,1,0,0:0:0:0:
344,316,76570,1,0,0:0:0:0:
32,112,76883,6,0,B|116:48|140:100|184:160|248:152|268:112|200:44,2,279.999980926514
216,252,77776,1,0,0:0:0:0:
256,320,77865,1,0,0:0:0:0:
332,316,77954,1,0,0:0:0:0:
456,184,78311,6,0,P|480:128|372:56,1,209.999985694886
312,184,78668,1,0,0:0:0:0:
128,72,78847,1,0,0:0:0:0:
232,340,79026,1,0,0:0:0:0:
56,296,79204,2,2,L|76:268,2,34.9999976158143
448,312,79740,5,0,0:0:0:0:
420,64,79918,2,0,B|336:64|304:64|284:104,1,139.999990463257
60,112,80455,5,0,0:0:0:0:
196,312,80633,2,0,B|248:316|252:360|300:300|288:268|352:256,1,174.999988079071
472,160,81169,5,10,0:0:0:0:
400,184,81258,1,10,0:0:0:0:
412,264,81348,1,10,0:0:0:0:
352,312,81437,1,10,0:0:0:0:
280,332,81526,1,10,0:0:0:0:
204,328,81615,1,10,0:0:0:0:
152,280,81704,1,10,0:0:0:0:
180,216,81793,1,10,0:0:0:0:
252,216,81883,1,10,0:0:0:0:
312,164,81972,5,10,0:0:0:0:
336,92,82061,1,10,0:0:0:0:
296,28,82151,1,10,0:0:0:0:
224,20,82240,1,10,0:0:0:0:
156,48,82329,1,10,0:0:0:0:
104,88,82418,1,10,0:0:0:0:
72,152,82508,2,10,L|88:184,1,34.9999976158143
352,324,82955,6,2,B|400:308|428:328|444:284|428:216|428:216,1,157.499989271164
128,84,83668,2,0,B|88:128|96:160|100:176|64:212|24:224|64:232|92:276|92:284,2,218.749985098839
344,112,84740,1,0,0:0:0:0:
168,112,85098,1,2,0:0:0:0:
256,192,85455,5,2,0:0:0:0:
140,268,85811,2,0,B|192:300|256:324|328:300|372:264,1,244.9999833107
