osu file format v14

[General]
AudioFilename: dropkick.mp3
AudioLeadIn: 0
PreviewTime: 65856
Countdown: 0
SampleSet: Soft
StackLeniency: 0.7
Mode: 2
LetterboxInBreaks: 0
WidescreenStoryboard: 1

[Editor]
Bookmarks: 82731
DistanceSpacing: 1.3
BeatDivisor: 4
GridSize: 8
TimelineZoom: 2.2

[Metadata]
Title:Gabriel Drop Kick
TitleUnicode:ガヴリールドロップキック
Artist:Tomita Miyu, Onishi Saori, Ohzora Naomi, Hanazawa Kana
ArtistUnicode:富田美憂、大西沙織、大空直美、花澤香菜
Creator:Sc4v4ng3r
Version:Platter
Source:ガヴリールドロップアウト
Tags:tv size dropout gabdro opening tenma white 天真・ガヴリール・ホワイト tsukinose vignette april 月乃瀬・ヴィネット・エイプリル ヴィーネ vigne kurumizawa satanichia mcdowell 胡桃沢・サタニキア・マクドウェル サターニャ satania shiraha raphiel ainsworth 白羽・ラフィエル・エインズワース ガヴドロ
BeatmapID:1260908
BeatmapSetID:596279

[Difficulty]
HPDrainRate:5
CircleSize:3.5
OverallDifficulty:8
ApproachRate:8
SliderMultiplier:1.4
SliderTickRate:1

[Events]
//Background and Video events
Video,0,"vid.avi"
0,0,"background.jpg",0,0
//Break Periods
//Storyboard Layer 0 (Background)
//Storyboard Layer 1 (Fail)
//Storyboard Layer 2 (Pass)
//Storyboard Layer 3 (Foreground)
//Storyboard Sound Samples

[TimingPoints]
232,357.142857142857,4,2,0,100,1,0
3089,-125,4,2,2,65,0,0
10232,357.142857142857,4,2,1,75,1,0
21660,-100,4,2,2,65,0,0
24517,-100,4,2,1,75,0,0
27374,-100,4,2,2,65,0,0
30231,-100,4,2,1,75,0,0
44517,-100,4,2,1,70,0,0
55946,-100,4,2,1,65,0,0
58803,357.142857142857,5,2,1,75,1,0
60410,357.142857142857,5,2,1,75,1,0
62017,357.142857142857,4,2,1,75,1,0
64517,357.142857142857,4,2,2,65,1,0
65588,-100,4,2,1,65,0,0
65945,-100,4,2,1,80,0,1
68802,-100,4,2,1,75,0,0
70231,-100,4,2,1,80,0,1
71302,-83.3333333333333,4,2,1,80,0,0
71659,-100,4,2,1,80,0,1
74517,-100,4,2,1,75,0,0
75945,-100,4,2,1,80,0,1
77017,-83.3333333333333,4,2,1,80,0,0
77374,-100,4,2,1,80,0,1
83088,357.142857142857,3,2,2,65,1,0

[Colours]
Combo1 : 159,159,255
Combo2 : 228,245,22
Combo3 : 82,36,217
Combo4 : 240,0,0

[HitObjects]
88,96,3089,6,0,P|50:136|136:160,1,168,2|0,0:0|0:0,0:0:0:0:
208,160,3803,2,0,L|288:160,2,56,2|0|0,0:0|0:0|0:0,0:0:0:0:
56,168,4339,6,0,P|88:232|136:248,1,112,2|0,0:0|0:0,0:0:0:0:
312,248,5053,2,0,L|384:248,1,56,0|2,0:0|0:0,0:0:0:0:
72,240,5946,6,0,L|184:232,1,112,2|0,0:0|0:0,0:0:0:0:
328,224,6660,2,0,L|440:208,1,112,2|0,0:0|0:0,0:0:0:0:
152,184,7374,6,0,L|8:88,2,168,2|0|0,0:0|0:0|0:0,0:0:0:0:
416,160,8803,1,2,0:0:0:0:
256,192,8981,12,0,9874,0:0:0:0:
88,112,10232,6,0,L|240:96,1,140,6|8,0:0|0:0,0:0:0:0:
320,112,10767,1,0,0:0:0:0:
227,97,10946,2,0,L|59:113,1,140,2|8,0:0|0:0,0:0:0:0:
176,104,11482,1,0,0:0:0:0:
224,112,11571,1,0,0:0:0:0:
176,104,11660,5,2,0:0:0:0:
88,136,11839,1,0,0:0:0:0:
264,240,12017,2,0,L|352:240,1,70,8|0,0:0|0:0,0:0:0:0:
160,208,12374,1,2,0:0:0:0:
120,232,12464,1,0,0:0:0:0:
104,272,12553,1,0,0:0:0:0:
128,312,12642,1,0,0:0:0:0:
168,328,12732,2,0,L|248:328,1,70,8|0,0:0|0:0,0:0:0:0:
480,312,13089,6,0,P|488:272|392:240,1,140,6|8,0:0|0:0,0:0:0:0:
304,248,13624,2,0,L|248:240,1,35
224,232,13803,2,0,L|80:208,1,140,2|8,0:0|0:0,0:0:0:0:
176,192,14339,1,0,0:0:0:0:
344,120,14517,6,0,L|248:104,1,70,2|0,0:0|0:0,0:0:0:0:
152,104,14874,2,0,L|88:104,2,35,8|0|0,0:0|0:0|0:0,0:0:0:0:
392,112,15231,2,0,L|486:116,1,70,8|8,0:0|0:0,0:0:0:0:
360,128,15589,2,0,L|440:128,1,70,8|0,0:0|0:0,0:0:0:0:
168,240,15946,6,0,L|24:232,1,140,6|8,0:0|0:0,0:0:0:0:
104,184,16481,1,0,0:0:0:0:
184,200,16660,2,0,P|152:152|64:160,1,140,2|8,0:0|0:0,0:0:0:0:
168,168,17196,1,0,0:0:0:0:
344,176,17374,6,0,L|440:168,1,70,2|0,0:0|0:0,0:0:0:0:
320,184,17731,2,0,L|232:176,1,70,8|0,0:0|0:0,0:0:0:0:
208,168,17999,1,0,0:0:0:0:
296,136,18178,2,0,L|344:96,1,35
416,96,18446,2,0,L|320:88,1,70,8|0,0:0|0:0,0:0:0:0:
168,88,18803,6,0,L|80:104,1,70,2|0,0:0|0:0,0:0:0:0:
192,112,19160,2,0,L|112:128,1,70,8|0,0:0|0:0,0:0:0:0:
32,152,19517,5,8,0:0:0:0:
40,200,19606,1,2,0:0:0:0:
72,232,19696,1,8,0:0:0:0:
120,232,19785,1,2,0:0:0:0:
160,224,19874,1,8,0:0:0:0:
168,272,19964,1,2,0:0:0:0:
144,304,20053,1,8,0:0:0:0:
96,312,20142,1,2,0:0:0:0:
48,312,20231,6,0,L|216:320,2,140,8|8|8,0:0|0:0|0:0,0:0:0:0:
408,296,21660,6,0,P|456:248|392:240,1,140,2|0,0:0|0:0,0:0:0:0:
328,264,22196,1,0,0:0:0:0:
224,256,22374,2,0,L|144:248,1,70,2|0,0:0|0:0,0:0:0:0:
64,232,22731,2,0,L|160:240,1,70
312,256,23089,6,0,L|472:240,1,140,2|0,0:0|0:0,0:0:0:0:
368,216,23624,1,0,0:0:0:0:
456,192,23803,2,0,P|456:128|320:96,1,210,2|0,0:0|0:0,0:0:0:0:
96,128,24517,6,0,P|40:160|128:224,1,210,4|2,0:0|0:0,0:0:0:0:
208,208,25231,2,0,L|64:192,1,140,8|2,0:0|0:0,0:0:0:0:
248,176,25767,6,0,L|400:168,1,140,8|8,0:0|0:0,0:0:0:0:
480,160,26303,2,0,L|384:152,1,70,2|0,0:0|0:0,0:0:0:0:
232,144,26660,2,0,L|136:136,1,70,8|0,0:0|0:0,0:0:0:0:
328,120,27017,2,0,L|408:112,1,70,8|0,0:0|0:0,0:0:0:0:
120,128,27374,6,0,B|47:139|47:139|120:128,1,140,2|0,0:0|0:0,0:0:0:0:
200,112,27910,1,0,0:0:0:0:
312,128,28089,2,0,L|400:144,2,70,2|0|0,0:0|0:0|0:0,0:0:0:0:
224,112,28624,1,0,0:0:0:0:
328,120,28803,6,0,P|352:168|336:264,1,140,2|0,0:0|0:0,0:0:0:0:
256,264,29339,1,0,0:0:0:0:
168,248,29517,2,0,B|52:237|52:237|176:248,1,210,2|0,0:0|0:0,0:0:0:0:
416,208,30231,6,0,P|480:176|392:160,1,210,4|2,0:0|0:0,0:0:0:0:
288,176,30946,2,0,L|136:168,1,140,8|2,0:0|0:0,0:0:0:0:
328,168,31481,6,0,P|368:136|328:72,1,140,8|8,0:0|0:0,0:0:0:0:
248,112,32017,2,0,L|168:112,1,70,2|0,0:0|0:0,0:0:0:0:
360,136,32374,5,0,3:0:0:0:
400,160,32464,1,0,3:0:0:0:
400,208,32553,1,0,3:0:0:0:
360,232,32642,1,0,3:0:0:0:
320,248,32731,1,0,3:0:0:0:
280,264,32821,1,0,3:0:0:0:
280,312,32910,1,0,3:0:0:0:
320,336,32999,1,0,3:0:0:0:
360,352,33089,6,0,B|432:344|432:344|352:352,1,140,6|8,0:0|0:0,0:0:0:0:
272,360,33624,1,0,0:0:0:0:
184,360,33803,2,0,L|88:352,1,70,2|0,0:0|0:0,0:0:0:0:
16,328,34160,2,0,L|112:320,1,70,8|0,0:0|0:0,0:0:0:0:
256,336,34517,6,0,L|344:344,2,70,2|0|8,0:0|0:0|0:0,0:0:0:0:
160,320,35053,1,0,0:0:0:0:
248,304,35231,2,0,L|336:296,1,70,2|0,0:0|0:0,0:0:0:0:
152,280,35589,2,0,L|240:240,1,70,12|0,0:0|0:0,0:0:0:0:
464,240,35946,5,6,0:0:0:0:
480,152,36124,2,0,P|464:88|384:72,1,140
312,88,36660,1,2,0:0:0:0:
392,136,36839,1,0,0:0:0:0:
312,88,37017,1,8,0:0:0:0:
136,120,37196,6,0,P|112:176|184:208,1,140,2|0,0:0|0:0,0:0:0:0:
256,192,37731,2,0,L|344:184,1,70,8|0,0:0|0:0,0:0:0:0:
416,176,38089,1,2,0:0:0:0:
240,176,38267,2,0,L|160:176,2,70,8|2|8,0:0|0:0|0:0,0:0:0:0:
480,160,38803,6,0,P|496:112|416:72,1,140,6|8,0:0|0:0,0:0:0:0:
344,112,39339,1,0,0:0:0:0:
256,128,39517,2,0,L|352:128,1,70,2|0,0:0|0:0,0:0:0:0:
400,176,39874,2,0,L|328:176,1,70,8|0,0:0|0:0,0:0:0:0:
144,168,40231,6,0,L|64:168,1,70,6|0,0:0|0:0,0:0:0:0:
168,176,40589,2,0,L|238:176,1,70,8|0,0:0|0:0,0:0:0:0:
480,168,40946,2,0,P|480:120|400:96,1,140,6|8,0:0|0:0,0:0:0:0:
224,168,44160,5,0,3:0:0:0:
184,144,44249,1,0,3:0:0:0:
144,120,44339,1,0,3:0:0:0:
104,96,44428,1,0,3:0:0:0:
64,72,44517,6,0,P|96:32|168:40,1,105,6|0,0:0|0:0,0:0:0:0:
192,40,44874,2,0,L|280:40,1,70,8|0,0:0|0:0,0:0:0:0:
152,192,45231,2,0,L|72:192,1,70,2|0,0:0|0:0,0:0:0:0:
168,216,45589,2,0,L|238:216,1,70,8|0,0:0|0:0,0:0:0:0:
416,168,45946,6,0,L|472:168,2,35,2|0|0,0:0|0:0|0:0,0:0:0:0:
312,160,46303,2,0,L|216:152,1,70,8|0,0:0|0:0,0:0:0:0:
152,144,46660,1,2,0:0:0:0:
104,152,46749,2,0,L|8:160,1,70
82,150,47017,2,0,L|170:142,1,70,8|0,0:0|0:0,0:0:0:0:
400,144,47374,6,0,P|440:88|384:72,1,140,6|8,0:0|0:0,0:0:0:0:
288,104,47910,1,0,0:0:0:0:
200,136,48089,2,0,L|88:128,1,105,2|0,0:0|0:0,0:0:0:0:
56,160,48446,2,0,L|144:160,1,70,8|0,0:0|0:0,0:0:0:0:
376,176,48803,6,0,B|444:175|444:175|360:176,1,140,10|8,0:0|0:0,0:0:0:0:
192,152,49517,2,0,L|288:144,1,70,10|8,0:0|0:0,0:0:0:0:
352,136,49874,2,0,L|432:128,1,70,8|8,0:0|0:0,0:0:0:0:
176,112,50231,6,0,L|32:96,1,140,6|8,0:0|0:0,0:0:0:0:
112,152,50767,1,0,0:0:0:0:
200,160,50946,2,0,P|224:208|168:280,1,140,2|8,0:0|0:0,0:0:0:0:
88,280,51481,1,0,0:0:0:0:
264,312,51660,6,0,L|360:304,1,70,2|0,0:0|0:0,0:0:0:0:
264,248,52017,1,8,0:0:0:0:
304,224,52106,1,0,0:0:0:0:
344,200,52196,1,0,0:0:0:0:
256,176,52374,2,0,L|168:160,1,70,2|0,0:0|0:0,0:0:0:0:
96,152,52731,2,0,L|184:144,1,70,8|0,0:0|0:0,0:0:0:0:
416,128,53089,5,2,0:0:0:0:
496,176,53267,2,0,L|424:176,2,70,8|2|8,0:0|0:0|0:0,0:0:0:0:
320,232,53803,1,2,0:0:0:0:
288,264,53892,1,0,0:0:0:0:
296,312,53981,1,8,0:0:0:0:
336,336,54071,1,0,0:0:0:0:
376,352,54160,2,0,L|446:352,1,70,2|8,0:0|0:0,0:0:0:0:
200,304,54517,6,0,L|130:304,1,70,6|8,0:0|0:0,0:0:0:0:
48,280,54874,2,0,L|118:280,1,70,2|8,0:0|0:0,0:0:0:0:
296,256,55231,2,0,L|366:256,1,70,2|8,0:0|0:0,0:0:0:0:
408,240,55499,1,0,0:0:0:0:
456,232,55589,2,0,L|362:232,1,70,2|8,0:0|0:0,0:0:0:0:
128,176,55946,6,0,P|87:124|127:73,1,140,6|2,0:0|0:0,0:0:0:0:
200,120,56481,1,0,0:0:0:0:
120,160,56660,2,0,L|32:160,1,70,2|0,0:0|0:0,0:0:0:0:
136,184,57017,2,0,L|208:184,1,70,2|0,0:0|0:0,0:0:0:0:
384,168,57374,6,0,P|432:160|384:128,1,140,6|2,0:0|0:0,0:0:0:0:
208,184,57910,2,0,L|360:168,1,140,4|0,0:0|0:0,0:0:0:0:
464,152,58446,2,0,L|368:144,1,70,2|0,0:0|0:0,0:0:0:0:
144,144,58803,6,0,L|48:152,2,70,6|2|2,0:0|0:0|0:0,0:0:0:0:
248,168,59338,2,0,L|328:176,2,70,2|2|2,0:0|0:0|0:0,0:0:0:0:
160,184,59874,1,2,0:0:0:0:
80,224,60053,1,2,0:0:0:0:
168,248,60231,1,2,0:0:0:0:
416,216,60410,6,0,P|459:210|488:176,1,70,6|2,0:0|0:0,0:0:0:0:
392,168,60767,1,2,0:0:0:0:
288,144,60945,1,2,0:0:0:0:
376,144,61124,1,2,0:0:0:0:
288,160,61302,1,2,0:0:0:0:
184,168,61481,2,0,L|88:160,1,70,2|2,0:0|0:0,0:0:0:0:
200,144,61838,1,2,0:0:0:0:
448,112,62017,6,0,L|512:40,1,70,6|2,0:0|0:0,0:0:0:0:
400,48,62374,1,2,0:0:0:0:
288,80,62552,2,0,L|232:16,1,70,2|2,0:0|0:0,0:0:0:0:
336,16,62909,1,2,0:0:0:0:
448,48,63088,2,0,L|376:48,1,70,2|2,0:0|0:0,0:0:0:0:
128,80,63445,5,6,0:0:0:0:
40,88,63624,1,2,0:0:0:0:
144,96,63802,1,2,0:0:0:0:
232,112,63981,1,2,0:0:0:0:
128,120,64159,1,2,0:0:0:0:
216,136,64338,1,2,0:0:0:0:
416,136,64517,6,0,L|504:128,1,70,2|0,0:0|0:0,0:0:0:0:
488,96,64784,1,0,0:0:0:0:
480,48,64874,1,0,0:0:0:0:
392,64,65052,1,0,0:0:0:0:
304,72,65231,2,0,L|224:64,1,70
40,104,65588,2,0,P|48:152|72:184,1,70,8|0,0:0|3:0,0:0:0:0:
120,176,65856,1,0,3:0:0:0:
168,176,65945,6,0,L|320:192,1,140,6|8,0:0|0:0,0:0:0:0:
400,200,66481,1,0,0:0:0:0:
232,160,66659,2,0,P|304:144|384:184,1,140,2|8,0:0|0:0,0:0:0:0:
280,200,67195,1,0,0:0:0:0:
96,216,67374,6,0,P|112:160|192:152,1,140,2|8,0:0|0:0,0:0:0:0:
264,208,67909,1,0,0:0:0:0:
376,200,68088,1,2,0:0:0:0:
288,192,68267,2,0,L|240:192,2,35,0|0|8,0:0|0:0|0:0,0:0:0:0:
376,200,68624,1,0,0:0:0:0:
128,240,68802,5,6,0:0:0:0:
8,104,69159,2,0,L|144:176,1,140
216,240,69695,2,0,L|144:216,1,70,8|8,0:0|0:0,0:0:0:0:
72,176,70052,1,0,0:0:0:0:
320,208,70231,6,0,L|424:192,2,105,6|8|2,0:0|0:0|0:0,0:0:0:0:
368,288,70945,1,2,0:0:0:0:
200,272,71124,1,8,0:0:0:0:
88,264,71302,2,0,L|192:272,1,83.9999974365235,8|0,0:0|0:0,0:0:0:0:
424,232,71659,6,0,P|488:208|448:176,1,140,6|8,0:0|0:0,0:0:0:0:
368,168,72195,1,0,0:0:0:0:
192,168,72374,2,0,L|360:144,1,140,2|8,0:0|0:0,0:0:0:0:
424,136,72909,1,0,0:0:0:0:
248,160,73088,6,0,P|196:154|80:128,1,140,2|8,0:0|0:0,0:0:0:0:
192,96,73624,1,0,0:0:0:0:
102,104,73802,1,2,0:0:0:0:
192,96,73981,1,0,0:0:0:0:
160,128,74070,1,0,0:0:0:0:
128,160,74159,1,8,0:0:0:0:
216,176,74338,1,0,0:0:0:0:
456,168,74517,5,6,0:0:0:0:
288,96,74874,2,0,L|408:25,1,140
312,80,75409,1,8,0:0:0:0:
400,72,75588,1,8,0:0:0:0:
488,96,75767,1,0,0:0:0:0:
232,112,75945,6,0,L|120:128,2,105,6|8|2,0:0|0:0|0:0,0:0:0:0:
144,144,76659,1,2,0:0:0:0:
312,144,76838,1,8,0:0:0:0:
424,160,77017,2,0,L|328:168,1,83.9999974365235,8|0,0:0|0:0,0:0:0:0:
96,176,77374,6,0,P|40:152|80:72,1,140,6|8,0:0|0:0,0:0:0:0:
144,128,77909,1,0,0:0:0:0:
232,144,78088,2,0,L|328:144,1,70,2|0,0:0|0:0,0:0:0:0:
472,176,78445,2,0,L|376:176,1,70,8|0,0:0|0:0,0:0:0:0:
152,224,78802,6,0,P|96:216|40:184,1,105,6|0,0:0|0:0,0:0:0:0:
24,160,79159,1,8,0:0:0:0:
112,168,79338,1,0,0:0:0:0:
24,160,79517,2,0,L|93:166,1,70,2|0,0:0|0:0,0:0:0:0:
272,136,79874,2,0,L|360:144,1,70,8|0,0:0|0:0,0:0:0:0:
96,184,80231,6,0,B|25:177|25:177|96:185,1,140,6|8,0:0|0:0,0:0:0:0:
184,192,80767,1,0,0:0:0:0:
432,200,80945,2,0,P|480:176|424:152,1,140,6|8,0:0|0:0,0:0:0:0:
336,168,81481,1,0,0:0:0:0:
88,176,81659,6,0,L|16:168,1,70,6|8,0:0|0:0,0:0:0:0:
112,152,82017,2,0,L|208:144,1,70,2|8,0:0|0:0,0:0:0:0:
360,120,82374,2,0,L|272:104,1,70,2|8,0:0|0:0,0:0:0:0:
384,104,82731,2,0,L|480:96,1,70,2|8,0:0|0:0,0:0:0:0:
200,88,83088,6,0,L|48:96,2,140,2|0|0,0:0|0:0|0:0,0:0:0:0:
408,112,84159,2,0,L|256:120,2,140,2|0|0,0:0|0:0|0:0,0:0:0:0:
104,192,85230,5,2,0:0:0:0:
464,232,85945,2,0,L|296:200,1,140,2|2,0:0|0:0,0:0:0:0:
