osu file format v14

[General]
AudioFilename: dropkick.mp3
AudioLeadIn: 0
PreviewTime: 65856
Countdown: 0
SampleSet: Soft
StackLeniency: 0.7
Mode: 2
LetterboxInBreaks: 0
WidescreenStoryboard: 1

[Editor]
DistanceSpacing: 1.1
BeatDivisor: 4
GridSize: 8
TimelineZoom: 2.2

[Metadata]
Title:Gabriel Drop Kick
TitleUnicode:ガヴリールドロップキック
Artist:Tomita Miyu, Onishi Saori, Ohzora Naomi, Hanazawa Kana
ArtistUnicode:富田美憂、大西沙織、大空直美、花澤香菜
Creator:Sc4v4ng3r
Version:Cup
Source:ガヴリールドロップアウト
Tags:tv size dropout gabdro opening tenma white 天真・ガヴリール・ホワイト tsukinose vignette april 月乃瀬・ヴィネット・エイプリル ヴィーネ vigne kurumizawa satanichia mcdowell 胡桃沢・サタニキア・マクドウェル サターニャ satania shiraha raphiel ainsworth 白羽・ラフィエル・エインズワース ガヴドロ
BeatmapID:1272278
BeatmapSetID:596279

[Difficulty]
HPDrainRate:3
CircleSize:3
OverallDifficulty:6
ApproachRate:6
SliderMultiplier:1.1
SliderTickRate:1

[Events]
//Background and Video events
Video,0,"vid.avi"
0,0,"background.jpg",0,0
//Break Periods
//Storyboard Layer 0 (Background)
//Storyboard Layer 1 (Fail)
//Storyboard Layer 2 (Pass)
//Storyboard Layer 3 (Foreground)
//Storyboard Sound Samples

[TimingPoints]
232,357.142857142857,4,2,2,65,1,0
10232,357.142857142857,4,2,1,75,1,0
21660,-100,4,2,2,65,0,0
24517,-100,4,2,1,80,0,0
27374,-100,4,2,2,65,0,0
30231,-100,4,2,1,75,0,0
44517,-100,4,2,1,70,0,0
55946,-100,4,2,1,65,0,0
58803,357.142857142857,5,2,1,75,1,0
60410,357.142857142857,5,2,1,75,1,0
62017,357.142857142857,4,2,1,75,1,0
64517,357.142857142857,4,2,2,65,1,0
65945,-100,4,2,1,80,0,1
68802,-100,4,2,1,75,0,0
70231,-100,4,2,1,80,0,1
71302,-83.3333333333333,4,2,1,80,0,0
71659,-100,4,2,1,80,0,1
74517,-100,4,2,1,75,0,0
75945,-100,4,2,1,80,0,1
77017,-83.3333333333333,4,2,1,80,0,0
77374,-100,4,2,1,80,0,1
83088,357.142857142857,3,2,2,65,1,0

[Colours]
Combo1 : 159,159,255
Combo2 : 228,245,22
Combo3 : 82,36,217
Combo4 : 240,0,0

[HitObjects]
120,128,3089,6,0,P|176:88|304:144,1,220,2|2,0:0|0:0,0:0:0:0:
64,192,4517,2,0,P|112:232|248:176,1,220,2|2,0:0|0:0,0:0:0:0:
487,167,5946,6,0,L|255:151,1,220,2|2,0:0|0:0,0:0:0:0:
144,160,7017,1,0,0:0:0:0:
256,160,7374,2,0,B|368:161|368:161|256:160,1,220,2|2,0:0|0:0,0:0:0:0:
136,160,8446,1,0,0:0:0:0:
288,152,8803,5,2,0:0:0:0:
256,192,9160,12,0,9874,0:0:0:0:
368,112,10232,6,0,L|258:105,1,110,6|8,0:0|0:0,0:0:0:0:
136,104,10946,2,0,L|264:120,1,110,2|8,0:0|0:0,0:0:0:0:
368,136,11660,6,0,L|448:128,2,55,2|0|8,0:0|0:0|0:0,0:0:0:0:
248,160,12374,1,2,0:0:0:0:
368,168,12732,1,8,0:0:0:0:
216,176,13089,6,0,L|80:168,1,110,6|8,0:0|0:0,0:0:0:0:
224,160,13803,2,0,L|96:152,1,110,2|8,0:0|0:0,0:0:0:0:
232,160,14517,5,2,0:0:0:0:
296,160,14696,1,0,0:0:0:0:
232,160,14874,1,8,0:0:0:0:
112,136,15231,1,10,0:0:0:0:
168,112,15410,1,8,0:0:0:0:
224,88,15589,1,8,0:0:0:0:
384,96,15946,6,0,L|496:88,2,110,6|8|2,0:0|0:0|0:0,0:0:0:0:
264,104,17017,1,8,0:0:0:0:
136,144,17374,6,0,L|256:152,1,110,2|8,0:0|0:0,0:0:0:0:
128,176,18089,2,0,L|0:184,1,110,2|8,0:0|0:0,0:0:0:0:
152,192,18803,6,0,L|280:200,1,110,2|8,0:0|0:0,0:0:0:0:
384,192,19517,1,8,0:0:0:0:
264,184,19874,1,8,0:0:0:0:
432,184,20231,6,0,L|304:176,2,110,8|8|8,0:0|0:0|0:0,0:0:0:0:
192,208,21660,6,0,P|144:208|192:96,1,220,2|2,0:0|0:0,0:0:0:0:
288,128,22731,1,0,0:0:0:0:
408,128,23089,2,0,L|296:120,1,110,2|0,0:0|0:0,0:0:0:0:
416,104,23803,2,0,P|480:144|416:168,1,165,2|0,0:0|0:0,0:0:0:0:
344,160,24517,6,0,L|160:176,1,165,4|2,0:0|0:0,0:0:0:0:
120,176,25231,2,0,L|240:184,1,110,8|2,0:0|0:0,0:0:0:0:
288,192,25767,6,0,P|336:184|416:160,1,110,8|8,0:0|0:0,0:0:0:0:
456,160,26303,1,0,0:0:0:0:
320,168,26660,1,8,0:0:0:0:
440,168,27017,1,8,0:0:0:0:
272,192,27374,6,0,L|96:176,1,165,2|0,0:0|0:0,0:0:0:0:
48,176,28089,1,2,0:0:0:0:
168,192,28446,1,0,0:0:0:0:
48,176,28803,2,0,L|176:160,1,110,2|0,0:0|0:0,0:0:0:0:
280,152,29517,2,0,L|392:136,1,110,2|0,0:0|0:0,0:0:0:0:
224,120,30231,6,0,P|176:136|240:192,1,165,4|2,0:0|0:0,0:0:0:0:
288,176,30946,2,0,L|160:184,1,110,8|2,0:0|0:0,0:0:0:0:
120,184,31481,6,0,L|248:192,1,110,8|8,0:0|0:0,0:0:0:0:
288,184,32017,1,0,0:0:0:0:
408,176,32374,2,0,L|280:160,1,110,10|0,0:0|0:0,0:0:0:0:
120,152,33089,6,0,L|8:160,2,110,6|8|2,0:0|0:0|0:0,0:0:0:0:
240,152,34160,1,8,0:0:0:0:
360,136,34517,2,0,L|432:144,2,55,2|0|8,0:0|0:0|0:0,0:0:0:0:
240,120,35231,2,0,L|352:112,1,110,2|12,0:0|0:0,0:0:0:0:
176,104,35946,6,0,L|48:120,1,110,6|8,0:0|0:0,0:0:0:0:
184,128,36660,1,2,0:0:0:0:
304,128,37017,1,8,0:0:0:0:
360,152,37196,6,0,L|184:160,1,165,0|8,0:0|0:0,0:0:0:0:
304,184,38089,1,2,0:0:0:0:
248,192,38267,2,0,L|176:192,2,55,8|2|8,0:0|0:0|0:0,0:0:0:0:
336,200,38803,6,0,L|472:192,1,110,6|8,0:0|0:0,0:0:0:0:
312,192,39517,2,0,L|176:200,1,110,2|8,0:0|0:0,0:0:0:0:
32,176,40231,6,0,L|160:184,1,110,6|8,0:0|0:0,0:0:0:0:
200,176,40767,1,0,0:0:0:0:
256,168,40946,2,0,L|120:160,1,110,6|8,0:0|0:0,0:0:0:0:
400,160,44517,6,0,L|272:144,1,110,6|8,0:0|0:0,0:0:0:0:
344,112,45053,1,0,0:0:0:0:
400,96,45231,2,0,L|280:80,1,110,2|8,0:0|0:0,0:0:0:0:
168,88,45946,6,0,L|104:96,2,55,2|0|8,0:0|0:0|0:0,0:0:0:0:
288,96,46660,2,0,L|352:104,2,55,2|0|8,0:0|0:0|0:0,0:0:0:0:
120,144,47374,6,0,L|8:152,1,110,6|8,0:0|0:0,0:0:0:0:
128,168,48089,2,0,L|248:152,1,110,2|8,0:0|0:0,0:0:0:0:
408,136,48803,5,8,0:0:0:0:
264,128,49160,1,8,0:0:0:0:
408,136,49517,2,0,L|472:136,2,55,8|8|8,0:0|0:0|0:0,0:0:0:0:
336,152,50053,1,8,0:0:0:0:
264,176,50231,6,0,L|128:168,1,110,6|8,0:0|0:0,0:0:0:0:
272,152,50946,2,0,L|392:144,1,110,2|8,0:0|0:0,0:0:0:0:
264,136,51660,6,0,L|384:128,1,110,2|8,0:0|0:0,0:0:0:0:
312,120,52196,1,0,0:0:0:0:
248,120,52374,2,0,L|168:112,2,55,2|0|8,0:0|0:0|0:0,0:0:0:0:
416,128,53089,6,0,L|472:120,2,55,2|8|2,0:0|0:0|0:0,0:0:0:0:
296,160,53803,2,0,L|240:152,2,55,2|8|2,0:0|0:0|0:0,0:0:0:0:
464,184,54517,6,0,L|344:192,1,110,6|2,0:0|0:0,0:0:0:0:
232,176,55231,2,0,L|168:184,1,55,2|8,0:0|0:0,0:0:0:0:
120,192,55588,1,2,0:0:0:0:
288,216,55946,6,0,L|416:208,2,110,6|2|2,0:0|0:0|0:0,0:0:0:0:
168,224,57017,1,2,0:0:0:0:
320,208,57374,6,0,L|448:192,1,110,6|2,0:0|0:0,0:0:0:0:
488,184,57910,2,0,L|368:168,1,110,4|0,0:0|0:0,0:0:0:0:
304,168,58446,1,2,0:0:0:0:
120,192,58803,6,0,P|72:176|136:112,1,165,6|2,0:0|0:0,0:0:0:0:
336,144,59874,2,0,L|224:128,1,110,2|2,0:0|0:0,0:0:0:0:
136,112,60410,6,0,P|214:69|304:80,1,165,6|2,0:0|0:0,0:0:0:0:
504,112,61481,2,0,L|376:112,1,110,2|2,0:0|0:0,0:0:0:0:
304,112,62017,6,0,P|336:152|464:144,1,165,6|2,0:0|0:0,0:0:0:0:
232,160,63088,1,2,0:0:0:0:
416,176,63445,6,0,B|248:184|248:184|432:176,1,330,6|2,0:0|0:0,0:0:0:0:
192,152,65945,6,0,L|320:136,1,110,6|8,0:0|0:0,0:0:0:0:
432,128,66659,2,0,L|312:104,1,110,2|8,0:0|0:0,0:0:0:0:
192,136,67374,6,0,L|80:160,2,110,2|8|2,0:0|0:0|0:0,0:0:0:0:
72,160,68445,2,0,L|136:176,1,55,8|0,0:0|0:0,0:0:0:0:
208,176,68802,5,4,0:0:0:0:
320,144,69159,2,0,L|192:160,1,110
136,192,69695,2,0,L|216:192,1,55,8|8,0:0|0:0,0:0:0:0:
312,208,70231,6,0,L|400:200,2,82.5,6|8|2,0:0|0:0|0:0,0:0:0:0:
248,208,70945,2,0,L|176:208,2,55,2|8|8,0:0|0:0|0:0,0:0:0:0:
416,208,71659,6,0,L|296:200,1,110,6|8,0:0|0:0,0:0:0:0:
184,192,72374,2,0,L|312:176,1,110,2|8,0:0|0:0,0:0:0:0:
168,184,73088,6,0,L|296:168,1,110,2|8,0:0|0:0,0:0:0:0:
400,160,73802,1,2,0:0:0:0:
280,152,74159,2,0,L|224:152,1,55,8|0,0:0|0:0,0:0:0:0:
144,152,74517,5,4,0:0:0:0:
32,192,74874,2,0,L|144:144,1,110
192,144,75409,2,0,L|247:144,1,55,8|8,0:0|0:0,0:0:0:0:
424,104,75945,6,0,L|506:104,2,82.5,6|8|2,0:0|0:0|0:0,0:0:0:0:
368,152,76659,2,0,L|440:152,1,55,2|8,0:0|0:0,0:0:0:0:
496,152,77017,1,8,0:0:0:0:
336,176,77374,6,0,L|216:176,1,110,6|8,0:0|0:0,0:0:0:0:
104,184,78088,1,2,0:0:0:0:
248,184,78445,1,8,0:0:0:0:
416,192,78802,6,0,L|306:185,1,110,6|8,0:0|0:0,0:0:0:0:
424,176,79517,1,2,0:0:0:0:
280,160,79874,1,8,0:0:0:0:
112,136,80231,6,0,L|232:120,1,110,6|8,0:0|0:0,0:0:0:0:
392,128,80945,2,0,P|336:104|264:96,1,110,6|8,0:0|0:0,0:0:0:0:
120,104,81659,6,0,L|56:112,2,55,6|8|2,0:0|0:0|0:0,0:0:0:0:
264,136,82374,2,0,L|328:144,2,55,2|8|2,0:0|0:0|0:0,0:0:0:0:
144,120,83088,6,0,L|24:136,2,110,2|0|0,0:0|0:0|0:0,0:0:0:0:
272,104,84159,1,2,0:0:0:0:
392,120,84516,1,0,0:0:0:0:
272,104,84873,1,0,0:0:0:0:
424,136,85230,5,2,0:0:0:0:
192,208,85945,2,0,L|312:200,1,110,2|2,0:0|0:0,0:0:0:0:
