osu file format v14

[General]
AudioFilename: audio.mp3
AudioLeadIn: 0
PreviewTime: 66159
Countdown: 0
SampleSet: Soft
StackLeniency: 0.7
Mode: 3
LetterboxInBreaks: 0
SpecialStyle: 0
WidescreenStoryboard: 0

[Editor]
DistanceSpacing: 1.7
BeatDivisor: 4
GridSize: 8
TimelineZoom: 2.100001

[Metadata]
Title:Gabriel Drop Kick
TitleUnicode:Gabriel Drop Kick
Artist:Tomita Miyu, Onishi Saori, Ohzora Naomi, Hanazawa Kana
ArtistUnicode:Tomita Miyu, Onishi Saori, Ohzora Naomi, Hanazawa Kana
Creator:Murumoo
Version:MX
Source:ガヴリールドロップアウト
Tags:
BeatmapID:1185571
BeatmapSetID:560652

[Difficulty]
HPDrainRate:8
CircleSize:4
OverallDifficulty:8
ApproachRate:5
SliderMultiplier:1.6
SliderTickRate:1

[Events]
//Background and Video events
0,0,"op.jpg",0,0
Video,0,"op3.mp4"
//Break Periods
//Storyboard Layer 0 (Background)
//Storyboard Layer 1 (Fail)
//Storyboard Layer 2 (Pass)
//Storyboard Layer 3 (Foreground)
//Storyboard Sound Samples

[TimingPoints]
3302,357.142857142857,4,2,1,40,1,0
3302,-100,4,2,1,5,0,0
10444,-100,4,2,1,40,0,0
21784,-100,4,2,1,5,0,0
24641,-100,4,2,1,40,0,0
27676,-100,4,2,1,5,0,0
30444,-100,4,2,1,40,0,0
83407,-100,4,2,1,5,0,0

[HitObjects]
192,192,3302,5,0,0:0:0:0:
64,192,3302,128,0,4016:0:0:0:0:
320,192,4016,1,0,0:0:0:0:
192,192,4016,128,0,4730:0:0:0:0:
448,192,4730,1,0,0:0:0:0:
320,192,4730,128,0,5444:0:0:0:0:
64,192,5444,1,0,0:0:0:0:
448,192,5444,128,0,6159:0:0:0:0:
192,192,6159,1,0,0:0:0:0:
64,192,6159,128,0,6873:0:0:0:0:
448,192,6873,1,0,0:0:0:0:
192,192,6873,128,0,7587:0:0:0:0:
320,192,7587,1,0,0:0:0:0:
448,192,7587,128,0,8302:0:0:0:0:
192,192,8302,1,0,0:0:0:0:
320,192,8302,128,0,9016:0:0:0:0:
64,192,9016,1,0,0:0:0:0:
192,192,9016,128,0,9730:0:0:0:0:
448,192,9730,128,0,10444:0:0:0:0:
320,192,9730,128,0,10444:0:0:0:0:
192,192,10444,1,4,0:0:0:0:
64,192,10444,1,2,0:0:0:0:
320,192,10534,1,0,0:0:0:0:
64,192,10623,1,0,0:0:0:0:
192,192,10712,1,0,0:0:0:0:
448,192,10801,1,0,0:0:0:0:
320,192,10801,1,8,0:0:0:0:
192,192,10891,1,0,0:0:0:0:
64,192,10980,1,0,0:0:0:0:
320,192,11069,1,0,0:0:0:0:
192,192,11159,1,2,0:0:0:0:
448,192,11159,1,0,0:0:0:0:
320,192,11248,1,0,0:0:0:0:
448,192,11337,1,0,0:0:0:0:
192,192,11426,1,0,0:0:0:0:
64,192,11516,1,8,0:0:0:0:
448,192,11516,1,0,0:0:0:0:
320,192,11605,1,0,0:0:0:0:
192,192,11694,1,0,0:0:0:0:
64,192,11784,1,0,0:0:0:0:
192,192,11873,1,2,0:0:0:0:
320,192,11873,1,0,0:0:0:0:
448,192,11962,1,0,0:0:0:0:
64,192,12051,1,0,0:0:0:0:
192,192,12141,1,0,0:0:0:0:
320,192,12230,1,8,0:0:0:0:
64,192,12230,1,0,0:0:0:0:
192,192,12319,1,0,0:0:0:0:
320,192,12409,1,0,0:0:0:0:
448,192,12498,1,0,0:0:0:0:
64,192,12587,1,0,0:0:0:0:
192,192,12587,1,2,0:0:0:0:
320,192,12676,1,0,0:0:0:0:
64,192,12766,1,0,0:0:0:0:
192,192,12855,1,0,0:0:0:0:
448,192,12944,1,0,0:0:0:0:
320,192,12944,1,8,0:0:0:0:
64,192,13034,1,0,0:0:0:0:
192,192,13123,1,0,0:0:0:0:
320,192,13212,1,0,0:0:0:0:
448,192,13301,1,0,0:0:0:0:
192,192,13301,1,2,0:0:0:0:
320,192,13391,1,0,0:0:0:0:
448,192,13480,1,0,0:0:0:0:
192,192,13569,1,0,0:0:0:0:
64,192,13659,1,8,0:0:0:0:
448,192,13659,1,0,0:0:0:0:
320,192,13748,1,0,0:0:0:0:
192,192,13837,1,0,0:0:0:0:
64,192,13926,1,0,0:0:0:0:
320,192,14016,1,0,0:0:0:0:
192,192,14016,1,2,0:0:0:0:
448,192,14105,1,0,0:0:0:0:
64,192,14194,1,0,0:0:0:0:
192,192,14284,1,0,0:0:0:0:
320,192,14373,1,8,0:0:0:0:
64,192,14373,1,0,0:0:0:0:
192,192,14462,1,0,0:0:0:0:
320,192,14551,1,0,0:0:0:0:
448,192,14641,1,0,0:0:0:0:
64,192,14730,1,0,0:0:0:0:
192,192,14730,1,2,0:0:0:0:
320,192,14819,1,0,0:0:0:0:
64,192,14909,1,0,0:0:0:0:
192,192,14998,1,0,0:0:0:0:
448,192,15087,1,8,0:0:0:0:
64,192,15087,1,0,0:0:0:0:
320,192,15176,1,0,0:0:0:0:
192,192,15266,1,0,0:0:0:0:
64,192,15355,1,0,0:0:0:0:
448,192,15444,1,0,0:0:0:0:
320,192,15444,1,2,0:0:0:0:
192,192,15534,1,0,0:0:0:0:
64,192,15623,1,0,0:0:0:0:
320,192,15623,1,8,0:0:0:0:
192,192,15712,1,0,0:0:0:0:
448,192,15801,1,8,0:0:0:0:
64,192,15801,1,0,0:0:0:0:
320,192,15891,1,0,0:0:0:0:
448,192,15980,1,8,0:0:0:0:
192,192,15980,1,0,0:0:0:0:
320,192,16069,1,0,0:0:0:0:
192,192,16159,1,2,0:0:0:0:
64,192,16159,1,4,0:0:0:0:
320,192,16248,1,0,0:0:0:0:
448,192,16337,1,0,0:0:0:0:
192,192,16426,1,0,0:0:0:0:
448,192,16516,1,8,0:0:0:0:
64,192,16516,1,0,0:0:0:0:
320,192,16605,1,0,0:0:0:0:
192,192,16694,1,0,0:0:0:0:
64,192,16784,1,0,0:0:0:0:
192,192,16873,1,2,0:0:0:0:
320,192,16873,1,0,0:0:0:0:
448,192,16962,1,0,0:0:0:0:
64,192,17051,1,0,0:0:0:0:
192,192,17141,1,0,0:0:0:0:
320,192,17230,1,8,0:0:0:0:
64,192,17230,1,0,0:0:0:0:
448,192,17319,1,0,0:0:0:0:
320,192,17409,1,0,0:0:0:0:
192,192,17498,1,0,0:0:0:0:
320,192,17587,1,2,0:0:0:0:
448,192,17587,1,0,0:0:0:0:
64,192,17676,1,0,0:0:0:0:
192,192,17766,1,0,0:0:0:0:
320,192,17855,1,0,0:0:0:0:
64,192,17944,1,0,0:0:0:0:
192,192,17944,1,8,0:0:0:0:
448,192,18034,1,0,0:0:0:0:
64,192,18123,1,0,0:0:0:0:
320,192,18212,1,0,0:0:0:0:
448,192,18301,1,0,0:0:0:0:
192,192,18301,1,2,0:0:0:0:
64,192,18391,1,0,0:0:0:0:
192,192,18480,1,0,0:0:0:0:
320,192,18569,1,0,0:0:0:0:
64,192,18659,1,0,0:0:0:0:
448,192,18659,1,8,0:0:0:0:
192,192,18748,1,0,0:0:0:0:
64,192,18837,1,0,0:0:0:0:
448,192,18926,1,0,0:0:0:0:
320,192,19016,1,2,0:0:0:0:
192,192,19016,1,0,0:0:0:0:
64,192,19105,1,0,0:0:0:0:
192,192,19194,1,0,0:0:0:0:
320,192,19284,1,0,0:0:0:0:
448,192,19373,1,0,0:0:0:0:
64,192,19373,1,0,0:0:0:0:
192,192,19373,1,8,0:0:0:0:
320,192,19462,1,0,0:0:0:0:
64,192,19551,1,0,0:0:0:0:
192,192,19641,1,0,0:0:0:0:
64,192,19730,1,0,0:0:0:0:
448,192,19730,1,0,0:0:0:0:
320,192,19730,1,2,0:0:0:0:
192,192,19819,1,0,0:0:0:0:
448,192,19909,1,0,0:0:0:0:
64,192,19909,1,0,0:0:0:0:
320,192,19998,1,0,0:0:0:0:
448,192,20087,1,0,0:0:0:0:
64,192,20087,1,0,0:0:0:0:
192,192,20087,1,8,0:0:0:0:
320,192,20176,1,0,0:0:0:0:
64,192,20266,1,0,0:0:0:0:
448,192,20266,1,0,0:0:0:0:
192,192,20355,1,0,0:0:0:0:
320,192,20444,128,0,20712:0:0:0:0:
448,192,20444,128,0,20712:0:0:0:0:
64,192,20444,1,2,0:0:0:0:
64,192,20801,128,0,21069:0:0:0:0:
192,192,20801,128,0,21069:0:0:0:0:
448,192,20801,1,0,0:0:0:0:
320,192,20801,1,8,0:0:0:0:
448,192,21159,128,0,21516:0:0:0:0:
320,192,21159,128,0,21516:0:0:0:0:
192,192,21159,128,8,21516:0:0:0:0:
64,192,21159,128,0,21516:0:0:0:0:
64,192,21873,128,0,22051:0:0:0:0:
192,192,22230,128,0,22409:0:0:0:0:
320,192,22587,128,0,22766:0:0:0:0:
448,192,22944,128,0,23123:0:0:0:0:
64,192,23301,128,0,23480:0:0:0:0:
320,192,23659,128,0,23837:0:0:0:0:
192,192,24016,128,0,24194:0:0:0:0:
448,192,24373,128,0,24551:0:0:0:0:
64,192,24730,128,2,27587:0:0:0:0:
192,192,24730,1,4,0:0:0:0:
320,192,24730,1,0,0:0:0:0:
192,192,25266,1,2,0:0:0:0:
320,192,25266,1,0,0:0:0:0:
448,192,25444,1,0,0:0:0:0:
192,192,25444,1,8,0:0:0:0:
320,192,25623,1,0,0:0:0:0:
192,192,25801,1,2,0:0:0:0:
320,192,25801,1,0,0:0:0:0:
320,192,25980,1,8,0:0:0:0:
448,192,25980,1,0,0:0:0:0:
448,192,26337,1,0,0:0:0:0:
192,192,26516,1,2,0:0:0:0:
320,192,26516,1,0,0:0:0:0:
320,192,26694,1,0,0:0:0:0:
192,192,26873,1,8,0:0:0:0:
448,192,26873,1,0,0:0:0:0:
320,192,27051,1,0,0:0:0:0:
192,192,27230,1,8,0:0:0:0:
448,192,27230,1,0,0:0:0:0:
448,192,27409,1,0,0:0:0:0:
192,192,27409,1,8,0:0:0:0:
320,192,27498,1,8,0:0:0:0:
192,192,27587,128,0,27766:0:0:0:0:
448,192,27587,1,8,0:0:0:0:
448,192,27944,128,0,28123:0:0:0:0:
320,192,27944,1,0,0:0:0:0:
320,192,28301,128,0,28480:0:0:0:0:
192,192,28301,1,0,0:0:0:0:
192,192,28659,128,0,28837:0:0:0:0:
64,192,28659,1,0,0:0:0:0:
192,192,29016,1,0,0:0:0:0:
64,192,29016,128,0,29194:0:0:0:0:
320,192,29373,1,0,0:0:0:0:
448,192,29373,128,0,29551:0:0:0:0:
64,192,29730,1,0,0:0:0:0:
192,192,29730,128,0,29909:0:0:0:0:
448,192,30087,1,0,0:0:0:0:
320,192,30087,128,0,30266:0:0:0:0:
192,192,30444,1,2,0:0:0:0:
448,192,30444,128,0,33301:0:0:0:0:
64,192,30444,1,4,0:0:0:0:
192,192,30980,1,2,0:0:0:0:
64,192,30980,1,0,0:0:0:0:
320,192,31159,1,8,0:0:0:0:
64,192,31159,1,0,0:0:0:0:
320,192,31337,1,0,0:0:0:0:
64,192,31516,1,2,0:0:0:0:
192,192,31516,1,0,0:0:0:0:
192,192,31694,1,8,0:0:0:0:
320,192,31694,1,0,0:0:0:0:
320,192,32051,1,8,0:0:0:0:
192,192,32051,1,2,0:0:0:0:
64,192,32230,1,0,0:0:0:0:
192,192,32230,1,2,0:0:0:0:
320,192,32409,1,0,0:0:0:0:
64,192,32587,1,0,0:0:0:0:
192,192,32587,1,2,0:0:0:0:
320,192,32676,1,8,0:0:0:0:
192,192,32766,1,2,0:0:0:0:
64,192,32766,1,0,0:0:0:0:
320,192,32855,1,8,0:0:0:0:
64,192,32944,1,0,0:0:0:0:
192,192,32944,1,2,0:0:0:0:
320,192,33034,1,8,0:0:0:0:
192,192,33123,1,2,0:0:0:0:
64,192,33123,1,0,0:0:0:0:
320,192,33212,1,8,0:0:0:0:
192,192,33301,1,2,0:0:0:0:
64,192,33301,1,4,0:0:0:0:
192,192,33480,1,0,0:0:0:0:
320,192,33659,1,2,0:0:0:0:
448,192,33659,1,0,0:0:0:0:
64,192,33659,1,0,0:0:0:0:
192,192,33837,1,0,0:0:0:0:
448,192,34016,1,8,0:0:0:0:
64,192,34016,1,0,0:0:0:0:
320,192,34194,1,0,0:0:0:0:
64,192,34373,1,0,0:0:0:0:
192,192,34373,1,2,0:0:0:0:
448,192,34373,1,0,0:0:0:0:
320,192,34551,1,0,0:0:0:0:
448,192,34730,1,0,0:0:0:0:
192,192,34730,1,8,0:0:0:0:
64,192,34909,1,0,0:0:0:0:
64,192,35087,1,0,0:0:0:0:
192,192,35087,1,2,0:0:0:0:
448,192,35087,1,0,0:0:0:0:
320,192,35266,1,0,0:0:0:0:
192,192,35444,1,8,0:0:0:0:
448,192,35444,1,0,0:0:0:0:
192,192,35623,1,0,0:0:0:0:
320,192,35801,1,2,0:0:0:0:
448,192,35801,1,0,0:0:0:0:
64,192,35801,1,0,0:0:0:0:
192,192,35980,1,0,0:0:0:0:
192,192,36159,1,4,0:0:0:0:
64,192,36159,128,0,39016:0:0:0:0:
320,192,36159,1,2,0:0:0:0:
448,192,36337,1,0,0:0:0:0:
320,192,36516,1,8,0:0:0:0:
192,192,36516,1,0,0:0:0:0:
320,192,36694,1,0,0:0:0:0:
448,192,36873,1,2,0:0:0:0:
192,192,36873,1,0,0:0:0:0:
448,192,37051,1,0,0:0:0:0:
320,192,37230,1,8,0:0:0:0:
192,192,37230,1,0,0:0:0:0:
192,192,37409,1,0,0:0:0:0:
448,192,37587,1,2,0:0:0:0:
320,192,37587,1,0,0:0:0:0:
448,192,37766,1,0,0:0:0:0:
320,192,37944,1,0,0:0:0:0:
192,192,37944,1,8,0:0:0:0:
448,192,38123,1,0,0:0:0:0:
320,192,38301,1,2,0:0:0:0:
192,192,38301,1,0,0:0:0:0:
448,192,38480,1,0,0:0:0:0:
320,192,38480,1,8,0:0:0:0:
192,192,38480,1,0,0:0:0:0:
320,192,38659,1,2,0:0:0:0:
448,192,38659,1,0,0:0:0:0:
448,192,38837,1,0,0:0:0:0:
320,192,38837,1,8,0:0:0:0:
192,192,38837,1,0,0:0:0:0:
448,192,39016,1,4,0:0:0:0:
320,192,39016,1,2,0:0:0:0:
192,192,39194,1,0,0:0:0:0:
64,192,39194,1,0,0:0:0:0:
320,192,39373,1,8,0:0:0:0:
448,192,39373,1,0,0:0:0:0:
64,192,39373,1,0,0:0:0:0:
320,192,39551,1,0,0:0:0:0:
192,192,39551,1,0,0:0:0:0:
64,192,39730,1,0,0:0:0:0:
192,192,39730,1,2,0:0:0:0:
64,192,39909,1,0,0:0:0:0:
448,192,39909,1,0,0:0:0:0:
320,192,40087,1,8,0:0:0:0:
448,192,40087,1,0,0:0:0:0:
192,192,40087,1,0,0:0:0:0:
64,192,40266,1,0,0:0:0:0:
320,192,40266,1,0,0:0:0:0:
64,192,40444,1,0,0:0:0:0:
192,192,40444,1,2,0:0:0:0:
320,192,40623,1,0,0:0:0:0:
448,192,40623,1,0,0:0:0:0:
192,192,40801,1,8,0:0:0:0:
64,192,40801,1,0,0:0:0:0:
448,192,40801,1,0,0:0:0:0:
448,192,40980,1,0,0:0:0:0:
192,192,40980,1,0,0:0:0:0:
320,192,41159,1,0,0:0:0:0:
192,192,41159,1,2,0:0:0:0:
64,192,41337,1,0,0:0:0:0:
448,192,41337,1,0,0:0:0:0:
320,192,41516,1,8,0:0:0:0:
448,192,41516,1,0,0:0:0:0:
64,192,41516,1,0,0:0:0:0:
192,192,41694,1,0,0:0:0:0:
448,192,41694,1,0,0:0:0:0:
64,192,44373,1,2,0:0:0:0:
192,192,44373,1,0,0:0:0:0:
320,192,44462,1,2,0:0:0:0:
448,192,44462,1,0,0:0:0:0:
64,192,44551,1,2,0:0:0:0:
192,192,44551,1,0,0:0:0:0:
320,192,44641,1,2,0:0:0:0:
448,192,44641,1,0,0:0:0:0:
192,192,44730,1,0,0:0:0:0:
64,192,44730,1,2,0:0:0:0:
448,192,44730,1,4,0:0:0:0:
320,192,44819,1,0,0:0:0:0:
448,192,44909,1,0,0:0:0:0:
192,192,44909,1,0,0:0:0:0:
320,192,44998,1,0,0:0:0:0:
64,192,45087,1,8,0:0:0:0:
192,192,45087,1,0,0:0:0:0:
320,192,45266,1,0,0:0:0:0:
448,192,45266,1,0,0:0:0:0:
192,192,45355,1,0,0:0:0:0:
64,192,45444,1,2,0:0:0:0:
320,192,45444,1,0,0:0:0:0:
448,192,45444,128,0,45623:0:0:0:0:
192,192,45534,1,0,0:0:0:0:
64,192,45623,1,0,0:0:0:0:
320,192,45623,128,0,45801:0:0:0:0:
192,192,45801,1,8,0:0:0:0:
448,192,45801,1,0,0:0:0:0:
320,192,45980,1,0,0:0:0:0:
448,192,45980,1,0,0:0:0:0:
192,192,45980,1,0,0:0:0:0:
64,192,46069,1,0,0:0:0:0:
320,192,46159,1,2,0:0:0:0:
448,192,46159,1,0,0:0:0:0:
320,192,46337,1,0,0:0:0:0:
64,192,46337,1,0,0:0:0:0:
448,192,46426,1,0,0:0:0:0:
192,192,46516,1,0,0:0:0:0:
320,192,46516,1,8,0:0:0:0:
64,192,46516,128,0,46694:0:0:0:0:
448,192,46605,1,0,0:0:0:0:
320,192,46694,1,0,0:0:0:0:
192,192,46694,128,0,46873:0:0:0:0:
64,192,46873,1,0,0:0:0:0:
448,192,46873,1,2,0:0:0:0:
448,192,47051,1,0,0:0:0:0:
64,192,47051,1,0,0:0:0:0:
192,192,47051,1,0,0:0:0:0:
320,192,47141,1,0,0:0:0:0:
64,192,47230,1,0,0:0:0:0:
192,192,47230,1,8,0:0:0:0:
320,192,47409,1,0,0:0:0:0:
192,192,47409,1,0,0:0:0:0:
448,192,47498,1,0,0:0:0:0:
64,192,47587,1,4,0:0:0:0:
192,192,47587,1,2,0:0:0:0:
320,192,47587,128,0,47766:0:0:0:0:
448,192,47676,1,0,0:0:0:0:
64,192,47766,1,0,0:0:0:0:
192,192,47766,128,0,47944:0:0:0:0:
320,192,47944,1,8,0:0:0:0:
448,192,47944,1,0,0:0:0:0:
320,192,48123,1,0,0:0:0:0:
448,192,48123,1,0,0:0:0:0:
64,192,48123,1,0,0:0:0:0:
192,192,48212,1,0,0:0:0:0:
64,192,48301,1,0,0:0:0:0:
320,192,48301,1,2,0:0:0:0:
448,192,48391,1,0,0:0:0:0:
192,192,48480,1,0,0:0:0:0:
64,192,48480,1,0,0:0:0:0:
320,192,48569,1,0,0:0:0:0:
192,192,48659,1,8,0:0:0:0:
448,192,48659,1,0,0:0:0:0:
64,192,48659,128,0,48837:0:0:0:0:
320,192,48748,1,0,0:0:0:0:
448,192,48837,1,0,0:0:0:0:
192,192,48837,128,0,49016:0:0:0:0:
64,192,49016,128,0,49284:0:0:0:0:
320,192,49016,128,2,49284:0:0:0:0:
448,192,49016,128,4,49284:0:0:0:0:
448,192,49373,128,0,49641:0:0:0:0:
192,192,49373,128,8,49641:0:0:0:0:
64,192,49373,128,0,49641:0:0:0:0:
64,192,49730,1,0,0:0:0:0:
320,192,49730,1,2,0:0:0:0:
448,192,49730,1,0,0:0:0:0:
448,192,49909,1,0,0:0:0:0:
64,192,49909,1,0,0:0:0:0:
320,192,49909,1,2,0:0:0:0:
64,192,50087,1,0,0:0:0:0:
320,192,50087,1,2,0:0:0:0:
448,192,50087,1,0,0:0:0:0:
320,192,50266,1,2,0:0:0:0:
448,192,50266,1,0,0:0:0:0:
64,192,50266,1,0,0:0:0:0:
64,192,50444,1,2,0:0:0:0:
192,192,50444,1,4,0:0:0:0:
448,192,50444,1,0,0:0:0:0:
320,192,50534,1,0,0:0:0:0:
448,192,50623,1,0,0:0:0:0:
192,192,50623,1,0,0:0:0:0:
320,192,50712,1,0,0:0:0:0:
64,192,50801,1,0,0:0:0:0:
192,192,50801,1,8,0:0:0:0:
448,192,50801,1,0,0:0:0:0:
192,192,50980,1,0,0:0:0:0:
320,192,50980,1,0,0:0:0:0:
448,192,51069,1,0,0:0:0:0:
192,192,51159,1,0,0:0:0:0:
320,192,51159,1,2,0:0:0:0:
64,192,51159,128,0,51337:0:0:0:0:
448,192,51248,1,0,0:0:0:0:
320,192,51337,1,0,0:0:0:0:
192,192,51337,128,0,51516:0:0:0:0:
320,192,51516,1,8,0:0:0:0:
64,192,51516,1,0,0:0:0:0:
320,192,51694,1,0,0:0:0:0:
192,192,51694,1,0,0:0:0:0:
64,192,51694,1,0,0:0:0:0:
448,192,51784,1,0,0:0:0:0:
64,192,51873,1,0,0:0:0:0:
192,192,51873,1,2,0:0:0:0:
320,192,52051,1,0,0:0:0:0:
448,192,52051,1,0,0:0:0:0:
192,192,52141,1,0,0:0:0:0:
64,192,52230,1,0,0:0:0:0:
320,192,52230,1,8,0:0:0:0:
448,192,52230,128,0,52409:0:0:0:0:
192,192,52319,1,0,0:0:0:0:
64,192,52409,1,0,0:0:0:0:
320,192,52409,128,0,52587:0:0:0:0:
64,192,52587,1,0,0:0:0:0:
448,192,52587,1,2,0:0:0:0:
192,192,52766,1,0,0:0:0:0:
64,192,52766,128,0,52944:0:0:0:0:
320,192,52855,1,0,0:0:0:0:
448,192,52944,1,8,0:0:0:0:
192,192,52944,128,0,53123:0:0:0:0:
64,192,53123,1,0,0:0:0:0:
320,192,53123,128,0,53301:0:0:0:0:
64,192,53301,1,0,0:0:0:0:
192,192,53301,1,2,0:0:0:0:
448,192,53301,1,0,0:0:0:0:
64,192,53480,1,0,0:0:0:0:
448,192,53480,1,0,0:0:0:0:
320,192,53480,1,8,0:0:0:0:
64,192,53659,1,0,0:0:0:0:
448,192,53659,1,0,0:0:0:0:
192,192,53659,1,2,0:0:0:0:
320,192,53837,1,8,0:0:0:0:
448,192,53837,1,0,0:0:0:0:
64,192,53837,1,0,0:0:0:0:
64,192,54016,1,0,0:0:0:0:
192,192,54016,1,2,0:0:0:0:
448,192,54016,1,0,0:0:0:0:
320,192,54194,1,8,0:0:0:0:
448,192,54194,1,0,0:0:0:0:
64,192,54194,1,0,0:0:0:0:
64,192,54373,1,0,0:0:0:0:
192,192,54373,1,2,0:0:0:0:
448,192,54373,1,0,0:0:0:0:
320,192,54551,1,8,0:0:0:0:
448,192,54551,1,0,0:0:0:0:
64,192,54551,1,0,0:0:0:0:
64,192,54730,1,0,0:0:0:0:
192,192,54730,1,2,0:0:0:0:
448,192,54730,1,0,0:0:0:0:
320,192,54819,1,0,0:0:0:0:
64,192,54909,1,0,0:0:0:0:
448,192,54909,1,8,0:0:0:0:
192,192,54998,1,0,0:0:0:0:
64,192,55087,1,2,0:0:0:0:
448,192,55087,1,0,0:0:0:0:
320,192,55087,1,0,0:0:0:0:
192,192,55176,1,0,0:0:0:0:
448,192,55266,1,8,0:0:0:0:
64,192,55266,1,0,0:0:0:0:
320,192,55355,1,0,0:0:0:0:
64,192,55444,1,2,0:0:0:0:
192,192,55444,1,0,0:0:0:0:
448,192,55444,1,0,0:0:0:0:
320,192,55534,1,0,0:0:0:0:
448,192,55623,1,8,0:0:0:0:
64,192,55623,1,0,0:0:0:0:
192,192,55712,1,0,0:0:0:0:
64,192,55801,1,2,0:0:0:0:
320,192,55801,1,0,0:0:0:0:
448,192,55801,1,0,0:0:0:0:
192,192,55891,1,0,0:0:0:0:
448,192,55980,1,8,0:0:0:0:
64,192,55980,1,0,0:0:0:0:
320,192,56069,1,0,0:0:0:0:
64,192,56159,1,2,0:0:0:0:
192,192,56159,1,4,0:0:0:0:
448,192,56159,1,0,0:0:0:0:
320,192,56337,1,0,0:0:0:0:
448,192,56516,1,0,0:0:0:0:
192,192,56516,1,2,0:0:0:0:
448,192,56694,1,0,0:0:0:0:
320,192,56784,1,0,0:0:0:0:
192,192,56873,1,2,0:0:0:0:
64,192,56873,1,0,0:0:0:0:
192,192,57051,1,0,0:0:0:0:
448,192,57230,1,2,0:0:0:0:
64,192,57230,1,0,0:0:0:0:
320,192,57409,1,0,0:0:0:0:
192,192,57587,1,2,0:0:0:0:
64,192,57587,1,4,0:0:0:0:
448,192,57766,1,0,0:0:0:0:
320,192,57944,1,0,0:0:0:0:
192,192,57944,1,2,0:0:0:0:
64,192,58123,1,0,0:0:0:0:
320,192,58212,1,0,0:0:0:0:
448,192,58301,1,0,0:0:0:0:
192,192,58301,1,2,0:0:0:0:
192,192,58480,1,0,0:0:0:0:
320,192,58659,1,2,0:0:0:0:
64,192,58659,1,0,0:0:0:0:
448,192,58837,1,0,0:0:0:0:
320,192,59016,1,2,0:0:0:0:
448,192,59016,1,4,0:0:0:0:
64,192,59016,1,0,0:0:0:0:
192,192,59105,1,0,0:0:0:0:
64,192,59194,1,0,0:0:0:0:
320,192,59194,1,2,0:0:0:0:
448,192,59284,1,0,0:0:0:0:
64,192,59373,1,0,0:0:0:0:
192,192,59373,1,2,0:0:0:0:
320,192,59462,1,0,0:0:0:0:
448,192,59551,1,0,0:0:0:0:
64,192,59551,1,0,0:0:0:0:
192,192,59551,1,2,0:0:0:0:
320,192,59641,1,0,0:0:0:0:
448,192,59730,1,0,0:0:0:0:
192,192,59730,1,2,0:0:0:0:
320,192,59819,1,0,0:0:0:0:
64,192,59909,1,2,0:0:0:0:
448,192,59909,1,0,0:0:0:0:
192,192,59998,1,0,0:0:0:0:
64,192,60087,1,0,0:0:0:0:
320,192,60087,1,2,0:0:0:0:
448,192,60087,1,0,0:0:0:0:
192,192,60176,1,0,0:0:0:0:
320,192,60266,1,2,0:0:0:0:
448,192,60266,1,0,0:0:0:0:
64,192,60355,1,0,0:0:0:0:
448,192,60444,1,0,0:0:0:0:
192,192,60444,1,2,0:0:0:0:
320,192,60534,1,0,0:0:0:0:
64,192,60623,1,0,0:0:0:0:
192,192,60623,1,2,0:0:0:0:
448,192,60623,1,0,0:0:0:0:
320,192,60712,1,0,0:0:0:0:
192,192,60801,1,2,0:0:0:0:
64,192,60801,1,0,0:0:0:0:
448,192,60891,1,0,0:0:0:0:
320,192,60980,1,2,0:0:0:0:
64,192,60980,1,0,0:0:0:0:
192,192,61069,1,0,0:0:0:0:
448,192,61159,1,0,0:0:0:0:
320,192,61159,1,2,0:0:0:0:
64,192,61159,1,0,0:0:0:0:
192,192,61248,1,0,0:0:0:0:
320,192,61337,1,2,0:0:0:0:
64,192,61337,1,0,0:0:0:0:
448,192,61426,1,0,0:0:0:0:
64,192,61516,1,0,0:0:0:0:
192,192,61516,1,2,0:0:0:0:
320,192,61605,1,0,0:0:0:0:
64,192,61694,1,0,0:0:0:0:
192,192,61694,1,2,0:0:0:0:
448,192,61694,1,0,0:0:0:0:
320,192,61784,1,0,0:0:0:0:
64,192,61873,1,0,0:0:0:0:
192,192,61873,1,2,0:0:0:0:
448,192,61962,1,0,0:0:0:0:
64,192,62051,1,0,0:0:0:0:
320,192,62051,1,2,0:0:0:0:
192,192,62141,1,0,0:0:0:0:
64,192,62230,1,0,0:0:0:0:
320,192,62230,1,2,0:0:0:0:
448,192,62230,1,0,0:0:0:0:
192,192,62319,1,0,0:0:0:0:
320,192,62409,1,2,0:0:0:0:
64,192,62409,1,0,0:0:0:0:
448,192,62498,1,0,0:0:0:0:
192,192,62587,1,2,0:0:0:0:
64,192,62587,1,0,0:0:0:0:
320,192,62676,1,0,0:0:0:0:
64,192,62766,1,0,0:0:0:0:
192,192,62766,1,2,0:0:0:0:
448,192,62766,1,0,0:0:0:0:
320,192,62855,1,0,0:0:0:0:
192,192,62944,1,2,0:0:0:0:
64,192,62944,1,0,0:0:0:0:
448,192,63034,1,0,0:0:0:0:
320,192,63123,1,2,0:0:0:0:
64,192,63123,1,0,0:0:0:0:
192,192,63212,1,0,0:0:0:0:
320,192,63301,1,2,0:0:0:0:
448,192,63301,1,0,0:0:0:0:
64,192,63301,1,0,0:0:0:0:
192,192,63391,1,0,0:0:0:0:
320,192,63480,1,2,0:0:0:0:
64,192,63480,1,0,0:0:0:0:
448,192,63569,1,0,0:0:0:0:
320,192,63659,1,0,0:0:0:0:
64,192,63659,1,2,0:0:0:0:
192,192,63659,1,0,0:0:0:0:
448,192,63748,1,0,0:0:0:0:
64,192,63837,1,2,0:0:0:0:
192,192,63837,1,0,0:0:0:0:
448,192,63926,1,0,0:0:0:0:
192,192,64016,1,2,0:0:0:0:
320,192,64016,1,0,0:0:0:0:
64,192,64105,1,0,0:0:0:0:
448,192,64194,1,0,0:0:0:0:
320,192,64194,1,2,0:0:0:0:
192,192,64284,1,0,0:0:0:0:
448,192,64373,1,2,0:0:0:0:
64,192,64373,1,0,0:0:0:0:
320,192,64462,1,0,0:0:0:0:
192,192,64551,1,0,0:0:0:0:
448,192,64551,1,2,0:0:0:0:
64,192,64730,1,0,0:0:0:0:
192,192,64909,1,0,0:0:0:0:
320,192,64998,1,0,0:0:0:0:
448,192,65087,1,0,0:0:0:0:
64,192,65266,1,0,0:0:0:0:
448,192,65444,1,0,0:0:0:0:
320,192,65623,1,0,0:0:0:0:
192,192,65801,1,8,0:0:0:0:
64,192,65801,1,0,0:0:0:0:
448,192,65980,1,2,0:0:0:0:
320,192,65980,1,0,0:0:0:0:
192,192,66069,1,2,0:0:0:0:
64,192,66069,1,0,0:0:0:0:
64,192,66159,1,4,0:0:0:0:
448,192,66159,1,2,0:0:0:0:
320,192,66159,1,0,0:0:0:0:
192,192,66248,1,0,0:0:0:0:
320,192,66337,1,0,0:0:0:0:
64,192,66426,1,0,0:0:0:0:
192,192,66516,1,8,0:0:0:0:
448,192,66516,128,0,66873:0:0:0:0:
320,192,66605,1,0,0:0:0:0:
64,192,66694,1,0,0:0:0:0:
192,192,66784,1,0,0:0:0:0:
64,192,66873,1,0,0:0:0:0:
320,192,66873,1,2,0:0:0:0:
192,192,66962,1,0,0:0:0:0:
320,192,67051,1,0,0:0:0:0:
448,192,67141,1,0,0:0:0:0:
320,192,67230,1,8,0:0:0:0:
64,192,67230,128,0,67587:0:0:0:0:
192,192,67319,1,0,0:0:0:0:
320,192,67409,1,0,0:0:0:0:
448,192,67498,1,0,0:0:0:0:
192,192,67587,1,0,0:0:0:0:
320,192,67587,1,2,0:0:0:0:
448,192,67676,1,0,0:0:0:0:
320,192,67766,1,0,0:0:0:0:
192,192,67855,1,0,0:0:0:0:
64,192,67944,1,8,0:0:0:0:
448,192,67944,128,0,68301:0:0:0:0:
192,192,68034,1,0,0:0:0:0:
64,192,68123,1,0,0:0:0:0:
320,192,68212,1,0,0:0:0:0:
64,192,68301,1,0,0:0:0:0:
192,192,68301,1,2,0:0:0:0:
320,192,68391,1,0,0:0:0:0:
64,192,68480,1,0,0:0:0:0:
448,192,68480,1,0,0:0:0:0:
192,192,68569,1,0,0:0:0:0:
320,192,68569,1,0,0:0:0:0:
64,192,68659,1,0,0:0:0:0:
448,192,68659,1,8,0:0:0:0:
192,192,68748,1,0,0:0:0:0:
320,192,68837,1,0,0:0:0:0:
64,192,68837,1,0,0:0:0:0:
448,192,68926,1,0,0:0:0:0:
320,192,69016,1,0,0:0:0:0:
192,192,69016,1,2,0:0:0:0:
64,192,69016,128,4,69373:0:0:0:0:
448,192,69373,128,0,69551:0:0:0:0:
320,192,69730,128,0,69909:0:0:0:0:
64,192,69909,1,0,0:0:0:0:
192,192,69909,1,8,0:0:0:0:
448,192,70087,1,0,0:0:0:0:
64,192,70087,1,0,0:0:0:0:
192,192,70087,1,8,0:0:0:0:
320,192,70176,1,0,0:0:0:0:
64,192,70266,1,0,0:0:0:0:
192,192,70355,1,0,0:0:0:0:
64,192,70444,1,0,0:0:0:0:
320,192,70444,1,2,0:0:0:0:
448,192,70444,1,0,0:0:0:0:
192,192,70534,1,0,0:0:0:0:
320,192,70623,1,0,0:0:0:0:
64,192,70712,1,0,0:0:0:0:
192,192,70712,1,8,0:0:0:0:
448,192,70712,1,0,0:0:0:0:
320,192,70801,1,0,0:0:0:0:
192,192,70891,1,0,0:0:0:0:
64,192,70980,1,0,0:0:0:0:
448,192,70980,1,0,0:0:0:0:
320,192,70980,1,2,0:0:0:0:
192,192,71069,1,0,0:0:0:0:
320,192,71159,1,2,0:0:0:0:
448,192,71159,1,0,0:0:0:0:
64,192,71159,1,0,0:0:0:0:
64,192,71337,128,0,71516:0:0:0:0:
192,192,71337,128,0,71516:0:0:0:0:
320,192,71337,1,8,0:0:0:0:
448,192,71337,1,0,0:0:0:0:
320,192,71516,128,8,71784:0:0:0:0:
448,192,71516,128,0,71784:0:0:0:0:
448,192,71873,1,0,0:0:0:0:
64,192,71873,1,2,0:0:0:0:
192,192,71873,1,4,0:0:0:0:
320,192,71962,1,0,0:0:0:0:
192,192,72051,1,0,0:0:0:0:
64,192,72141,1,0,0:0:0:0:
192,192,72230,1,8,0:0:0:0:
448,192,72230,128,0,72587:0:0:0:0:
320,192,72319,1,0,0:0:0:0:
64,192,72409,1,0,0:0:0:0:
192,192,72498,1,0,0:0:0:0:
64,192,72587,1,0,0:0:0:0:
320,192,72587,1,2,0:0:0:0:
192,192,72676,1,0,0:0:0:0:
320,192,72766,1,0,0:0:0:0:
448,192,72855,1,0,0:0:0:0:
192,192,72944,1,8,0:0:0:0:
64,192,72944,128,0,73301:0:0:0:0:
320,192,73034,1,0,0:0:0:0:
448,192,73123,1,0,0:0:0:0:
320,192,73212,1,0,0:0:0:0:
448,192,73301,1,0,0:0:0:0:
192,192,73301,1,2,0:0:0:0:
320,192,73391,1,0,0:0:0:0:
192,192,73480,1,0,0:0:0:0:
64,192,73569,1,0,0:0:0:0:
320,192,73659,1,8,0:0:0:0:
448,192,73659,128,0,74016:0:0:0:0:
192,192,73748,1,0,0:0:0:0:
64,192,73837,1,0,0:0:0:0:
192,192,73926,1,0,0:0:0:0:
320,192,74016,1,2,0:0:0:0:
64,192,74016,1,0,0:0:0:0:
192,192,74105,1,0,0:0:0:0:
64,192,74194,1,0,0:0:0:0:
448,192,74194,1,0,0:0:0:0:
320,192,74284,1,0,0:0:0:0:
192,192,74284,1,0,0:0:0:0:
64,192,74373,1,0,0:0:0:0:
448,192,74373,1,8,0:0:0:0:
192,192,74462,1,0,0:0:0:0:
448,192,74551,1,0,0:0:0:0:
320,192,74551,1,0,0:0:0:0:
64,192,74641,1,0,0:0:0:0:
320,192,74730,1,2,0:0:0:0:
448,192,74730,128,0,75087:0:0:0:0:
192,192,74730,1,4,0:0:0:0:
192,192,75087,128,0,75266:0:0:0:0:
64,192,75444,128,0,75801:0:0:0:0:
320,192,75623,1,8,0:0:0:0:
192,192,75623,1,0,0:0:0:0:
192,192,75801,1,8,0:0:0:0:
448,192,75801,1,0,0:0:0:0:
320,192,75891,1,0,0:0:0:0:
64,192,75980,1,0,0:0:0:0:
192,192,75980,1,0,0:0:0:0:
320,192,76069,1,0,0:0:0:0:
448,192,76069,1,0,0:0:0:0:
64,192,76159,128,0,76337:0:0:0:0:
192,192,76159,128,2,76337:0:0:0:0:
448,192,76159,128,0,76337:0:0:0:0:
448,192,76426,128,0,76605:0:0:0:0:
320,192,76426,128,2,76605:0:0:0:0:
192,192,76426,128,0,76605:0:0:0:0:
64,192,76694,1,0,0:0:0:0:
192,192,76694,1,2,0:0:0:0:
448,192,76694,1,0,0:0:0:0:
320,192,76873,1,8,0:0:0:0:
448,192,76873,1,0,0:0:0:0:
64,192,76873,1,0,0:0:0:0:
448,192,77051,128,0,77230:0:0:0:0:
64,192,77051,1,0,0:0:0:0:
192,192,77051,1,0,0:0:0:0:
192,192,77230,128,0,77587:0:0:0:0:
320,192,77230,1,0,0:0:0:0:
64,192,77230,1,0,0:0:0:0:
320,192,77587,1,2,0:0:0:0:
448,192,77587,1,4,0:0:0:0:
64,192,77587,1,0,0:0:0:0:
192,192,77676,1,0,0:0:0:0:
64,192,77766,1,0,0:0:0:0:
320,192,77766,1,0,0:0:0:0:
448,192,77855,1,0,0:0:0:0:
192,192,77944,1,0,0:0:0:0:
320,192,77944,1,8,0:0:0:0:
64,192,78034,1,0,0:0:0:0:
192,192,78123,1,0,0:0:0:0:
448,192,78123,1,0,0:0:0:0:
320,192,78212,1,0,0:0:0:0:
448,192,78301,1,0,0:0:0:0:
192,192,78301,1,2,0:0:0:0:
64,192,78301,1,0,0:0:0:0:
320,192,78391,1,0,0:0:0:0:
64,192,78480,1,0,0:0:0:0:
448,192,78480,1,0,0:0:0:0:
192,192,78569,1,0,0:0:0:0:
64,192,78659,1,0,0:0:0:0:
448,192,78659,128,0,79016:0:0:0:0:
320,192,78659,1,8,0:0:0:0:
192,192,79016,1,2,0:0:0:0:
320,192,79016,1,4,0:0:0:0:
64,192,79105,1,0,0:0:0:0:
448,192,79194,1,0,0:0:0:0:
320,192,79194,1,0,0:0:0:0:
192,192,79284,1,0,0:0:0:0:
320,192,79373,1,8,0:0:0:0:
64,192,79373,1,0,0:0:0:0:
192,192,79462,1,0,0:0:0:0:
64,192,79551,1,0,0:0:0:0:
320,192,79551,1,0,0:0:0:0:
448,192,79641,1,0,0:0:0:0:
320,192,79730,1,0,0:0:0:0:
64,192,79730,1,0,0:0:0:0:
192,192,79730,1,2,0:0:0:0:
448,192,79819,1,0,0:0:0:0:
64,192,79909,1,0,0:0:0:0:
320,192,79909,1,0,0:0:0:0:
448,192,80087,1,8,0:0:0:0:
64,192,80087,1,0,0:0:0:0:
320,192,80087,128,0,80444:0:0:0:0:
64,192,80444,128,2,80712:0:0:0:0:
192,192,80444,128,4,80712:0:0:0:0:
448,192,80444,128,0,80712:0:0:0:0:
320,192,80801,128,0,81069:0:0:0:0:
448,192,80801,128,8,81069:0:0:0:0:
64,192,80801,128,0,81069:0:0:0:0:
192,192,81159,128,2,81426:0:0:0:0:
64,192,81159,128,0,81426:0:0:0:0:
448,192,81159,128,4,81426:0:0:0:0:
448,192,81516,128,8,81784:0:0:0:0:
320,192,81516,128,0,81784:0:0:0:0:
64,192,81516,128,0,81784:0:0:0:0:
64,192,81873,1,0,0:0:0:0:
320,192,81873,1,2,0:0:0:0:
448,192,81873,1,0,0:0:0:0:
192,192,81962,1,0,0:0:0:0:
448,192,82051,1,0,0:0:0:0:
64,192,82051,1,2,0:0:0:0:
320,192,82141,1,0,0:0:0:0:
64,192,82230,1,8,0:0:0:0:
448,192,82230,1,0,0:0:0:0:
192,192,82230,1,0,0:0:0:0:
320,192,82319,1,0,0:0:0:0:
64,192,82409,1,2,0:0:0:0:
448,192,82409,1,0,0:0:0:0:
192,192,82498,1,0,0:0:0:0:
64,192,82587,1,8,0:0:0:0:
448,192,82587,1,0,0:0:0:0:
320,192,82647,1,0,0:0:0:0:
192,192,82706,1,0,0:0:0:0:
64,192,82766,1,2,0:0:0:0:
448,192,82766,1,0,0:0:0:0:
192,192,82825,1,0,0:0:0:0:
320,192,82885,1,0,0:0:0:0:
64,192,82944,1,8,0:0:0:0:
448,192,82944,1,0,0:0:0:0:
320,192,83004,1,0,0:0:0:0:
192,192,83063,1,0,0:0:0:0:
64,192,83123,1,0,0:0:0:0:
448,192,83123,1,2,0:0:0:0:
192,192,83182,1,0,0:0:0:0:
320,192,83242,1,0,0:0:0:0:
448,192,83301,1,2,0:0:0:0:
320,192,83480,1,0,0:0:0:0:
448,192,83659,128,0,84016:0:0:0:0:
192,192,83659,1,0,0:0:0:0:
64,192,83837,1,0,0:0:0:0:
320,192,84016,128,0,84373:0:0:0:0:
192,192,84016,1,0,0:0:0:0:
64,192,84373,128,0,84730:0:0:0:0:
192,192,84373,1,0,0:0:0:0:
448,192,84373,1,0,0:0:0:0:
320,192,84551,1,0,0:0:0:0:
192,192,84730,128,0,85087:0:0:0:0:
448,192,84730,1,0,0:0:0:0:
320,192,84909,1,0,0:0:0:0:
320,192,85087,128,0,85444:0:0:0:0:
64,192,85087,1,0,0:0:0:0:
448,192,85444,128,0,86159:0:0:0:0:
64,192,85444,1,0,0:0:0:0:
192,192,85444,128,0,86159:0:0:0:0:
320,192,86159,128,0,86516:0:0:0:0:
64,192,86159,128,0,86516:0:0:0:0:
192,192,86516,128,0,87230:0:0:0:0:
448,192,86516,128,0,87230:0:0:0:0:
