osu file format v14

[General]
AudioFilename: audio.mp3
AudioLeadIn: 0
PreviewTime: 137554
Countdown: 0
SampleSet: Soft
StackLeniency: 0.4
Mode: 0
LetterboxInBreaks: 0
WidescreenStoryboard: 0

[Editor]
Bookmarks: 3269,10412,21840,24698,27555,30412,33269,36126,38983,41840,44698,87554,114697,115054,115411,161840,173268,205053
DistanceSpacing: 2
BeatDivisor: 4
GridSize: 4
TimelineZoom: 1.9

[Metadata]
Title:Gabriel Drop Kick
TitleUnicode:ガヴリールドロップキック
Artist:Tomita Miyu, Onishi Saori, Ohzora Naomi, Hanazawa Kana
ArtistUnicode:富田美憂、大西沙織、大空直美、花澤香菜
Creator:AtHeoN
Version:Angel?
Source:ガヴリールドロップアウト
Tags:dropout gabdro dropkick ガヴドロ opening full size tenma gabriel white 天真・ガヴリール・ホワイト tsukinose vignette april 月乃瀬・ヴィネット・エイプリル vigne ヴィーネ kurumizawa satanichia mcdowell 胡桃沢・サタニキア・マクドウェル satania サターニャ shiraha raphiel ainsworth 白羽・ラフィエル・エインズワース
BeatmapID:1221704
BeatmapSetID:577185

[Difficulty]
HPDrainRate:6
CircleSize:4
OverallDifficulty:8.5
ApproachRate:9
SliderMultiplier:2
SliderTickRate:1

[Events]
//Background and Video events
0,0,"BG.jpg",0,0
//Break Periods
2,41840,43740
//Storyboard Layer 0 (Background)
//Storyboard Layer 1 (Fail)
//Storyboard Layer 2 (Pass)
//Storyboard Layer 3 (Foreground)
//Storyboard Sound Samples

[TimingPoints]
1841,357.142857142857,4,2,1,50,1,0
3269,-200,4,2,1,50,0,0
9698,-400,4,2,1,50,0,0
10412,-100,4,2,1,70,0,0
15412,-80,4,2,1,70,0,0
16126,-100,4,2,1,70,0,0
20412,-83.3333333333333,4,2,1,70,0,0
20769,-71.4285714285714,4,2,1,70,0,0
21126,-62.5,4,2,1,70,0,0
21840,-133.333333333333,4,2,1,50,0,0
24698,-100,4,2,1,70,0,0
27555,-133.333333333333,4,2,1,50,0,0
30412,-100,4,2,1,70,0,0
33269,-100,4,2,1,70,0,0
35769,-80,4,2,1,70,0,0
36126,-100,4,2,1,70,0,0
44698,-100,4,2,1,60,0,0
48983,-83.3333333333333,4,2,1,70,0,0
49340,-71.4285714285714,4,2,1,70,0,0
49698,-62.5,4,2,1,80,0,0
50412,-100,4,2,1,60,0,0
53269,-100,4,2,1,70,0,0
56126,-100,4,2,1,60,0,0
58626,-66.6666666666667,4,2,2,80,0,0
58983,-100,4,2,1,60,0,0
60590,357.142857142857,4,2,1,60,1,0
62197,357.142857142857,4,2,1,60,1,0
64697,357.142857142857,4,2,1,60,1,0
66125,-83.3333333333333,4,2,3,80,0,1
68982,-100,4,2,3,80,0,0
70054,-166.666666666667,4,2,3,80,0,0
70411,-83.3333333333333,4,2,3,80,0,1
71303,-83.3333333333333,4,2,2,80,0,1
71482,-71.4285714285715,4,2,2,80,0,0
71839,-83.3333333333333,4,2,3,80,0,1
74697,-100,4,2,3,80,0,0
75768,-166.666666666667,4,2,3,80,0,0
76125,-83.3333333333333,4,2,3,80,0,1
77018,-83.3333333333333,4,2,2,80,0,1
77197,-71.4285714285714,4,2,2,80,0,0
77375,-166.666666666667,4,2,1,80,0,0
77554,-83.3333333333333,4,2,3,80,0,1
78625,-71.4285714285714,4,2,3,80,0,1
78982,-83.3333333333333,4,2,3,80,0,1
80054,-62.5,4,2,3,80,0,1
80411,-83.3333333333333,4,2,3,80,0,1
80768,-71.4285714285714,4,2,3,80,0,1
81125,-83.3333333333333,4,2,3,80,0,1
81482,-62.5,4,2,3,80,0,1
81839,-83.3333333333333,4,2,3,80,0,1
82197,-76.9230769230769,4,2,3,80,0,1
82554,-71.4285714285714,4,2,3,80,0,1
82911,-66.6666666666667,4,2,3,80,0,1
83269,357.142857142857,3,2,1,50,1,0
83269,-133.333333333333,3,2,1,50,0,0
87554,-133.333333333333,3,3,2,60,0,0
113268,357.142857142857,4,2,1,50,1,0
113268,-200,4,2,1,60,0,0
113357,-200,4,2,1,20,0,0
114696,-100,4,2,1,50,0,0
115053,-133.333333333333,4,2,1,40,0,0
115410,-200,4,2,1,30,0,0
116125,-100,4,2,1,60,0,0
120410,-83.3333333333333,4,2,1,70,0,0
120768,-71.4285714285714,4,2,1,70,0,0
121125,-62.5,4,2,1,80,0,0
121839,-100,4,2,1,60,0,0
124696,-100,4,2,1,70,0,0
127553,-100,4,2,1,60,0,0
130053,-66.6666666666667,4,2,2,60,0,0
130410,-100,4,2,1,60,0,0
132019,357.142857142857,4,2,1,50,1,0
133626,357.142857142857,4,2,1,50,1,0
136126,357.142857142857,4,2,1,50,1,0
137554,-83.3333333333333,4,2,3,80,0,1
140411,-100,4,2,3,80,0,0
141483,-166.666666666667,4,2,3,80,0,0
141840,-83.3333333333333,4,2,3,80,0,1
142733,-83.3333333333333,4,2,2,80,0,1
142911,-71.4285714285714,4,2,2,80,0,0
143268,-83.3333333333333,4,2,3,80,0,1
146126,-100,4,2,3,80,0,0
147197,-166.666666666667,4,2,3,80,0,0
147554,-83.3333333333333,4,2,3,80,0,1
148447,-83.3333333333333,4,2,2,80,0,1
148626,-71.4285714285714,4,2,2,80,0,0
148804,-71.4285714285714,4,2,3,80,0,0
148983,-83.3333333333333,4,2,3,80,0,1
149340,-76.9230769230769,4,2,3,80,0,1
149697,-71.4285714285714,4,2,3,80,0,1
150054,-66.6666666666667,4,2,3,80,0,1
150322,-100,4,2,3,80,0,0
150411,-83.3333333333333,4,2,3,80,0,1
153268,-100,4,2,1,80,0,0
154340,-200,4,2,3,80,0,0
154697,-100,4,2,3,80,0,0
155590,-100,4,2,2,80,0,0
156126,-83.3333333333333,4,2,3,80,0,1
158983,-100,4,2,1,50,0,0
160054,-200,4,2,1,50,0,0
160411,-100,4,2,1,50,0,0
161304,-100,4,2,2,50,0,0
161661,-100,4,2,1,50,0,0
161840,-100,4,2,1,70,0,0
166840,-80,4,2,1,80,0,0
167554,-100,4,2,1,70,0,0
171840,-83.3333333333333,4,2,1,70,0,0
172197,-71.4285714285714,4,2,1,70,0,0
172554,-62.5,4,2,1,80,0,0
173268,-133.333333333333,4,2,1,50,0,0
175768,-66.6666666666667,4,2,2,60,0,0
176126,-100,4,2,1,60,0,0
177733,357.142857142857,4,2,1,60,1,0
179340,357.142857142857,4,2,1,60,1,0
181840,357.142857142857,4,2,1,60,1,0
184697,-83.3333333333333,4,2,3,80,0,1
187554,-100,4,2,3,80,0,0
188625,-166.666666666667,4,2,3,80,0,0
188982,-83.3333333333333,4,2,3,80,0,1
189875,-83.3333333333333,4,2,2,80,0,1
190054,-71.4285714285714,4,2,2,80,0,0
190411,-83.3333333333333,4,2,3,80,0,1
193268,-100,4,2,3,80,0,0
194340,-166.666666666667,4,2,3,80,0,0
194697,-83.3333333333333,4,2,3,80,0,1
195590,-83.3333333333333,4,2,2,80,0,1
195768,-71.4285714285714,4,2,2,80,0,0
195947,-71.4285714285714,4,2,3,80,0,0
196125,-83.3333333333333,4,2,3,80,0,1
197197,-71.4285714285714,4,2,3,80,0,1
197554,-83.3333333333333,4,2,3,80,0,1
198625,-62.5,4,2,3,80,0,1
198982,-83.3333333333333,4,2,3,80,0,1
199340,-71.4285714285714,4,2,3,80,0,1
199697,-83.3333333333333,4,2,3,80,0,1
200054,-62.5,4,2,3,80,0,1
200411,-83.3333333333333,4,2,3,80,0,1
200768,-76.9230769230769,4,2,3,80,0,1
201125,-71.4285714285714,4,2,3,80,0,1
201482,-66.6666666666667,4,2,3,80,0,1
201839,357.142857142857,3,2,1,50,1,0
201839,-133.333333333333,3,2,1,60,0,0

[Colours]
Combo1 : 255,192,0
Combo2 : 242,24,57

[HitObjects]
92,288,1841,5,2,0:0:0:0:
92,288,1930,1,0,0:0:0:0:
92,288,2019,2,0,L|148:300,1,50
216,208,2198,5,2,0:0:0:0:
216,208,2287,1,0,0:0:0:0:
216,208,2376,2,0,L|272:196,1,50
376,308,2555,5,2,0:0:0:0:
376,308,2644,1,0,0:0:0:0:
376,308,2733,1,2,0:0:0:0:
492,128,2912,1,2,0:0:0:0:
424,192,3090,1,2,0:0:0:0:
352,124,3269,6,0,L|236:116,1,100,2|0,0:0|0:0,0:0:0:0:
180,52,3805,1,0,0:0:0:0:
160,152,3983,1,2,0:0:0:0:
76,92,4162,1,0,0:0:0:0:
196,28,4341,2,0,P|220:20|264:20,1,50
168,180,4698,6,0,P|144:188|100:188,1,50,2|0,0:0|0:0,0:0:0:0:
52,84,5055,1,0,0:0:0:0:
152,104,5233,1,0,0:0:0:0:
88,188,5412,2,0,P|72:232|84:287,1,100,2|0,0:0|0:0,0:0:0:0:
88,288,5858,1,0,0:0:0:0:
88,288,5948,1,0,0:0:0:0:
188,204,6126,6,0,L|300:192,1,100,2|0,0:0|0:0,0:0:0:0:
464,128,6840,2,0,L|352:116,1,100,2|0,0:0|0:0,0:0:0:0:
188,204,7555,6,0,P|164:128|204:52,1,150,2|0,0:0|0:0,0:0:0:0:
248,0,8269,1,2,0:0:0:0:
360,216,8626,1,0,0:0:0:0:
500,96,8983,2,0,B|452:72|452:72|320:100,1,175,2|0,0:0|0:0,0:0:0:0:
312,120,9698,6,0,B|404:100,1,87.5,2|0,0:3|0:0,0:0:0:0:
412,83,10412,6,0,L|265:114,1,150,0|0,3:0|0:0,0:0:0:0:
193,55,10769,2,0,P|175:101|192:169,1,100,8|0,0:0|0:0,0:0:0:0:
280,279,11126,1,0,3:0:0:0:
338,137,11305,1,2,0:0:0:0:
157,154,11483,5,10,0:0:0:0:
133,159,11573,1,2,0:0:0:0:
300,36,11751,1,2,0:0:0:0:
324,41,11840,6,0,B|344:90|344:90|334:163,1,100,2|0,3:2|0:0,0:0:0:0:
439,255,12108,1,0,0:0:0:0:
439,255,12198,2,0,B|418:205|418:205|429:133,1,100,10|0,0:0|0:0,0:0:0:0:
481,65,12465,1,0,0:0:0:0:
481,65,12555,6,0,L|418:64,1,50,2|0,3:2|0:0,0:0:0:0:
287,135,12733,2,0,L|337:136,1,50,2|0,0:0|0:0,0:0:0:0:
503,235,12912,2,0,L|440:234,1,50,10|0,0:0|0:0,0:0:0:0:
293,304,13090,1,0,0:0:0:0:
293,304,13180,1,2,0:0:0:0:
293,304,13269,6,0,P|288:279|288:253,1,50,2|0,3:2|0:0,0:0:0:0:
337,136,13448,1,0,0:0:0:0:
339,86,13537,1,0,0:0:0:0:
311,46,13626,1,10,0:0:0:0:
264,31,13715,1,0,0:0:0:0:
218,48,13805,1,2,0:0:0:0:
191,89,13894,1,2,0:0:0:0:
196,138,13983,6,0,L|197:178,2,33.3333333333333,2|0|0,3:2|0:0|0:0,0:0:0:0:
143,31,14162,5,2,0:0:0:0:
119,22,14251,1,2,0:0:0:0:
33,184,14430,1,2,0:0:0:0:
57,175,14519,1,2,0:0:0:0:
27,31,14698,6,0,P|20:64|27:115,1,50,2|0,3:2|0:0,0:0:0:0:
132,210,14876,2,0,P|139:177|132:126,1,50,2|0,0:2|0:0,0:0:0:0:
8,307,15055,1,10,0:0:0:0:
16,330,15144,2,0,P|62:345|112:329,1,100,2|0,0:2|0:0,0:0:0:0:
266,296,15412,6,0,P|234:292|203:290,1,62.5,10|0,3:2|0:0,0:0:0:0:
413,364,15590,2,0,P|382:363|351:359,1,62.5,10|0,0:0|0:0,0:0:0:0:
132,210,15769,2,0,B|105:154|117:78|117:78|141:111|141:129,1,187.5,2|0,0:0|0:0,0:0:0:0:
208,146,16126,6,0,L|135:136,1,50,0|0,3:0|0:0,0:0:0:0:
37,111,16305,1,2,0:0:0:0:
38,62,16394,1,0,0:0:0:0:
75,30,16483,1,10,0:0:0:0:
123,36,16572,1,0,0:0:0:0:
151,76,16662,1,0,0:0:0:0:
140,123,16751,1,2,0:0:0:0:
83,188,16840,6,0,P|64:262|102:342,1,150,2|0,2:0|0:0,0:0:0:0:
112,338,17198,2,0,L|242:330,1,100,10|0,0:0|0:0,0:0:0:0:
419,317,17555,5,0,3:0:0:0:
252,191,17733,1,0,0:0:0:0:
313,384,17912,1,8,0:0:0:0:
383,193,18090,1,0,0:0:0:0:
383,193,18180,1,2,0:0:0:0:
383,193,18269,6,0,P|388:167|385:136,1,50,2|0,2:0|0:0,0:0:0:0:
217,24,18448,2,0,P|222:50|219:81,1,50,2|2,0:0|0:0,0:0:0:0:
144,257,18626,1,10,0:0:0:0:
267,192,18805,1,2,0:0:0:0:
61,146,18983,6,0,L|110:138,1,50,0|0,3:0|0:0,0:0:0:0:
340,258,19162,1,2,0:0:0:0:
340,258,19251,1,2,0:0:0:0:
340,258,19340,2,0,L|291:250,1,50,8|0,0:0|0:0,0:0:0:0:
121,344,19519,1,2,0:0:0:0:
121,344,19608,1,2,0:0:0:0:
121,344,19698,6,0,L|116:289,1,50,0|0,3:0|0:0,0:0:0:0:
290,249,19876,2,0,L|295:194,1,50,2|2,2:0|0:0,0:0:0:0:
121,157,20055,2,0,L|116:102,1,50,8|0,3:2|0:0,0:0:0:0:
289,62,20233,2,0,L|294:7,1,50,2|2,3:2|0:0,0:0:0:0:
34,198,20412,6,0,B|107:187|107:187|147:197|147:197|221:182,1,179.999994506836,0|0,3:0|0:0,0:0:0:0:
34,198,20769,6,0,P|130:197|103:102,1,209.999993591309,0|0,3:0|0:0,0:0:0:0:
34,198,21126,6,0,L|29:277,1,80,0|0,3:0|0:0,0:0:0:0:
34,198,21840,6,0,P|95:176|171:220,1,150.000005722046,2|2,0:0|0:0,0:0:0:0:
227,299,22376,1,0,0:0:0:0:
360,224,22555,1,2,0:0:0:0:
166,213,22733,1,0,0:0:0:0:
320,344,22912,1,2,0:0:0:0:
256,148,23090,1,0,0:0:0:0:
119,308,23269,6,0,P|173:317|226:298,1,112.500004291535,2|0,0:0|0:0,0:0:0:0:
241,287,23626,1,2,0:0:0:0:
144,187,23805,1,0,0:0:0:0:
352,96,23983,2,0,P|376:170|358:242,1,150.000005722046,2|2,0:0|0:0,0:0:0:0:
128,96,24698,6,0,L|369:71,1,200,4|0,3:2|0:0,0:0:0:0:
456,56,25233,1,0,3:0:0:0:
356,208,25412,1,8,0:1:0:0:
328,32,25590,1,0,0:0:0:0:
468,148,25769,1,0,3:0:0:0:
272,124,25948,6,0,B|252:176|252:176|268:276,1,150,8|0,0:1|0:0,0:0:0:0:
272,292,26305,1,0,0:0:0:0:
168,132,26483,1,0,3:0:0:0:
360,164,26662,1,0,0:0:0:0:
100,256,26840,2,0,B|36:212|36:212|104:180,1,150,8|0,0:1|0:0,0:0:0:0:
276,220,27198,2,0,L|168:216,1,100,8|8,0:1|0:1,0:0:0:0:
101,181,27465,1,8,0:1:0:0:
101,181,27555,6,0,P|76:112|112:28,1,150.000005722046,2|2,0:0|0:0,0:0:0:0:
208,0,28090,1,0,0:0:0:0:
188,112,28269,1,2,0:0:0:0:
96,24,28448,1,0,0:0:0:0:
292,96,28626,1,2,0:0:0:0:
116,212,28805,1,0,0:0:0:0:
296,280,28983,6,0,P|352:296|428:268,1,112.500004291535,2|0,0:0|0:0,0:0:0:0:
420,276,29340,1,2,0:0:0:0:
360,168,29519,1,0,0:0:0:0:
512,32,29698,2,0,L|496:204,1,150.000005722046,2|2,0:0|0:0,0:0:0:0:
128,288,30412,6,0,L|326:308,1,200,4|0,3:2|0:0,0:0:0:0:
416,248,30948,1,0,3:0:0:0:
284,48,31126,2,0,B|268:104|268:104|288:204,1,150,8|0,0:1|0:0,0:0:0:0:
292,224,31483,1,0,3:0:0:0:
304,24,31662,6,0,B|256:12|256:12|200:28,1,100,8|0,0:1|0:0,0:0:0:0:
184,40,31930,1,0,0:0:0:0:
184,40,32019,1,8,0:1:0:0:
368,192,32198,2,0,B|416:204|416:204|472:188,1,100,0|0,3:0|0:0,0:0:0:0:
224,176,32555,5,8,0:1:0:0:
217,199,32644,1,8,0:1:0:0:
216,224,32733,1,8,0:1:0:0:
223,249,32822,1,8,0:1:0:0:
235,270,32912,5,8,0:1:0:0:
253,223,33001,1,8,0:1:0:0:
260,174,33090,1,8,0:1:0:0:
254,125,33179,1,8,0:1:0:0:
235,78,33269,6,0,L|116:64,1,100,4|0,3:2|0:0,0:0:0:0:
135,281,33626,2,0,L|254:267,1,100,8|0,3:2|0:0,0:0:0:0:
410,174,33983,2,0,L|260:174,1,150,0|0,3:0|0:0,0:0:0:0:
234,175,34340,1,8,3:2:0:0:
349,82,34519,1,0,0:0:0:0:
254,294,34698,5,0,3:0:0:0:
138,85,34876,2,0,B|109:118|124:188,1,100,0|8,0:0|3:2,0:0:0:0:
270,37,35233,1,0,0:0:0:0:
270,37,35323,1,0,0:0:0:0:
270,37,35412,2,0,L|426:29,1,150,0|0,3:0|0:0,0:0:0:0:
483,70,35769,6,0,L|359:64,1,125,12|0,3:2|0:0,0:0:0:0:
138,85,36126,5,0,3:0:0:0:
244,294,36305,2,0,B|265:246|265:246|249:178,1,100,0|8,0:0|3:2,0:0:0:0:
167,5,36662,1,0,0:0:0:0:
79,169,36840,1,8,3:2:0:0:
247,106,37019,1,0,0:0:0:0:
65,41,37197,1,8,3:2:0:0:
330,56,37376,6,0,L|342:166,1,100,0|8,0:0|3:2,0:0:0:0:
244,294,37733,1,0,0:0:0:0:
247,106,37912,1,8,3:2:0:0:
415,205,38090,1,0,0:0:0:0:
167,202,38269,5,0,3:2:0:0:
416,112,38448,1,8,0:0:0:0:
393,351,38626,1,8,3:2:0:0:
330,56,38805,1,8,0:0:0:0:
89,203,38983,6,0,L|260:177,1,150,4|0,3:2|0:0,0:0:0:0:
328,163,39340,1,8,3:2:0:0:
300,250,39519,1,0,0:0:0:0:
264,87,39698,5,0,3:0:0:0:
146,197,39876,1,0,0:0:0:0:
353,159,40055,1,8,3:2:0:0:
106,122,40233,1,0,0:0:0:0:
205,315,40412,5,0,3:0:0:0:
353,72,40590,1,0,0:0:0:0:
64,196,40769,1,8,3:2:0:0:
326,333,40948,1,0,0:0:0:0:
206,17,41126,2,0,P|187:116|202:214,1,200,0|8,3:0|3:2,0:0:0:0:
184,309,44340,5,0,3:0:0:0:
175,285,44430,1,0,3:0:0:0:
166,261,44519,1,0,3:0:0:0:
157,237,44608,1,0,3:0:0:0:
148,213,44698,5,4,3:2:0:0:
228,154,44876,1,0,0:0:0:0:
316,201,45055,1,8,0:0:0:0:
148,213,45233,1,0,0:0:0:0:
148,213,45323,1,0,0:0:0:0:
148,213,45412,5,0,3:0:0:0:
89,133,45590,1,0,0:0:0:0:
136,45,45769,1,8,0:0:0:0:
153,150,45948,5,0,0:0:0:0:
148,51,46126,1,0,3:0:0:0:
235,3,46305,1,0,0:0:0:0:
192,101,46483,5,8,0:0:0:0:
241,15,46661,1,0,0:0:0:0:
341,22,46840,1,0,3:0:0:0:
252,82,47019,5,0,0:0:0:0:
340,36,47197,1,8,0:0:0:0:
419,96,47376,1,0,0:0:0:0:
306,259,47555,5,0,3:0:0:0:
304,159,47733,1,0,0:0:0:0:
392,205,47912,1,8,0:0:0:0:
272,205,48090,5,0,0:0:0:0:
357,153,48268,1,0,3:0:0:0:
361,252,48447,1,0,0:0:0:0:
304,159,48626,5,8,0:0:0:0:
392,205,48805,1,0,0:0:0:0:
306,259,48983,6,0,B|178:268|178:268|230:305,1,179.999994506836,8|0,3:2|0:0,0:0:0:0:
220,297,49340,6,0,B|231:242|231:242|214:166|214:166|227:88,1,209.999993591309,8|0,3:2|0:0,0:0:0:0:
250,69,49698,6,0,L|237:148,1,80,0|0,3:0|0:0,0:0:0:0:
415,344,49876,2,0,L|402:265,1,80,8|0,3:2|0:0,0:0:0:0:
410,62,50055,6,0,L|423:141,1,80,0|0,3:0|0:0,0:0:0:0:
245,337,50233,2,0,L|258:258,1,80,8|0,3:2|0:0,0:0:0:0:
328,8,50412,5,4,3:2:0:0:
408,60,50590,1,0,0:0:0:0:
328,112,50769,1,8,0:0:0:0:
328,8,50948,1,0,0:0:0:0:
328,8,51037,1,0,0:0:0:0:
328,8,51126,5,0,3:0:0:0:
408,60,51305,1,0,0:0:0:0:
492,112,51483,1,8,0:0:0:0:
327,33,51662,5,0,0:0:0:0:
407,85,51841,1,0,3:0:0:0:
491,137,52019,1,0,0:0:0:0:
326,58,52197,5,8,0:0:0:0:
406,110,52376,1,0,0:0:0:0:
490,162,52554,1,0,3:0:0:0:
325,83,52733,5,0,0:0:0:0:
405,135,52912,1,8,0:0:0:0:
489,187,53090,1,0,0:0:0:0:
324,108,53269,5,0,3:0:0:0:
488,212,53448,1,8,0:0:0:0:
238,269,53626,5,0,3:0:0:0:
402,165,53805,1,8,0:0:0:0:
348,344,53983,5,0,3:0:0:0:
293,97,54162,1,8,0:0:0:0:
231,311,54340,5,0,3:0:0:0:
418,140,54519,1,8,0:0:0:0:
140,52,54698,5,0,3:0:0:0:
140,52,54787,1,0,0:0:0:0:
140,52,54876,1,8,0:0:0:0:
140,52,54965,1,0,0:0:0:0:
140,52,55055,2,0,L|135:112,1,50,0|0,3:0|0:0,0:0:0:0:
284,326,55233,2,0,L|279:266,1,50,8|0,0:0|0:0,0:0:0:0:
416,105,55411,5,0,3:0:0:0:
416,105,55501,1,0,0:0:0:0:
416,105,55590,1,8,0:0:0:0:
416,105,55680,1,0,0:0:0:0:
416,105,55769,2,0,P|388:98|355:106,1,50,0|0,3:0|0:0,0:0:0:0:
172,255,55948,2,0,P|200:262|233:254,1,50,8|0,0:0|0:0,0:0:0:0:
292,178,56126,6,0,L|61:171,1,200,4|0,3:2|3:0,0:0:0:0:
368,101,56662,1,0,0:0:0:0:
368,101,56751,1,0,0:0:0:0:
368,101,56840,1,0,3:0:0:0:
404,203,57019,1,0,0:0:0:0:
512,37,57198,2,0,L|340:9,1,150,0|0,3:0|0:0,0:0:0:0:
188,61,57555,6,0,P|216:51|299:54,1,100,4|0,3:2|0:0,0:0:0:0:
368,101,57912,1,0,3:0:0:0:
192,157,58090,2,0,P|220:166|303:164,1,100,0|0,0:0|3:0,0:0:0:0:
446,131,58448,1,0,0:0:0:0:
446,131,58537,1,0,0:0:0:0:
446,131,58626,6,0,B|369:126|301:142|301:142|362:116|378:86,1,225.000008583069,4|0,0:0|0:0,0:0:0:0:
416,23,58983,5,4,3:2:0:0:
458,245,59162,1,0,3:0:0:0:
244,170,59340,1,0,3:0:0:0:
455,45,59519,5,0,3:0:0:0:
418,268,59698,1,0,3:0:0:0:
243,124,59876,1,0,3:0:0:0:
484,79,60055,5,0,3:0:0:0:
374,276,60234,1,0,3:0:0:0:
258,81,60412,1,0,3:0:0:0:
490,178,60590,5,4,3:2:0:0:
274,255,60768,1,0,3:0:0:0:
481,354,60947,1,0,3:0:0:0:
176,328,61125,5,0,3:0:0:0:
392,251,61303,1,0,3:0:0:0:
185,152,61482,1,0,3:0:0:0:
336,168,61661,5,0,3:0:0:0:
120,245,61839,1,0,3:0:0:0:
327,344,62018,1,0,3:0:0:0:
364,72,62197,5,4,3:2:0:0:
225,256,62375,1,0,3:0:0:0:
123,49,62554,1,0,3:0:0:0:
344,312,62732,5,0,3:0:0:0:
243,91,62911,1,0,3:0:0:0:
115,283,63090,1,0,3:0:0:0:
328,168,63268,5,0,3:0:0:0:
122,25,63447,1,0,3:0:0:0:
228,224,63625,5,4,3:2:0:0:
411,53,63804,1,0,3:0:0:0:
332,280,63982,5,0,3:0:0:0:
149,109,64161,1,0,3:0:0:0:
236,340,64339,5,0,3:0:0:0:
419,169,64518,1,0,3:0:0:0:
140,224,64697,5,2,0:0:0:0:
93,312,64875,1,0,0:0:0:0:
93,312,64964,1,0,0:0:0:0:
93,312,65054,1,2,0:0:0:0:
192,314,65232,1,2,0:0:0:0:
140,224,65411,1,2,0:0:0:0:
93,312,65589,1,2,0:0:0:0:
232,232,65768,5,2,3:2:0:0:
126,67,65947,1,2,3:2:0:0:
126,67,66036,1,0,3:0:0:0:
126,67,66125,6,0,L|306:36,1,179.999994506836,0|0,3:0|0:0,0:0:0:0:
437,144,66482,2,0,L|274:116,1,119.999996337891,10|0,0:0|0:0,0:0:0:0:
101,148,66839,6,0,B|73:218|73:218|91:329,1,179.999994506836,0|0,3:0|0:0,0:0:0:0:
180,287,67196,2,0,B|199:231|199:231|183:148,1,119.999996337891,10|0,0:0|0:0,0:0:0:0:
312,330,67554,6,0,B|395:374|493:340,1,179.999994506836,0|0,3:0|0:0,0:0:0:0:
455,259,67911,2,0,P|401:246|317:257,1,119.999996337891,10|0,0:0|0:0,0:0:0:0:
129,274,68268,5,8,3:2:0:0:
340,150,68447,1,0,0:0:0:0:
340,150,68536,1,0,0:0:0:0:
340,150,68625,1,10,3:2:0:0:
143,87,68804,1,8,3:2:0:0:
260,358,68982,5,8,3:2:0:0:
260,358,69875,2,0,B|250:333|250:333|248:296,1,50,8|0,3:2|0:0,0:0:0:0:
265,277,70054,6,0,L|349:255,1,59.9999981689454,8|0,3:2|0:0,0:0:0:0:
376,328,70322,1,0,0:0:0:0:
438,264,70411,6,0,B|378:246|378:246|313:264,1,119.999996337891,8|0,3:2|0:0,0:0:0:0:
248,309,70679,2,0,B|192:324|192:324|132:306,1,119.999996337891,8|0,3:2|0:0,0:0:0:0:
66,241,70947,1,8,3:2:0:0:
229,166,71125,1,8,3:2:0:0:
90,47,71304,2,0,P|84:84|94:123,1,59.9999981689454,8|0,0:0|0:0,0:0:0:0:
232,74,71482,6,0,B|172:62|88:106|88:106|79:81|90:47,1,209.999993591309,8|0,0:0|0:0,0:0:0:0:
32,0,71839,6,0,P|11:65|36:172,1,179.999994506836,0|0,3:0|0:0,0:0:0:0:
116,300,72196,2,0,P|126:239|110:168,1,119.999996337891,10|0,0:0|0:0,0:0:0:0:
19,346,72554,6,0,L|207:336,1,179.999994506836,0|0,3:0|0:0,0:0:0:0:
344,265,72911,2,0,L|193:257,1,119.999996337891,10|0,0:0|0:0,0:0:0:0:
421,339,73268,6,0,B|447:280|447:280|425:154,1,179.999994506836,0|0,3:0|0:0,0:0:0:0:
351,55,73625,2,0,B|330:102|330:102|347:203,1,119.999996337891,10|0,0:0|0:0,0:0:0:0:
421,339,73982,5,8,3:2:0:0:
476,67,74161,1,8,0:0:0:0:
476,67,74250,1,0,0:0:0:0:
476,67,74339,1,10,3:2:0:0:
222,157,74518,1,8,3:2:0:0:
512,225,74696,5,8,3:2:0:0:
512,225,75589,2,0,L|463:229,1,50,8|0,3:2|0:0,0:0:0:0:
433,220,75768,6,0,P|418:190|415:154,1,59.9999981689454,8|0,3:2|0:0,0:0:0:0:
440,92,76036,1,0,0:0:0:0:
488,152,76125,6,0,B|440:168|440:168|346:142,1,119.999996337891,8|0,3:2|0:0,0:0:0:0:
185,189,76393,2,0,B|233:173|233:173|327:199,1,119.999996337891,8|0,3:2|0:0,0:0:0:0:
442,284,76661,1,8,3:2:0:0:
308,84,76839,1,0,3:2:0:0:
314,334,77018,2,0,B|322:305|322:305|318:275,1,59.9999981689454,8|0,0:0|0:0,0:0:0:0:
185,189,77197,6,0,L|330:178,1,139.999995727539,8|0,0:0|3:0,0:0:0:0:
442,284,77554,6,0,L|227:267,1,179.999994506836,4|0,0:0|0:0,0:0:0:0:
171,267,77911,1,10,0:0:0:0:
344,137,78089,1,0,0:0:0:0:
60,18,78268,2,0,P|33:108|89:201,1,179.999994506836,0|0,3:0|0:0,0:0:0:0:
127,132,78625,6,0,P|148:54|147:138,1,209.999993591309,10|0,0:0|0:0,0:0:0:0:
164,207,78982,6,0,P|213:226|302:201,1,119.999996337891,0|0,3:0|0:0,0:0:0:0:
343,161,79250,1,0,0:0:0:0:
343,161,79339,1,10,0:0:0:0:
446,325,79518,1,0,0:0:0:0:
512,81,79697,2,0,L|315:71,1,179.999994506836,0|0,3:0|0:0,0:0:0:0:
202,82,80054,6,0,P|236:24|222:112,1,240,10|0,0:0|0:0,0:0:0:0:
174,167,80411,5,4,3:2:0:0:
136,142,80500,1,0,0:0:0:0:
115,103,80589,1,0,0:0:0:0:
116,58,80678,1,0,0:0:0:0:
138,20,80768,2,0,B|112:75|142:135|142:135|113:186|129:240,1,209.999993591309,10|0,0:0|0:0,0:0:0:0:
187,303,81125,5,4,3:2:0:0:
246,299,81214,1,0,0:0:0:0:
306,294,81304,1,0,0:0:0:0:
365,288,81393,1,0,0:0:0:0:
424,282,81482,2,0,B|390:334|390:334|340:271|355:157,1,240,10|0,0:0|0:0,0:0:0:0:
305,40,81839,6,0,P|307:73|300:110,1,59.9999981689454,2|0,3:2|0:0,0:0:0:0:
56,164,82018,5,8,3:2:0:0:
56,164,82107,1,0,0:0:0:0:
56,164,82197,2,0,L|119:153,1,64.9999970245363,2|0,3:2|0:0,0:0:0:0:
362,285,82375,5,8,3:2:0:0:
362,285,82464,1,0,0:0:0:0:
362,285,82554,2,0,L|291:273,1,69.9999978637696,2|0,3:2|0:0,0:0:0:0:
19,346,82732,5,8,3:2:0:0:
19,346,82821,1,0,0:0:0:0:
19,346,82911,2,0,L|93:333,1,75.0000028610231,2|0,3:2|0:0,0:0:0:0:
179,252,83089,5,8,0:0:0:0:
179,252,83179,1,0,0:0:0:0:
179,252,83269,5,2,0:0:0:0:
128,177,83447,1,0,0:0:0:0:
177,101,83626,2,0,P|182:64|175:22,1,75.0000028610231,2|0,0:0|0:0,0:0:0:0:
274,185,83983,2,0,P|330:195|403:168,1,112.500004291535,2|0,0:0|0:0,0:0:0:0:
402,163,84340,6,0,L|401:237,1,75.0000028610231,2|0,3:2|0:0,0:0:0:0:
208,221,84697,2,0,L|273:184,1,75.0000028610231
356,361,85054,2,0,L|291:322,1,75.0000028610231,2|0,0:0|0:0,0:0:0:0:
323,250,85411,5,2,3:2:0:0:
323,250,86126,1,2,3:2:0:0:
410,53,86483,1,2,3:2:0:0:
132,100,87554,6,0,P|196:128|260:88,1,150.000005722046,4|0,0:1|0:0,0:0:0:0:
32,148,88269,1,0,0:0:0:0:
32,148,88447,1,0,0:0:0:0:
32,148,88626,2,0,P|12:220|44:312,1,150.000005722046,2|0,0:2|0:0,0:0:0:0:
296,184,89340,1,0,0:0:0:0:
296,184,89518,1,0,0:0:0:0:
296,184,89697,6,0,P|316:112|284:20,1,150.000005722046,2|0,0:0|0:0,0:0:0:0:
116,224,90411,1,0,0:0:0:0:
116,224,90590,1,0,0:0:0:0:
220,272,90769,5,2,0:2:0:0:
208,160,90947,1,0,0:0:0:0:
312,200,91126,5,2,0:2:0:0:
324,88,91304,1,0,0:0:0:0:
428,128,91483,5,2,0:2:0:0:
416,16,91661,1,0,0:0:0:0:
503,191,91840,6,0,P|431:226|354:192,1,150.000005722046,4|0,0:1|0:0,0:0:0:0:
51,120,92554,1,0,0:0:0:0:
51,120,92733,1,0,0:0:0:0:
51,120,92911,2,0,L|227:100,1,150.000005722046,2|0,0:2|0:0,0:0:0:0:
368,205,93626,1,0,0:0:0:0:
368,205,93804,1,0,0:0:0:0:
368,205,93983,6,0,L|262:193,1,75.0000028610231,2|0,0:0|0:0,0:0:0:0:
200,103,94340,1,0,0:0:0:0:
167,211,94519,1,0,0:0:0:0:
94,125,94697,1,0,0:0:0:0:
217,90,94876,1,0,0:0:0:0:
169,232,95054,5,2,0:2:0:0:
171,255,95411,2,0,L|164:309,1,37.5000014305115,0|2,2:3|2:3,0:0:0:0:
67,104,96126,6,0,L|249:86,1,150.000005722046,4|2,0:1|0:2,0:0:0:0:
314,34,96661,1,0,0:0:0:0:
341,143,96840,1,2,0:2:0:0:
426,69,97019,1,2,0:2:0:0:
234,118,97197,5,2,0:2:0:0:
145,47,97376,2,0,P|102:37|61:49,1,75.0000028610231,2|0,0:2|0:0,0:0:0:0:
234,118,97733,5,2,0:2:0:0:
128,159,97912,2,0,P|97:191|87:232,1,75.0000028610231,2|0,0:2|0:0,0:0:0:0:
210,335,98269,5,2,0:2:0:0:
170,230,98447,1,2,0:2:0:0:
109,325,98626,1,0,0:0:0:0:
109,325,98983,2,0,L|94:231,1,75.0000028610231
256,149,99340,6,0,P|239:180|193:211,1,75.0000028610231,2|0,0:2|0:0,0:0:0:0:
38,97,99697,2,0,P|73:95|123:119,1,75.0000028610231,2|0,0:2|0:0,0:0:0:0:
209,205,100054,1,2,0:2:0:0:
112,263,100233,1,0,0:0:0:0:
194,339,100411,6,0,L|281:337,1,75.0000028610231,4|0,0:1|0:0,0:0:0:0:
430,275,100769,2,0,L|355:273,1,75.0000028610231,2|0,0:2|0:0,0:0:0:0:
209,205,101126,1,2,0:2:0:0:
305,148,101304,1,0,0:0:0:0:
199,55,101483,6,0,L|208:204,1,150.000005722046,2|0,0:2|0:0,0:0:0:0:
342,45,102197,1,0,0:0:0:0:
454,50,102376,1,0,0:0:0:0:
320,87,102554,6,0,P|315:132|321:180,1,75.0000028610231,2|0,0:2|0:0,0:0:0:0:
401,288,102911,2,0,P|364:261|319:242,1,75.0000028610231,2|0,0:2|0:0,0:0:0:0:
225,226,103269,1,2,0:2:0:0:
317,161,103447,1,0,0:0:0:0:
141,150,103626,6,0,P|114:236|148:308,1,150.000005722046,2|0,0:2|0:0,0:0:0:0:
240,342,104161,1,0,0:0:0:0:
58,295,104340,2,0,L|166:287,1,75.0000028610231
225,226,104697,5,4,0:1:0:0:
389,177,105054,2,0,P|350:165|294:161,1,75.0000028610231,2|0,0:2|0:0,0:0:0:0:
265,60,105411,2,0,P|235:87|203:134,1,75.0000028610231,2|0,0:2|0:0,0:0:0:0:
225,226,105768,5,2,0:2:0:0:
102,109,106126,2,0,P|111:148|135:199,1,75.0000028610231,2|0,0:2|0:0,0:0:0:0:
61,275,106483,2,0,P|100:287|156:290,1,75.0000028610231,2|0,0:2|0:0,0:0:0:0:
225,226,106840,5,2,0:2:0:0:
278,324,107018,1,0,0:0:0:0:
384,128,107197,5,2,0:2:0:0:
331,226,107376,1,0,0:1:0:0:
278,128,107554,2,0,P|243:115|193:117,1,75.0000028610231,2|0,0:2|0:0,0:0:0:0:
148,291,107911,6,0,L|163:194,1,75.0000028610231,2|0,0:2|0:0,0:0:0:0:
277,127,108268,2,0,L|289:202,1,75.0000028610231,2|0,0:2|0:0,0:0:0:0:
111,105,108626,2,0,L|126:8,1,75.0000028610231,2|0,0:2|0:0,0:0:0:0:
31,218,108983,5,2,0:2:0:0:
190,153,109161,1,0,0:0:0:0:
172,344,109340,2,0,P|162:301|170:257,1,75.0000028610231,2|0,0:2|0:0,0:0:0:0:
276,108,109697,2,0,P|286:151|278:195,1,75.0000028610231,2|0,0:2|0:0,0:0:0:0:
42,160,110054,6,0,B|96:145|96:145|191:153,1,150.000005722046,2|2,0:2|0:2,0:0:0:0:
377,243,110768,1,2,0:2:0:0:
282,181,110947,1,0,0:0:0:0:
371,113,111126,6,0,P|378:76|378:14,1,75.0000028610231,2|0,0:2|0:0,0:0:0:0:
242,260,111483,1,0,0:0:0:0:
242,260,111661,1,0,0:0:0:0:
160,108,111840,1,0,0:0:0:0:
160,108,112018,1,0,0:0:0:0:
44,274,112197,6,0,B|67:311|67:311|94:265|86:199,1,150.000005722046,4|0,0:1|0:0,0:0:0:0:
66,61,112733,1,0,0:0:0:0:
160,108,112911,2,0,P|199:110|244:96,1,75.0000028610231,2|0,0:2|0:0,0:0:0:0:
299,35,113268,6,0,P|273:158|386:65,1,350,2|0,0:0|0:0,0:0:0:0:
324,104,114696,6,0,L|313:267,1,150
332,122,115053,6,0,L|347:268,1,112.500004291535
343,138,115410,6,0,L|367:222,1,75
431,269,115768,1,0,3:0:0:0:
454,275,115857,1,0,3:0:0:0:
479,272,115946,1,0,3:0:0:0:
499,258,116035,1,0,3:0:0:0:
512,236,116125,5,4,3:2:0:0:
442,165,116303,1,0,0:0:0:0:
496,80,116482,1,8,0:0:0:0:
512,236,116660,1,0,0:0:0:0:
512,236,116750,1,0,0:0:0:0:
512,236,116839,5,0,3:0:0:0:
442,165,117018,1,0,0:0:0:0:
421,262,117196,1,8,0:0:0:0:
490,223,117375,5,0,0:0:0:0:
420,152,117554,1,0,3:0:0:0:
399,249,117732,1,0,0:0:0:0:
468,210,117911,5,8,0:0:0:0:
398,139,118090,1,0,0:0:0:0:
377,236,118268,1,0,3:0:0:0:
446,197,118446,5,0,0:0:0:0:
376,126,118625,1,8,0:0:0:0:
355,223,118803,1,0,0:0:0:0:
298,62,118982,5,0,3:0:0:0:
200,43,119160,1,0,0:0:0:0:
108,83,119339,1,8,0:0:0:0:
227,58,119518,5,0,0:0:0:0:
133,90,119696,1,0,3:0:0:0:
73,171,119875,1,0,0:0:0:0:
164,90,120053,5,8,0:0:0:0:
98,165,120231,1,0,0:0:0:0:
87,265,120410,6,0,B|110:301|110:301|98:152,1,179.999994506836,8|0,3:2|0:0,0:0:0:0:
73,171,120768,6,0,B|140:179|140:179|201:150|201:150|286:159,1,209.999993591309,8|0,3:2|0:0,0:0:0:0:
300,242,121125,6,0,L|204:232,1,80,0|0,3:0|0:0,0:0:0:0:
47,86,121303,2,0,L|143:96,1,80,8|0,0:0|0:0,0:0:0:0:
334,71,121482,6,0,L|254:79,1,80,0|0,3:0|0:0,0:0:0:0:
31,259,121660,2,0,L|110:250,1,80,8|0,0:0|0:0,0:0:0:0:
360,372,121839,5,4,3:2:0:0:
433,304,122018,1,0,0:0:0:0:
338,274,122196,1,8,0:0:0:0:
360,372,122375,1,0,0:0:0:0:
360,372,122464,1,0,0:0:0:0:
360,372,122553,5,0,3:0:0:0:
433,304,122732,1,0,0:0:0:0:
412,206,122910,1,8,0:0:0:0:
433,304,123089,5,0,0:0:0:0:
338,274,123268,1,0,3:0:0:0:
318,176,123446,1,0,0:0:0:0:
338,274,123625,5,8,0:0:0:0:
412,206,123803,1,0,0:0:0:0:
392,107,123982,1,0,3:0:0:0:
412,206,124160,5,0,0:0:0:0:
317,176,124339,1,8,0:0:0:0:
297,78,124517,1,0,0:0:0:0:
338,274,124696,5,0,3:0:0:0:
392,107,124875,1,8,0:0:0:0:
244,241,125053,5,0,3:0:0:0:
190,74,125232,1,8,0:0:0:0:
68,262,125410,5,0,3:0:0:0:
317,176,125589,1,8,0:0:0:0:
98,94,125768,5,0,3:0:0:0:
347,180,125947,1,8,0:0:0:0:
83,176,126125,5,0,3:0:0:0:
83,176,126214,1,0,0:0:0:0:
83,176,126303,1,8,0:0:0:0:
83,176,126393,1,0,0:0:0:0:
83,176,126482,2,0,P|82:209|85:228,1,50,0|0,3:0|0:0,0:0:0:0:
287,88,126660,2,0,P|287:63|285:39,1,50,8|0,0:0|0:0,0:0:0:0:
473,327,126838,5,0,3:0:0:0:
473,327,126928,1,0,0:0:0:0:
473,327,127018,1,8,0:0:0:0:
473,327,127107,1,0,0:0:0:0:
473,327,127196,2,0,L|423:318,1,50,0|0,3:0|0:0,0:0:0:0:
173,218,127375,2,0,L|222:209,1,50,8|0,0:0|0:0,0:0:0:0:
431,89,127553,6,0,P|452:182|338:229,1,200,0|0,3:0|3:0,0:0:0:0:
222,208,128089,1,0,0:0:0:0:
222,208,128178,1,0,0:0:0:0:
222,208,128267,1,0,3:0:0:0:
293,376,128446,2,0,P|279:325|293:270,1,100,0|0,0:0|3:0,0:0:0:0:
376,151,128803,1,0,0:0:0:0:
376,325,128982,5,4,3:2:0:0:
279,135,129160,1,0,0:0:0:0:
170,300,129339,1,0,3:0:0:0:
444,197,129518,2,0,P|453:169|451:86,1,100,0|0,0:0|3:0,0:0:0:0:
508,304,129875,1,0,0:0:0:0:
508,304,129964,1,0,0:0:0:0:
508,304,130053,6,0,B|435:355|355:323|355:323|387:303|407:275,1,225.000008583069,4|0,0:0|0:0,0:0:0:0:
444,197,130410,5,4,3:2:0:0:
264,108,130589,1,0,3:0:0:0:
436,0,130768,1,0,3:0:0:0:
208,208,130946,5,0,3:0:0:0:
195,7,131125,1,0,3:0:0:0:
374,102,131304,1,0,3:0:0:0:
124,132,131482,5,0,3:0:0:0:
294,18,131661,1,0,3:0:0:0:
307,222,131840,1,0,3:0:0:0:
166,143,132019,5,4,3:2:0:0:
386,206,132197,1,0,3:0:0:0:
199,341,132376,1,0,3:0:0:0:
451,303,132554,5,0,3:0:0:0:
231,240,132732,1,0,3:0:0:0:
418,105,132911,1,0,3:0:0:0:
325,323,133090,5,0,3:0:0:0:
512,188,133269,1,0,3:0:0:0:
292,125,133447,1,0,3:0:0:0:
489,352,133626,5,4,3:2:0:0:
472,83,133804,1,0,3:0:0:0:
247,234,133983,1,0,3:0:0:0:
395,234,134161,5,0,3:0:0:0:
170,83,134340,1,0,3:0:0:0:
153,352,134518,1,0,3:0:0:0:
395,234,134697,5,0,3:0:0:0:
247,234,134876,1,0,3:0:0:0:
471,101,135054,5,4,3:2:0:0:
406,336,135233,1,0,3:0:0:0:
171,101,135411,5,0,3:0:0:0:
236,336,135590,1,0,3:0:0:0:
386,40,135768,5,0,3:0:0:0:
321,275,135947,1,0,3:0:0:0:
256,40,136126,5,2,0:0:0:0:
321,115,136304,1,2,0:0:0:0:
321,115,136393,1,0,0:0:0:0:
321,115,136483,1,2,0:0:0:0:
156,124,136661,5,2,0:0:0:0:
91,199,136839,1,2,0:0:0:0:
91,199,136928,1,0,0:0:0:0:
91,199,137018,1,2,0:0:0:0:
269,281,137197,5,2,3:2:0:0:
156,124,137376,1,2,3:2:0:0:
156,124,137465,1,0,3:2:0:0:
156,124,137554,6,0,B|181:198|181:198|151:321,1,179.999994506836,0|0,3:0|0:0,0:0:0:0:
241,137,137911,2,0,B|259:196|259:196|240:274,1,119.999996337891,10|0,0:0|0:0,0:0:0:0:
95,339,138268,6,0,B|146:280|146:280|268:244,1,179.999994506836,0|0,3:0|0:0,0:0:0:0:
63,258,138625,2,0,B|105:212|105:212|182:190,1,119.999996337891,10|0,0:0|0:0,0:0:0:0:
311,282,138983,6,0,B|234:266|234:266|142:179,1,179.999994506836,0|0,3:0|0:0,0:0:0:0:
256,350,139340,2,0,B|195:336|195:336|137:280,1,119.999996337891,10|0,0:0|0:0,0:0:0:0:
156,124,139697,5,8,3:2:0:0:
65,343,139876,1,0,0:0:0:0:
65,343,139965,1,0,0:0:0:0:
65,343,140054,1,10,3:2:0:0:
280,196,140233,1,8,3:2:0:0:
14,38,140411,5,8,3:2:0:0:
14,38,141304,2,0,B|81:16,1,50,8|0,3:2|0:0,0:0:0:0:
14,38,141483,6,0,P|10:77|16:117,1,59.9999981689454,8|0,3:2|0:0,0:0:0:0:
72,156,141751,1,0,0:0:0:0:
130,201,141840,6,0,B|70:183|70:183|5:201,1,119.999996337891,8|0,3:2|0:0,0:0:0:0:
166,302,142108,2,0,B|222:318|222:318|282:300,1,119.999996337891,8|0,3:2|0:0,0:0:0:0:
65,281,142376,1,8,3:2:0:0:
320,176,142554,1,8,3:2:0:0:
121,61,142733,2,0,P|115:98|125:137,1,59.9999981689454,8|0,0:0|0:0,0:0:0:0:
149,264,142911,6,0,B|161:204|117:120|117:120|142:111|176:122,1,209.999993591309,8|0,0:0|0:0,0:0:0:0:
339,272,143268,6,0,P|341:202|408:93,1,179.999994506836,0|0,3:2|0:0,0:0:0:0:
149,264,143625,2,0,P|148:204|122:135,1,119.999996337891,10|0,0:0|0:0,0:0:0:0:
251,364,143983,6,0,L|439:354,1,179.999994506836,0|0,3:0|0:0,0:0:0:0:
149,264,144340,2,0,L|-2:256,1,119.999996337891,10|0,0:0|0:0,0:0:0:0:
292,202,144697,6,0,B|318:143|318:143|296:17,1,179.999994506836,0|0,3:0|0:0,0:0:0:0:
115,176,145054,2,0,B|103:108|103:108|124:61,1,119.999996337891,10|0,0:0|0:0,0:0:0:0:
152,338,145411,5,8,3:2:0:0:
217,124,145590,1,8,0:0:0:0:
217,124,145679,1,0,0:0:0:0:
217,124,145768,1,10,3:2:0:0:
3,172,145947,1,8,3:2:0:0:
353,287,146125,5,8,3:2:0:0:
353,287,147018,2,0,L|415:306,1,50,8|0,3:2|0:0,0:0:0:0:
353,287,147197,6,0,P|338:257|335:221,1,59.9999981689454,8|0,3:2|0:0,0:0:0:0:
356,148,147465,1,0,0:0:0:0:
406,215,147554,6,0,P|353:231|276:177,1,119.999996337891,8|0,3:2|0:0,0:0:0:0:
233,25,147822,2,0,P|273:62|265:156,1,119.999996337891,8|0,3:2|0:0,0:0:0:0:
217,182,148090,1,8,3:2:0:0:
452,104,148268,1,0,3:2:0:0:
343,320,148447,2,0,B|347:261,1,59.9999981689454,8|0,0:0|0:0,0:0:0:0:
406,215,148626,6,0,L|265:234,1,139.999995727539,8|0,0:0|3:0,0:0:0:0:
164,324,148983,6,0,L|158:253,1,59.9999981689454,2|0,3:2|0:0,0:0:0:0:
48,180,149162,5,8,3:2:0:0:
48,180,149251,1,0,0:0:0:0:
48,180,149341,2,0,P|80:168|118:163,1,64.9999970245363,2|0,3:2|0:0,0:0:0:0:
315,283,149519,5,8,3:2:0:0:
315,283,149608,1,0,0:0:0:0:
315,283,149697,2,0,P|288:261|265:230,1,69.9999978637696,2|0,3:2|0:0,0:0:0:0:
271,0,149876,5,8,3:2:0:0:
271,0,149965,1,0,0:0:0:0:
271,0,150054,2,0,P|264:37|248:76,1,75.0000028610231,2|0,3:2|0:0,0:0:0:0:
166,245,150233,5,8,0:0:0:0:
166,245,150323,1,0,0:0:0:0:
166,245,150411,6,0,P|143:187|146:111,1,119.999996337891,4|0,3:2|0:0,0:0:0:0:
178,3,150768,1,10,0:2:0:0:
24,178,150947,1,0,0:0:0:0:
272,312,151126,6,0,P|295:254|291:178,1,119.999996337891,0|0,3:0|0:0,0:0:0:0:
260,70,151393,1,0,0:0:0:0:
260,70,151483,1,10,0:2:0:0:
414,245,151662,1,0,0:0:0:0:
96,177,151840,6,0,L|213:150,1,119.999996337891,0|0,3:0|0:0,0:0:0:0:
341,116,152108,1,0,0:0:0:0:
341,116,152197,1,10,0:2:0:0:
127,34,152376,1,0,0:0:0:0:
282,279,152554,6,0,L|165:251,1,119.999996337891,0|0,3:0|0:0,0:0:0:0:
37,217,152911,1,10,0:2:0:0:
341,116,153090,1,8,0:0:0:0:
39,0,153268,6,0,P|22:49|77:143,1,150,10|0,0:0|0:0,0:0:0:0:
140,172,153626,1,2,0:0:0:0:
296,216,153804,1,2,0:0:0:0:
236,124,153983,1,2,0:0:0:0:
212,312,154161,2,0,P|207:343|206:373,1,50,8|0,3:2|0:0,0:0:0:0:
212,312,154340,6,0,P|217:281|218:251,1,50,8|0,3:2|0:0,0:0:0:0:
138,252,154608,1,0,0:0:0:0:
138,252,154697,6,0,P|184:189|272:201,2,150,8|8|8,3:2|3:2|3:2,0:0:0:0:
219,263,155411,1,8,3:2:0:0:
349,266,155590,2,0,L|271:251,1,50,8|0,0:0|0:0,0:0:0:0:
400,194,155768,2,0,L|532:168,1,100,8|0,0:0|0:0,0:0:0:0:
314,143,156126,6,0,P|285:91|309:16,1,119.999996337891,0|0,3:0|0:0,0:0:0:0:
369,82,156393,1,0,0:0:0:0:
369,82,156483,1,10,0:0:0:0:
224,181,156661,1,0,0:0:0:0:
405,240,156840,6,0,P|416:302|405:382,1,119.999996337891,0|0,3:0|0:0,0:0:0:0:
118,287,157197,1,10,0:0:0:0:
147,284,157286,1,0,0:0:0:0:
176,281,157376,1,0,0:0:0:0:
205,278,157465,1,0,0:0:0:0:
234,274,157554,6,0,L|256:135,1,119.999996337891,0|0,3:0|0:0,0:0:0:0:
350,261,157822,1,0,0:0:0:0:
350,261,157911,2,0,L|372:399,1,119.999996337891,10|0,0:0|0:0,0:0:0:0:
466,248,158268,5,0,3:0:0:0:
252,155,158447,1,8,0:0:0:0:
449,68,158626,1,10,3:2:0:0:
282,348,158804,1,8,0:0:0:0:
116,50,158983,6,0,P|43:111|90:208,2,200,10|2|2,0:0|0:0|0:0,0:0:0:0:
174,152,159876,2,0,L|127:136,1,50,8|0,3:2|0:0,0:0:0:0:
175,153,160054,6,0,L|222:136,1,50,8|0,3:2|0:0,0:0:0:0:
247,53,160322,1,0,0:0:0:0:
247,53,160411,6,0,P|313:29|394:57,2,150,8|8|8,3:2|3:2|3:2,0:2:0:0:
223,137,161126,1,8,3:2:0:0:
190,265,161304,2,0,L|202:216,1,50
247,53,161483,2,0,P|303:30|358:37,1,100,0|0,0:0|3:0,0:0:0:0:
162,196,161840,6,0,P|82:209|6:175,1,150,0|0,3:0|0:0,0:0:0:0:
46,109,162197,2,0,P|95:102|143:113,1,100,10|2,0:0|0:0,0:0:0:0:
302,196,162554,1,2,3:2:0:0:
280,37,162733,1,2,0:0:0:0:
239,271,162911,5,10,0:0:0:0:
261,282,163001,1,2,0:0:0:0:
363,108,163179,1,2,0:0:0:0:
341,119,163268,6,0,P|296:110|242:134,1,100,2|0,3:2|0:0,0:0:0:0:
344,269,163536,1,0,0:0:0:0:
344,269,163626,2,0,P|378:223|379:168,1,100,10|0,0:0|0:0,0:0:0:0:
302,196,163893,1,0,0:0:0:0:
302,196,163983,6,0,L|246:238,1,50,2|0,3:2|0:0,0:0:0:0:
163,356,164161,2,0,L|155:298,1,50
93,155,164340,2,0,L|146:177,1,50,10|0,0:0|0:0,0:0:0:0:
55,303,164518,1,2,0:0:0:0:
55,303,164608,1,2,0:0:0:0:
55,303,164697,6,0,P|50:279|50:252,1,50,2|0,3:2|0:0,0:0:0:0:
209,146,164876,1,0,0:0:0:0:
211,195,164965,1,0,0:0:0:0:
183,236,165054,1,10,0:0:0:0:
136,250,165143,1,0,0:0:0:0:
90,234,165233,1,2,0:0:0:0:
63,192,165322,1,2,0:0:0:0:
68,143,165411,6,0,L|68:103,2,33.3333333333333,2|0|0,3:2|0:0|0:0,0:0:0:0:
15,256,165590,5,2,0:0:0:0:
8,279,165679,1,2,0:0:0:0:
139,174,165858,1,2,0:0:0:0:
132,151,165947,1,2,0:0:0:0:
217,323,166126,6,0,P|250:330|301:323,1,50,2|0,3:2|0:0,0:0:0:0:
311,214,166304,2,0,P|344:207|395:214,1,50,2|0,0:0|0:0,0:0:0:0:
473,331,166483,1,10,0:0:0:0:
473,331,166572,2,0,P|458:283|467:230,1,100,2|0,0:0|0:0,0:0:0:0:
426,72,166840,6,0,P|434:111|430:146,1,62.5,2|0,3:2|0:0,0:0:0:0:
349,287,167018,2,0,P|310:295|275:291,1,62.5,10|0,0:0|0:0,0:0:0:0:
134,210,167197,2,0,B|107:154|134:86|134:86|152:117|154:157,1,187.5,2|0,0:0|0:0,0:0:0:0:
171,158,167554,6,0,P|196:162|220:154,1,50,0|0,3:0|0:0,0:0:0:0:
355,79,167733,1,2,0:0:0:0:
404,79,167822,1,0,0:0:0:0:
436,117,167911,1,10,0:0:0:0:
430,165,168000,1,0,0:0:0:0:
390,193,168090,1,2,0:0:0:0:
343,182,168179,1,2,0:0:0:0:
278,121,168268,6,0,P|255:196|313:268,1,150,2|0,3:2|0:0,0:0:0:0:
309,269,168626,2,0,L|439:261,1,100,10|2,0:0|0:0,0:0:0:0:
512,253,168983,5,2,3:2:0:0:
343,182,169161,1,0,0:0:0:0:
474,78,169340,1,10,0:0:0:0:
395,323,169518,1,2,0:0:0:0:
395,323,169608,1,2,0:0:0:0:
395,323,169697,6,0,L|335:312,1,50,2|0,3:2|0:0,0:0:0:0:
237,206,169876,2,0,L|173:217,1,50,2|2,0:0|0:0,0:0:0:0:
79,322,170054,1,10,0:0:0:0:
255,288,170233,1,2,0:0:0:0:
33,188,170411,6,0,P|30:160|31:131,1,50,2|0,3:2|0:0,0:0:0:0:
161,70,170590,1,2,0:0:0:0:
161,70,170679,1,2,0:0:0:0:
161,70,170768,2,0,P|164:98|163:127,1,50,10|0,0:0|0:0,0:0:0:0:
68,288,170947,1,2,0:0:0:0:
68,288,171036,1,2,0:0:0:0:
68,288,171126,6,0,L|123:293,1,50,2|0,3:2|0:0,0:0:0:0:
163,119,171304,2,0,L|218:114,1,50,2|0,3:2|0:0,0:0:0:0:
255,288,171483,2,0,L|310:293,1,50,10|0,3:2|0:0,0:0:0:0:
350,120,171661,2,0,L|405:115,1,50,2|2,3:2|0:0,0:0:0:0:
442,289,171840,6,0,B|400:333|400:333|367:267|403:199,1,179.999994506836,0|0,3:0|0:0,0:0:0:0:
442,289,172197,6,0,B|399:333|399:333|313:278|223:316,1,209.999993591309,0|0,3:0|0:0,0:0:0:0:
442,289,172554,6,0,L|437:368,1,80,0|0,3:0|0:0,0:0:0:0:
124,335,173268,6,0,B|165:295|211:311|211:311|274:294|292:205|292:205|300:312|387:332|387:332|369:312|374:272,1,450.000017166138,4|0,0:0|0:0,0:0:0:0:
421,211,174518,1,0,0:0:0:0:
421,211,174697,6,0,P|447:157|419:55,1,150.000005722046,4|0,0:0|0:0,0:0:0:0:
188,122,175233,2,0,L|338:134,1,150.000005722046,4|0,0:0|0:0,0:0:0:0:
115,194,175768,6,0,B|98:239|62:269|62:269|115:241|220:272,1,225.000008583069,4|0,0:0|0:0,0:0:0:0:
287,321,176126,5,4,3:2:0:0:
331,96,176304,1,0,3:0:0:0:
504,248,176483,1,0,3:0:0:0:
246,257,176661,5,0,3:0:0:0:
406,92,176839,1,0,3:0:0:0:
468,314,177018,1,0,3:0:0:0:
247,182,177197,5,0,3:0:0:0:
471,131,177375,1,0,3:0:0:0:
402,351,177554,1,0,3:0:0:0:
305,75,177733,5,4,3:2:0:0:
186,265,177911,1,0,3:0:0:0:
69,72,178090,1,0,3:0:0:0:
303,302,178268,5,0,3:0:0:0:
184,102,178446,1,0,3:0:0:0:
66,306,178625,1,0,3:0:0:0:
310,175,178804,5,0,3:0:0:0:
191,365,178982,1,0,3:0:0:0:
73,171,179161,1,0,3:0:0:0:
385,248,179340,5,4,3:2:0:0:
144,278,179518,1,0,3:0:0:0:
240,54,179697,1,0,3:0:0:0:
360,348,179875,5,0,3:0:0:0:
215,153,180054,1,0,3:2:0:0:
456,124,180232,1,0,3:0:0:0:
240,281,180411,5,0,3:0:0:0:
195,41,180590,1,0,3:0:0:0:
93,240,180768,5,4,3:2:0:0:
397,118,180947,1,0,3:0:0:0:
77,137,181125,5,0,3:2:0:0:
412,272,181304,1,0,3:0:0:0:
62,252,181482,5,0,3:2:0:0:
427,105,181661,1,0,3:0:0:0:
62,22,181840,5,2,0:0:0:0:
143,79,182018,1,2,0:0:0:0:
143,79,182107,1,0,0:0:0:0:
143,79,182197,1,2,0:0:0:0:
58,132,182375,1,2,0:0:0:0:
144,183,182554,1,2,0:0:0:0:
226,127,182732,1,2,0:0:0:0:
213,27,182911,2,0,B|264:15|264:15|333:35,1,100,2|2,0:0|0:0,0:0:0:0:
400,200,183268,6,0,P|371:126|407:55,1,150
415,47,183625,1,2,0:0:0:0:
470,131,183804,1,2,0:0:0:0:
400,200,183982,1,2,0:0:0:0:
343,117,184161,1,2,0:0:0:0:
415,47,184340,5,2,3:2:0:0:
478,296,184518,1,2,3:2:0:0:
478,296,184607,1,0,3:0:0:0:
478,296,184697,6,0,P|397:328|297:307,1,179.999994506836,0|0,3:0|0:0,0:0:0:0:
117,282,185054,2,0,P|173:260|253:278,1,119.999996337891,10|0,0:0|0:0,0:0:0:0:
41,357,185411,6,0,B|13:287|13:287|29:183,1,179.999994506836,0|0,3:0|0:0,0:0:0:0:
104,68,185768,2,0,L|122:186,1,119.999996337891,10|0,0:0|0:0,0:0:0:0:
358,312,186125,6,0,B|386:242|386:242|369:138,1,179.999994506836,0|0,3:0|0:0,0:0:0:0:
295,23,186482,2,0,L|276:141,1,119.999996337891,10|0,0:0|0:0,0:0:0:0:
210,360,186840,5,8,3:2:0:0:
144,100,187019,1,0,0:0:0:0:
144,100,187108,1,0,0:0:0:0:
144,100,187197,1,10,3:2:0:0:
383,202,187376,1,8,3:2:0:0:
0,178,187554,5,8,3:2:0:0:
0,178,188447,2,0,B|78:183,1,50,8|0,3:2|0:0,0:0:0:0:
73,200,188626,6,0,L|161:206,1,59.9999981689454,8|0,3:2|0:0,0:0:0:0:
200,260,188894,1,0,0:0:0:0:
135,316,188983,6,0,B|114:260|114:260|132:203,1,119.999996337891,8|0,3:2|0:0,0:0:0:0:
213,53,189250,2,0,B|231:109|231:109|209:165,1,119.999996337891,8|0,3:2|0:0,0:0:0:0:
132,203,189519,1,8,3:2:0:0:
298,42,189697,1,8,3:2:0:0:
342,289,189876,2,0,L|253:281,1,59.9999981689454,8|0,0:0|0:0,0:0:0:0:
171,292,190054,6,0,P|212:257|176:327,1,209.999993591309,8|0,0:0|0:0,0:0:0:0:
171,292,190411,6,0,P|152:205|172:112,1,179.999994506836,0|0,3:0|0:0,0:0:0:0:
282,283,190768,2,0,P|299:204|280:121,1,119.999996337891,10|0,0:0|0:0,0:0:0:0:
34,41,191126,6,0,L|222:31,1,179.999994506836,0|0,3:0|0:0,0:0:0:0:
434,92,191483,2,0,L|283:84,1,119.999996337891,10|0,0:0|0:0,0:0:0:0:
105,209,191840,6,0,B|79:150|79:150|101:24,1,179.999994506836,0|0,3:0|0:0,0:0:0:0:
249,93,192197,2,0,B|270:140|270:140|253:241,1,119.999996337891,10|0,0:0|0:0,0:0:0:0:
195,360,192554,5,8,3:2:0:0:
176,152,192733,1,8,0:0:0:0:
176,152,192822,1,0,0:0:0:0:
176,152,192911,1,10,3:2:0:0:
15,259,193090,1,8,3:2:0:0:
366,190,193268,5,8,3:2:0:0:
366,190,194161,2,0,L|317:194,1,50,8|0,3:2|0:0,0:0:0:0:
285,193,194340,6,0,B|273:224|273:224|281:265,1,59.9999981689454,8|0,3:2|0:0,0:0:0:0:
352,272,194608,1,0,0:0:0:0:
429,259,194697,6,0,B|455:213|455:213|434:112,1,119.999996337891,8|0,3:2|0:0,0:0:0:0:
290,362,194965,2,0,B|264:316|264:316|285:215,1,119.999996337891,8|0,3:2|0:0,0:0:0:0:
331,81,195233,1,8,3:2:0:0:
349,299,195411,1,0,3:2:0:0:
154,156,195590,2,0,B|234:140,1,59.9999981689454,8|0,0:0|0:0,0:0:0:0:
331,81,195769,6,0,B|315:149|315:149|371:217,1,139.999995727539,8|0,0:0|3:0,0:0:0:0:
182,53,196126,6,0,L|38:37,1,119.999996337891
62,39,196393,1,0,0:0:0:0:
62,39,196483,1,10,0:0:0:0:
145,263,196661,1,0,0:0:0:0:
295,113,196840,2,0,P|322:203|266:296,1,179.999994506836,0|0,3:0|0:0,0:0:0:0:
181,228,197197,6,0,P|202:150|201:234,1,209.999993591309,10|0,0:0|0:0,0:0:0:0:
96,241,197554,6,0,P|85:182|105:126,1,119.999996337891,0|0,3:0|0:0,0:0:0:0:
105,126,197822,1,0,0:0:0:0:
105,126,197911,1,10,0:0:0:0:
286,359,198090,1,0,0:0:0:0:
360,73,198269,2,0,L|164:51,1,179.999994506836,0|0,3:0|0:0,0:0:0:0:
152,68,198626,6,0,B|178:8|178:8|225:97|201:189,1,240,10|0,0:0|0:0,0:0:0:0:
157,284,198982,5,4,3:2:0:0:
131,322,199072,1,0,0:0:0:0:
93,343,199161,1,0,0:0:0:0:
48,342,199250,1,0,0:0:0:0:
10,320,199340,2,0,B|51:299|51:299|128:368|254:340,1,209.999993591309,10|0,0:0|0:0,0:0:0:0:
334,312,199697,5,4,3:2:0:0:
369,264,199786,1,0,0:0:0:0:
374,205,199875,1,0,0:0:0:0:
348,152,199964,1,0,0:0:0:0:
298,119,200054,2,0,B|231:79|231:79|314:98|408:71,1,240,10|0,0:0|0:0,0:0:0:0:
494,160,200411,6,0,P|460:152|419:150,1,59.9999981689454,2|0,3:2|0:0,0:0:0:0:
221,351,200590,5,8,3:2:0:0:
221,351,200679,1,0,0:0:0:0:
221,351,200769,2,0,L|209:288,1,64.9999970245363,2|0,3:2|0:0,0:0:0:0:
374,205,200947,5,8,3:2:0:0:
374,205,201036,1,0,0:0:0:0:
374,205,201126,2,0,L|386:134,1,69.9999978637696,2|0,3:2|0:0,0:0:0:0:
171,121,201304,5,8,3:2:0:0:
171,121,201393,1,0,0:0:0:0:
171,121,201483,2,0,L|158:47,1,75.0000028610231,2|0,3:2|0:0,0:0:0:0:
402,0,201661,5,8,0:0:0:0:
402,0,201751,1,0,0:0:0:0:
402,0,201839,5,2,0:0:0:0:
321,52,202017,1,0,0:0:0:0:
391,120,202196,2,0,P|428:125|470:118,1,75.0000028610231,2|0,0:0|0:0,0:0:0:0:
307,185,202553,2,0,P|251:175|178:202,1,112.500004291535,2|0,0:0|0:0,0:0:0:0:
182,199,202910,6,0,L|172:273,1,75.0000028610231,2|0,3:2|0:0,0:0:0:0:
104,112,203267,2,0,L|94:186,1,75.0000028610231,2|0,0:0|0:0,0:0:0:0:
26,25,203624,2,0,L|16:99,1,75.0000028610231,2|0,0:0|0:0,0:0:0:0:
72,340,203981,5,2,3:2:0:0:
72,340,204696,1,2,3:2:0:0:
212,97,205053,1,2,3:2:0:0:
